#TITLE:C18H27NO3 (Extended Ver.);
#SUBTITLE:The BOSS Song Of Kirby5464;
#ARTIST:Team Grimoire;
#TITLETRANSLIT:;
#SUBTITLETRANSLIT:;
#ARTISTTRANSLIT:;
#CREDIT:Kirby5464;
#BANNER:../Banner.png;
#BACKGROUND:../BG.png;
#LYRICSPATH:;
#CDTITLE:../CDTitleKIRBY.png;
#MUSIC:Team Grimoire - C18H27NO3 (Extended Ver.).ogg;
#OFFSET:-2.625;
#SAMPLESTART:217.467;
#SAMPLELENGTH:29.999;
#SELECTABLE:YES;
#BPMS:0.000=105.000,98.000=210.000,354.000=105.000,482.000=210.000,654.000=105.000,666.000=210.000,858.000=105.000;
#STOPS:;
#BGCHANGES:;
// cache tags:
#FIRSTBEAT:0.000;
#LASTBEAT:889.500;
#SONGFILENAME:Songs/Index Fusion/C18H27NO3 - [Kirby5464]/C18H27NO3.sm;
#HASMUSIC:1;
#HASBANNER:1;
#MUSICLENGTH:337.502;
// end cache tags

//---------------dance-single - Kirby5464----------------
#NOTES:
     dance-single:
     Kirby5464:
     Hard:
     18:
     1.000,1.000,0.089,0.391,1.000,2437.000,30.000,132.000,6.000,0.000:
1000
0100
0010
0001
,
0100
0000
0001
0000
1000
0000
0100
1000
,
0010
1000
0001
0010
,
0001
0000
0000
0000
1000
0000
0000
0000
0010
0000
0000
0000
1000
0000
0100
0010
,
0001
0000
1000
0000
0010
0000
1000
0000
0100
0000
0010
0100
1000
0000
0001
0000
,
0010
0000
0001
0000
1000
0000
0010
1000
,
0100
0000
0010
0000
0001
0000
1000
0000
0100
0000
0010
0001
1000
0000
0010
0000
,
1000
0000
0000
0000
0100
0000
0000
0000
0010
0000
0000
0000
0001
0000
1000
0010
,
1000
0000
0100
0000
0010
0000
0100
0000
1000
0000
0001
0100
0010
0000
1000
0000
,
0100
0000
0010
0000
0100
0000
1000
0001
,
0010
0000
0001
0000
1000
0000
0010
0000
1000
0000
0100
1000
0001
0000
0100
0000
,
0001
0000
0000
0000
0010
0000
0000
0000
0001
1000
0010
0100
0001
0010
0001
1000
,
0010
1000
0100
1000
0001
0100
0001
1000
0100
1000
0010
0100
0010
1000
0001
1000
,
0010
1000
0100
1000
0001
0100
0001
1000
0100
1000
0001
0010
0001
1000
0010
1000
,
0100
0010
0001
1000
0001
0010
0100
1000
0010
0100
0010
1000
0001
0100
0001
1000
,
0100
0010
0001
0100
0010
1000
0010
0100
0001
0010
0001
1000
0100
0010
0001
1000
,
0010
0000
0100
0000
1000
0000
0010
0000
0100
0000
0001
0100
0010
0000
1000
0000
,
0001
0000
0010
0000
0001
0000
1000
0000
0010
0000
0100
0001
1000
0000
0100
0000
,
1000
0000
0001
0000
0010
0000
0100
0000
1000
0000
0010
0100
0001
0000
0100
0000
,
0010
0000
1000
0000
0001
0000
0010
0000
0001
0000
0100
0010
0100
0000
0001
0000
,
1000
0000
0010
0000
1000
0000
0001
0000
0100
0000
0010
0100
0001
0000
1000
0000
,
0100
0000
1000
0000
0001
0000
0010
0000
0100
0000
1000
0010
1000
0000
0001
0000
,
1000
0000
0001
0000
0100
0000
0001
0000
1000
0000
1000
0001
1000
0000
1000
0000
,
0020
2030
3020
0230
0302
0023
0230
0320
4030
0000
3004
0000
0403
0000
0340
0000
,
2030
0000
0000
0000
0000
0000
0000
0000
3001
0010
0001
0100
0010
1000
0100
1000
,
0001
0010
0100
1000
0001
0010
0001
1000
0010
1000
0001
0100
0010
1000
0100
1000
,
0001
0010
0100
0010
0001
0100
0010
1000
0100
1000
0001
1000
0010
0100
0001
0010
,
0100
1000
0001
0100
0010
1000
0100
0010
0001
1000
0010
0100
0001
0010
0001
0100
,
0010
1000
0100
0010
0001
1000
0010
0100
0001
0010
0001
1000
0010
0100
0001
1000
,
0010
1000
0100
1000
0001
0010
0100
1000
0001
0100
0010
1000
0100
1000
0001
0010
,
0001
0100
0010
1000
0001
1000
0100
0010
0001
1000
0010
1000
0001
0010
0001
0100
,
0010
1000
0100
0010
0001
1000
0010
0100
0001
0010
0001
0100
0010
1000
0100
1000
,
0001
0010
0100
1000
0MMM
0000
0000
0000
0100
0001
1000
0100
1000
0001
0010
0100
,
1000
0001
0010
0001
1000
0010
1000
0001
0100
0010
1000
0100
1000
0001
0010
0100
,
0010
0001
0100
0010
1000
0100
1000
0001
1000
0010
0100
0001
0010
0100
1000
0001
,
0100
0010
1000
0100
0010
0001
1000
0010
0100
0001
0010
0001
0100
0010
1000
0100
,
2000
0000
0000
0000
0000
0000
0000
0000
0000
0000
0000
0000
3002
0000
0000
0000
0000
0000
0203
0000
0000
0000
0000
0300
0100
0000
0000
0010
0000
0000
0100
0000
0000
0001
0000
0000
1000
0000
0000
0010
0000
0000
1000
0000
0000
0100
0000
0000
,
1000
0001
0010
0100
1000
0001
0100
0010
1000
0100
1000
0001
0010
0001
0100
0010
,
1000
0001
1000
0100
0010
0001
1000
0010
1000
0001
0010
0001
0100
0010
1000
0100
,
0010
0001
1000
0010
0100
0001
0010
0001
0200
0000
2300
0000
3200
0000
0320
0000
,
0034
0000
0000
0000
0000
0000
0000
0000
1003
0010
1000
0001
1000
0010
0100
0001
,
0010
0100
1000
0001
0010
0001
1000
0010
1000
0100
1000
0001
0010
0001
1000
0010
,
1000
0100
0010
0100
1000
0001
0010
0001
1000
0010
0100
0001
1000
0001
0010
0100
,
1000
0001
0010
0001
0100
0010
0100
0001
1000
0100
0010
0001
1000
0001
0100
0010
,
1000
0001
0100
0001
1000
0100
1000
0010
0100
0001
1000
0100
0010
0001
1000
0001
,
0100
0010
1000
0001
1000
0100
0010
0001
0100
0001
1000
0001
0010
0100
1000
0010
,
1000
0001
0100
0001
1000
0001
0010
0100
1000
0010
1000
0001
0100
0001
1000
0001
,
1000
0100
1000
0010
0100
0001
1000
0001
0010
0100
1000
0001
0100
0001
0010
0100
,
2000
0000
3002
0000
0203
0000
0320
0000
1030
0100
0010
0001
1000
0010
0100
0001
,
1000
0001
0010
0100
1000
0010
0100
0001
1000
0001
0100
0010
1000
0010
0100
0001
,
1000
0100
0010
0001
1000
0010
1000
0100
0010
0001
1000
0010
0100
0001
1000
0001
,
0010
0100
1000
0010
0100
0001
1000
0001
0100
0010
1000
0010
0100
0001
1000
0100
,
2000
0000
0000
0000
0000
0000
0000
0000
3010
1000
0001
0010
0100
1000
0001
0100
,
0001
1000
0100
1000
0001
0010
0100
1000
0001
0100
0010
0100
0001
0010
0001
1000
,
0010
0100
0001
0010
0001
1000
0100
1000
0002
0000
0203
0000
0320
0000
0230
0000
,
0302
2003
3002
2003
3020
2030
3200
0320
,
0034
0000
0000
0000
0000
0000
0000
0000
1003
0100
0010
0001
1000
0010
1000
0100
,
0010
0001
0100
0010
1000
0010
0100
0001
0010
0001
1000
0100
0010
0001
0010
0100
,
1000
0001
0010
0001
0100
0010
1000
0100
1000
0001
0010
0100
1000
0001
0010
0001
,
1000
0010
1000
0001
0100
0010
1000
0100
1000
0001
0010
0100
0010
0001
0100
0010
,
1000
0100
1000
0001
1000
0010
0100
0001
0010
0100
1000
0001
0100
0010
1000
0100
,
0010
0001
1000
0010
0100
0001
0010
0001
0100
0010
1000
0100
0010
0001
1000
0010
,
0100
0001
0010
0001
1000
0010
0100
0001
1000
0010
1000
0100
1000
0001
0010
0100
,
1000
0001
0100
0010
1000
0100
1000
0001
0010
0001
0100
0010
1000
0001
1000
0100
,
2000
0000
3002
0000
0203
0000
0320
0000
1030
0100
1000
0010
0100
0001
0010
0100
,
1000
0001
0010
0001
1000
0010
1000
0001
0100
0010
1000
0100
1000
0001
0010
0100
,
0010
0001
0100
0010
1000
0100
1000
0001
1000
0010
0100
0001
0010
0100
1000
0001
,
0100
0010
1000
0100
0010
0001
1000
0010
0100
0001
0010
0001
0100
0010
1000
0001
,
2000
0000
0000
0000
0000
0000
0000
0000
0000
0000
0000
0000
0000
0000
0000
3000
1000
0000
0010
0000
1000
0000
0001
0000
1000
0000
0001
0000
0010
0000
0100
0000
,
1000
0001
1000
0001
0100
0010
0100
0001
1000
0001
1000
0001
0010
0001
0010
0100
,
1000
0100
1000
0001
0100
0001
1000
0010
2000
0000
3200
0000
2300
0000
3020
0000
,
0230
0302
0023
0230
2300
3002
0203
0320
,
0430
0000
0000
0000
0000
0000
0000
0000
0000
0000
0000
0000
0000
0000
0000
0300
0100
0000
0001
0000
1000
0000
0001
0000
0010
0000
0100
0000
1000
0000
0001
0000
,
1000
0010
0100
0001
0010
0100
1000
0001
0010
0001
1000
0010
1000
0100
1000
0001
,
0010
0001
1000
0010
1000
0100
0010
0100
1000
0001
0010
0001
1000
0010
0100
0001
,
0010
0001
0100
0010
0100
0001
1000
0100
0010
0001
1000
0001
0100
0010
1000
0001
,
0100
0001
1000
0100
1000
0010
0100
0001
1000
0100
0010
0001
1000
0001
0100
0010
,
1000
0001
1000
0100
0010
0001
0100
0001
1000
0001
0010
0100
1000
0010
1000
0001
,
0100
0001
1000
0001
1000
0100
1000
0010
0100
0001
1000
0001
0010
0100
1000
0001
,
0100
0001
0010
0100
1000
0001
0100
0010
1000
0001
1000
0001
0010
0001
1000
0010
,
4000
0000
0000
0000
0000
0000
0000
0000
3100
1000
0010
1000
0001
1000
0100
0010
,
0001
0010
0100
1000
0010
0100
0010
1000
0001
0100
0001
1000
0100
0010
0001
0100
,
0010
1000
0010
0100
0001
0010
0001
1000
0100
0010
0001
1000
0100
0010
0100
1000
,
0001
1000
0010
0100
0010
1000
0001
1000
0100
0010
0001
0100
0001
1000
0001
0010
,
0002
0000
2003
0000
3020
0000
0230
0000
0301
0010
0001
0100
0010
1000
0100
0010
,
0001
1000
0010
0100
0001
0010
0001
1000
0010
0100
0001
1000
0010
1000
0100
1000
,
0001
0010
0100
1000
0001
0100
0010
1000
0004
0000
0043
0000
0430
0000
4300
0000
,
3004
0403
0340
4030
3400
4300
3004
0043
,
0034
0403
0340
2030
3002
0000
0000
0000
,
2003
0000
3020
0000
,
0230
0000
0302
0000
,
2003
0000
3020
0000
,
2030
0000
3200
0000
,
0320
0000
0032
0000
,
0023
0000
0230
0000
,
2300
0000
3002
0000
,
2003
0000
0000
0000
0000
0000
0000
3000
1000
0000
0000
0000
0100
0000
0000
0000
,
0010
0001
0010
0100
,
0010
1000
0001
1000
,
0100
0010
0001
0010
,
0100
0000
1000
0000
0100
0010
0001
1000
,
0010
0100
0001
0010
0001
1000
0100
1000
,
0010
0100
0001
1000
0001
0010
0100
1000
,
0001
0100
0001
1000
0100
1000
0010
0100
,
0001
0000
0010
0000
0100
0000
1000
0000
0010
1000
0001
1000
0001
0010
0100
1000
,
0001
1000
0001
0100
0010
1000
0001
1000
0100
0010
0001
1000
0010
1000
0001
1000
,
0001
0010
0100
1000
0001
1000
0001
0100
0010
0100
0001
1000
0001
1000
0001
0010
,
0001
0010
0100
1000
0100
1000
0001
0100
0001
1000
0010
0100
0001
1000
0100
1000
,
0002
0000
0000
0000
2003
0000
0000
0000
3001
0010
0100
0010
0001
1000
0001
1000
,
0010
0100
0010
1000
0001
0100
0001
1000
0010
0100
0001
1000
0001
0010
0100
1000
,
0100
1000
0001
1000
0001
0100
0010
1000
0010
1000
0010
1000
0001
0010
0100
1000
,
0100
0010
0001
1000
0001
0100
0010
0100
0002
0003
1100
0000
0011
0000
0110
0000
,
1010
0000
0101
0000
0110
0000
1001
0000
0010
1000
0001
1000
0100
0010
0001
1000
,
0010
0100
0001
0100
0001
1000
0100
0010
0001
1000
0100
1000
0001
1000
0001
0100
,
0010
0100
0001
1000
0100
1000
0001
0100
0010
1000
0001
1000
0100
0010
0001
1000
,
0001
0100
0010
0100
0001
1000
0010
1000
0001
1000
0100
0010
0001
0010
0100
1000
,
0002
0000
0000
0000
0203
0000
0000
0000
0310
0100
0001
1000
0010
1000
0001
0100
,
0010
1000
0001
0010
0100
0010
0001
1000
0100
1000
0001
0100
0001
1000
0010
0100
,
0010
1000
0001
0010
0100
1000
0100
0010
0001
1000
0010
0100
0001
1000
0001
0010
,
0100
0010
0001
1000
0100
1000
0001
0100
0002
0023
0230
2300
3020
2030
3002
2003
,
3200
0320
0032
2003
3040
0000
0000
0000
0230
0300
0000
0000
0000
0000
0000
0000
,
0000
0000
1100
0000
,
0000
0000
0011
0000
,
0000
0000
1010
0000
,
0000
0000
0101
0000
,
0110
0000
1100
0000
,
0011
0000
1000
0001
,
1000
0000
0001
0000
1000
0100
1000
0001
,
1000
0000
0001
0000
0100
0000
0001
0010
0100
1000
0010
1000
0001
0010
0001
1000
,
0010
1000
0100
0010
0001
1000
0001
0100
0040
0000
0000
0000
0000
0000
0000
0000
,
0000
0000
0000
0000
0000
0000
0000
0000
0130
0010
0001
1000
0010
0100
0001
0010
,
0001
1000
0100
1000
0010
0100
0001
1000
0001
0000
0010
0000
0100
0000
1000
0000
,
0010
0100
0001
1000
0001
0100
0010
1000
,
0010
0100
0001
1000
0100
0010
0001
1000
,
0010
1000
0100
0010
0004
0000
0403
0000
,
0304
0000
0043
0000
1030
0100
1000
0010
,
0100
0001
0010
0001
1000
0100
0010
0001
,
1000
0100
1000
0001
0100
0001
1000
0010
,
0100
0001
0010
0001
4000
0000
3400
0000
,
0340
0000
0430
0000
0301
1000
0010
0100
,
0001
0010
0100
1000
0001
0100
0010
1000
,
0100
1000
0010
0100
0001
0010
0100
1000
,
0001
0100
0010
1000
0004
0000
4003
0000
,
3040
0000
0430
0000
0301
0100
0001
0010
,
0001
1000
0100
1000
0001
0010
0100
1000
,
0001
1000
0010
0100
0001
1000
0001
0010
,
0100
1000
0001
1000
0004
0000
0403
0000
,
0340
0000
4030
0000
3001
0010
0001
1000
,
0010
1000
0100
1000
0001
0010
0001
1000
,
0010
1000
0100
0010
0100
1000
0001
0010
,
0001
1000
0010
0100
0004
0000
0403
0000
,
0340
0000
4030
0000
3001
0100
0001
1000
,
0100
1000
0010
0100
0001
1000
0100
0010
,
0001
1000
0001
0100
0010
1000
0001
1000
,
0100
0010
0001
0100
0004
0000
0043
0000
,
0430
0000
4300
0000
3001
0100
0001
1000
,
0100
1000
0010
0100
0001
1000
0001
0010
,
0100
1000
0001
0100
0001
0010
0100
1000
,
0001
0100
0010
1000
0004
0000
4003
0000
,
3040
0000
4030
0000
3001
0100
0001
0010
,
0001
1000
0100
0010
0100
0001
1000
0001
,
1000
0010
1000
0100
0010
0001
1000
0001
,
0100
0010
1000
0001
0400
0000
0300
0000
,
4000
0000
3002
2003
,
3020
0230
0302
2003
3020
0000
0230
0320
,
2030
0000
3002
0203
0302
0000
0000
4003
,
0000
0000
0000
0000
3000
0000
4000
0000
3001
0010
0001
0100
0010
1000
0100
1000
,
0001
0010
0100
1000
0001
0010
0001
1000
0010
1000
0001
0100
0010
1000
0100
1000
,
0001
0010
0100
0010
0001
0100
0010
1000
0100
1000
0001
1000
0010
0100
0001
0010
,
0100
1000
0001
0100
0010
1000
0100
0010
0001
1000
0010
0100
0001
0010
0001
0100
,
0010
1000
0100
0010
0001
1000
0010
0100
0001
0010
0001
1000
0010
0100
0001
1000
,
0010
1000
0100
1000
0001
0010
0100
1000
0001
0100
0010
1000
0100
1000
0001
0010
,
0001
0100
0010
1000
0001
1000
0100
0010
0001
1000
0010
1000
0001
0010
0001
0100
,
0010
1000
0100
0010
0001
1000
0010
0100
0001
0010
0001
0100
0010
1000
0100
1000
,
0001
0010
0100
1000
0MMM
0000
0000
0000
0010
1000
0001
0010
0001
1000
0100
0010
,
0001
1000
0100
1000
0001
0100
0001
1000
0010
0100
0001
0010
0001
1000
0100
0010
,
0100
1000
0010
0100
0001
0010
0001
1000
0001
0100
0010
1000
0100
0010
0001
1000
,
0010
0100
0001
0010
0100
1000
0001
0100
0010
1000
0100
1000
0010
0100
0001
0010
,
0002
0000
0000
0000
0203
0000
0320
0000
1030
0010
0100
0001
1000
0010
1000
0100
,
1000
0001
0010
0100
1000
0001
0100
0010
1000
0100
1000
0001
0010
0001
0100
0010
,
1000
0001
1000
0100
0010
0001
1000
0010
1000
0001
0010
0001
0100
0010
1000
0100
,
0010
0001
1000
0010
0100
0001
0010
0001
2000
0000
3200
0000
0320
0000
0032
0000
,
4003
0000
0000
0000
0000
0000
0000
0000
0000
0000
0000
0000
0000
0000
0000
3000
1000
0000
0001
0000
1000
0000
0001
0000
1000
0000
0010
0000
0100
0000
0001
0000
,
0010
0100
1000
0001
0010
0001
1000
0010
1000
0100
1000
0001
0010
0001
1000
0010
,
1000
0100
0010
0100
1000
0001
0010
0001
1000
0010
0100
0001
1000
0001
0010
0100
,
1000
0001
0010
0001
0100
0010
0100
0001
1000
0100
0010
0001
1000
0001
0100
0010
,
1000
0001
0100
0001
1000
0100
1000
0010
0100
0001
1000
0100
0010
0001
1000
0001
,
0100
0010
1000
0001
1000
0100
0010
0001
0100
0001
1000
0001
0010
0100
1000
0010
,
1000
0001
0100
0001
1000
0001
0010
0100
1000
0010
1000
0001
0100
0001
1000
0001
,
1000
0100
1000
0010
0100
0001
1000
0001
0010
0100
1000
0001
0100
0001
0010
0100
,
2000
0000
3002
0000
0203
0000
0302
0000
1003
0100
0010
0001
1000
0010
0100
0001
,
1000
0001
0010
0100
1000
0010
0100
0001
1000
0001
0100
0010
1000
0010
0100
0001
,
1000
0100
0010
0001
1000
0010
1000
0100
0010
0001
1000
0010
0100
0001
1000
0001
,
0010
0100
1000
0010
0100
0001
1000
0001
0100
0010
1000
0010
0100
0001
1000
0100
,
2000
0000
3002
0000
0023
0000
0032
0000
0103
0001
1000
0100
0010
0001
1000
0010
,
1000
0001
0010
0001
1000
0100
0010
0001
1000
0010
0100
0010
1000
0100
1000
0001
,
0100
0010
1000
0100
1000
0001
0010
0001
2000
0000
3002
0000
0023
0000
0032
0000
,
2003
3200
0320
0032
0023
0230
2300
3020
,
4030
0000
0000
0000
0000
0000
0000
0000
0000
0000
0000
0000
0000
0000
0000
3000
1000
0000
0100
0000
0010
0000
0001
0000
1000
0000
0010
0000
1000
0000
0100
0000
,
0010
0001
0100
0010
1000
0010
0100
0001
0010
0001
1000
0100
0010
0001
0010
0100
,
1000
0001
0010
0001
0100
0010
1000
0100
1000
0001
0010
0100
1000
0001
0010
0001
,
1000
0010
1000
0001
0100
0010
1000
0100
1000
0001
0010
0100
0010
0001
0100
0010
,
1000
0100
1000
0001
1000
0010
0100
0001
0010
0100
1000
0001
0100
0010
1000
0100
,
0010
0001
1000
0010
0100
0001
0010
0001
0100
0010
1000
0100
0010
0001
1000
0010
,
0100
0001
0010
0001
1000
0010
0100
0001
1000
0010
1000
0100
1000
0001
0010
0100
,
1000
0001
0100
0010
1000
0100
1000
0001
0010
0001
0100
0010
1000
0001
1000
0100
,
0020
0000
0000
0000
0000
0000
0000
0000
1030
0100
1000
0010
0100
0001
0010
0100
,
1000
0001
0010
0001
1000
0010
1000
0001
0100
0010
1000
0100
1000
0001
0010
0100
,
0010
0001
0100
0010
1000
0100
1000
0001
1000
0010
0100
0001
0010
0100
1000
0001
,
0100
0010
1000
0100
0010
0001
1000
0010
0100
0001
0010
0001
0100
0010
1000
0001
,
1000
0100
0010
0001
0010
0100
1000
0001
0100
0010
1000
0001
1000
0001
0010
0100
,
1000
0001
1000
0001
0100
0010
0100
0001
1000
0001
1000
0001
0010
0001
0010
0100
,
1000
0100
1000
0001
0100
0001
1000
0010
0100
0001
1000
0001
0010
0100
1000
0001
,
1000
0010
0100
0001
0010
0100
1000
0001
0010
0001
1000
0010
1000
0100
1000
0001
,
0010
0001
1000
0010
1000
0100
0010
0100
2000
0000
0000
0000
0000
0000
0000
0000
,
0000
0000
3002
0000
,
0000
0000
0000
0000
0103
0010
0100
0001
,
1000
0000
0001
0010
0100
0000
1000
0000
0001
0000
0100
0000
0001
0000
0010
0000
,
0001
0000
1000
0001
0100
0000
0001
0000
0100
0000
0010
0000
1000
0000
0001
0000
,
0100
0000
0001
0010
0100
0000
1000
0000
0001
0000
0010
0000
0100
0000
1000
0000
,
0001
0000
1000
0100
0010
0000
0001
0000
1000
0000
0010
0000
1000
0000
0001
0000
,
0100
0000
0001
0010
0100
0000
0010
0000
0001
0000
1000
0000
0010
0000
0100
0000
,
0010
0000
1000
0001
1000
0000
0001
0000
0000
0000
0000
0000
0000
0000
0000
0000
,
0000
0000
0000
0000
,
0000
0000
0000
0000
;

//---------------dance-single - ----------------
#NOTES:
     dance-single:
     :
     Challenge:
     28:
     1.000,1.000,0.021,0.121,1.000,3321.000,7.000,41.000,8.000,0.000:
1000
0100
0010
0001
,
0100
0000
0001
0000
1000
0000
0100
1000
,
0010
1000
0001
0010
,
0001
0000
0000
0000
1000
0000
0000
0000
0010
0000
0000
0000
1000
0000
0100
0010
,
0001
0000
1000
0000
0010
0000
1000
0000
0100
0000
0010
0100
1000
0000
0001
0000
,
0010
0000
0001
0000
1000
0000
0010
1000
,
0100
0000
0010
0000
0001
0000
1000
0000
0100
0000
0010
0001
1000
0000
0010
0000
,
1000
0000
0000
0000
0100
0000
0000
0000
0010
0000
0000
0000
0001
0000
1000
0010
,
1000
0000
0100
0000
0010
0000
0100
0000
1000
0000
0001
0100
0010
0000
1000
0000
,
0100
0000
0010
0000
0100
0000
1000
0001
,
0010
0000
0001
0000
1000
0000
0010
0000
1000
0000
0100
1000
0001
0000
0100
0000
,
0001
0000
0000
0000
0010
0000
0000
0000
0001
1000
0010
0100
0001
0010
0001
1000
,
0010
0000
0000
1000
0000
0000
0100
0000
0000
1000
0000
0000
0001
0000
0000
0100
0000
0000
0001
0000
0000
1000
0000
0000
0100
0000
0000
1000
0000
0000
0010
0000
0000
0100
0000
0000
0001
0000
0000
1000
0000
0000
0100
1000
0010
0100
0001
0010
,
0001
0000
0000
1000
0000
0000
0100
0000
0000
1000
0000
0000
0001
0000
0000
0100
0000
0000
0001
0000
0000
1000
0000
0000
0100
0000
0000
1000
0000
0000
0010
0100
0001
0010
0001
1000
0100
0010
0001
1000
0000
0000
0100
1000
0001
0100
0001
1000
,
0010
0100
0001
0010
0001
0000
1000
0000
0000
0001
0000
0000
1000
0000
0000
0100
0000
0000
0010
0000
0000
0001
0000
0000
0100
0000
0000
0010
0000
0000
0100
0000
0000
0001
0000
0000
1000
0000
0000
0010
0000
0000
1000
0000
0000
0001
0000
0000
,
0010
0100
1000
0010
0100
0001
0100
0010
1000
0100
1000
0001
0010
0100
1000
0001
,
0100
0000
0010
0000
0001
0000
0100
0000
0010
0000
1000
0010
0100
0000
0001
0000
,
1000
0000
0100
0000
1000
0000
0001
0000
0100
0000
0010
1000
0001
0000
0010
0000
,
0001
0000
1000
0000
0100
0000
0010
0000
0001
0000
0100
0010
1000
0000
0010
0000
,
0100
0000
0001
0000
1000
0000
0100
0000
1000
0000
0010
0100
0010
0000
1000
0000
,
0001
0000
0100
0000
0001
0000
1000
0000
0010
0000
0100
0010
1000
0000
0001
0000
,
0010
0000
0001
0000
1000
0000
0100
0000
0010
0000
0001
0100
0001
0000
1000
0000
,
0001
0000
1000
0000
0010
0000
1000
0000
0001
0000
0001
1000
0001
0000
0100
0000
,
0010
0000
0000
0000
1000
0000
0000
0000
0010
0000
0000
0000
0100
0000
0000
0000
0001
0000
0000
0000
1000
0000
0000
0000
0100
0000
0000
0000
0010
0000
0000
0000
0001
0000
0000
0000
1000
0000
0000
0000
0010
0000
0000
0000
1000
0000
0000
0000
0100
0000
0000
0000
0010
0000
0000
0000
0001
0000
0000
0000
1000
0000
0000
0000
0010
0000
0000
0000
0100
0000
0000
0000
0001
0000
0000
0000
1000
0000
0000
0000
0100
0000
0000
0000
0010
0000
0000
0000
0002
0000
0000
0000
0000
0000
0000
0000
1003
0000
0000
0100
0000
0000
1000
0000
0000
0010
0000
0000
0100
0000
0000
0001
0000
0000
0010
0000
0000
0001
0000
0000
1000
0000
0000
0100
0000
0000
0010
0000
0000
0001
0000
0000
1000
0000
0000
0100
0000
0000
1000
0000
0000
0001
0000
0000
0100
0000
0000
0001
0000
0000
1000
0000
0000
0010
0000
0000
0100
0000
0000
0001
0000
0000
0010
0000
0000
0001
0000
0000
1000
0000
0000
0100
0000
0000
0010
0000
0000
0100
0000
0000
1000
0000
0000
0010
0000
0000
0100
0000
0000
0001
0000
0000
,
2000
0000
0000
0000
0000
0000
0000
0000
3001
0010
0001
0100
0010
1000
0100
1000
,
0001
0010
0100
1000
0001
0010
0001
1000
0010
1000
0001
0100
0010
1000
0100
1000
,
0001
0010
0100
0010
0001
0100
0010
1000
0100
1000
0001
1000
0010
0100
0001
0010
,
0100
1000
0001
0100
0010
1000
0100
0010
0001
1000
0010
0100
0001
0010
0001
0100
,
0010
1000
0100
0010
0001
1000
0010
0100
0001
0010
0001
1000
0010
0100
0001
1000
,
0010
1000
0100
1000
0001
0010
0100
1000
0001
0100
0010
1000
0100
1000
0001
0010
,
0001
0100
0010
1000
0001
1000
0100
0010
0001
1000
0010
1000
0001
0010
0001
0100
,
0010
1000
0100
0010
0001
1000
0010
0100
0001
0010
0001
0100
0010
1000
0100
1000
,
0001
0010
0100
1000
000M
0M00
00M0
M000
0100
0001
1000
0100
1000
0001
0010
0100
,
1000
0001
0010
0001
1000
0010
1000
0001
0100
0010
1000
0100
1000
0001
0010
0100
,
0010
0001
0100
0010
1000
0100
1000
0001
1000
0010
0100
0001
0010
0100
1000
0001
,
0100
0010
1000
0100
0010
0001
1000
0010
0100
0001
0010
0001
0100
0010
1000
0100
,
0010
0000
0001
0000
1000
0000
0010
0000
1000
0000
0001
0000
0010
0000
0001
0000
1000
0000
0100
0000
0010
0000
0001
0000
1000
0000
0000
0010
0000
0000
0100
0000
0000
0001
0000
0000
1000
0000
0000
0010
0000
0000
1000
0000
0000
0100
0000
0000
,
1000
0001
0010
0100
1000
0001
0100
0010
1000
0100
1000
0001
0010
0001
0100
0010
,
1000
0001
1000
0100
0010
0001
1000
0010
1000
0001
0010
0001
0100
0010
1000
0100
,
0010
0000
0000
0001
0000
0000
1000
0000
0000
0010
0000
0000
0100
0000
0000
0001
0000
0000
0010
0000
0000
0001
0000
0000
0100
0000
0010
0000
1000
0000
0100
0000
1000
0000
0001
0000
0010
0000
0100
0000
1000
0000
0001
0000
0100
0000
0001
0000
,
0010
0001
1000
0100
1000
0001
0010
0100
1000
0001
1000
0010
0100
0001
1000
0001
0010
0000
0100
0000
1000
0000
0001
0000
1000
0000
0010
0000
0100
0000
0001
0000
,
0010
0100
1000
0001
0010
0001
1000
0010
1000
0100
1000
0001
0010
0001
1000
0010
,
1000
0100
0010
0100
1000
0001
0010
0001
1000
0010
0100
0001
1000
0001
0010
0100
,
1000
0001
0010
0001
0100
0010
0100
0001
1000
0100
0010
0001
1000
0001
0100
0010
,
1000
0001
0100
0001
1000
0100
1000
0010
0100
0001
1000
0100
0010
0001
1000
0001
,
0100
0010
1000
0001
1000
0100
0010
0001
0100
0001
1000
0001
0010
0100
1000
0010
,
1000
0001
0100
0001
1000
0001
0010
0100
1000
0010
1000
0001
0100
0001
1000
0001
,
1000
0100
1000
0010
0100
0001
1000
0001
0010
0100
1000
0001
0100
0001
0010
0100
,
1000
0000
0001
0000
0100
0000
0010
0000
1000
0000
0001
0000
1000
0000
0001
0000
0010
0000
0001
0000
1000
0000
0010
0000
1000
0000
0000
0100
0000
0000
0010
0000
0000
0001
0000
0000
1000
0000
0000
0010
0000
0000
0100
0000
0000
0001
0000
0000
,
1000
0001
0010
0100
1000
0010
0100
0001
1000
0001
0100
0010
1000
0010
0100
0001
,
1000
0100
0010
0001
1000
0010
1000
0100
0010
0001
1000
0010
0100
0001
1000
0001
,
0010
0100
1000
0010
0100
0001
1000
0001
0100
0010
1000
0010
0100
0001
1000
0100
,
0010
0000
0001
0000
1000
0000
0010
0000
0100
0000
0001
0000
1000
0000
0001
0000
0010
0000
0100
0000
1000
0000
0010
0000
0100
0000
0000
0001
0000
0000
1000
0000
0000
0100
0000
0000
0010
0000
0000
0001
0000
0000
1000
0000
0000
0010
0000
0000
,
1000
0001
0010
0001
1000
0100
0010
0001
1000
0010
0100
0010
1000
0100
1000
0001
,
0100
0000
0000
0010
0000
0000
1000
0000
0000
0100
0000
0000
1000
0000
0000
0001
0000
0000
0010
0000
0000
0001
0000
0000
1000
0000
0001
0000
1000
0000
0100
0000
0010
0000
0001
0000
1000
0000
0010
0000
1000
0000
0001
0000
1000
0000
0001
0000
,
0010
0100
1000
0001
1000
0001
0100
0010
0100
0001
1000
0001
1000
0001
0010
0001
0010
0100
1000
0100
1000
0001
0100
0001
,
1000
0010
0100
0001
0010
0001
1000
0100
0010
0100
1000
0010
0100
0001
0010
0001
1000
0000
0100
0000
0010
0000
0001
0000
1000
0000
0010
0000
1000
0000
0100
0000
,
0010
0001
0100
0010
1000
0010
0100
0001
0010
0001
1000
0100
0010
0001
0010
0100
,
1000
0001
0010
0001
0100
0010
1000
0100
1000
0001
0010
0100
1000
0001
0010
0001
,
1000
0010
1000
0001
0100
0010
1000
0100
1000
0001
0010
0100
0010
0001
0100
0010
,
1000
0100
1000
0001
1000
0010
0100
0001
0010
0100
1000
0001
0100
0010
1000
0100
,
0010
0001
1000
0010
0100
0001
0010
0001
0100
0010
1000
0100
0010
0001
1000
0010
,
0100
0001
0010
0001
1000
0010
0100
0001
1000
0010
1000
0100
1000
0001
0010
0100
,
1000
0001
0100
0010
1000
0100
1000
0001
0010
0001
0100
0010
1000
0001
1000
0100
,
0010
0000
0001
0000
1000
0000
0010
0000
0100
0000
0001
0000
0010
0000
0100
0000
1000
0000
0001
0000
0100
0000
0010
0000
1000
0000
0000
0100
0000
0000
1000
0000
0000
0010
0000
0000
0100
0000
0000
0001
0000
0000
0010
0000
0000
0100
0000
0000
,
1000
0001
0010
0001
1000
0010
1000
0001
0100
0010
1000
0100
1000
0001
0010
0100
,
0010
0001
0100
0010
1000
0100
1000
0001
1000
0010
0100
0001
0010
0100
1000
0001
,
0100
0010
1000
0100
0010
0001
1000
0010
0100
0001
0010
0001
0100
0010
1000
0001
,
1000
0000
0010
0000
0100
0000
0001
0000
1000
0000
0001
0000
0010
0000
0100
0000
1000
0000
0010
0000
0100
0000
0001
0000
1000
0000
0000
0010
0000
0000
1000
0000
0000
0001
0000
0000
1000
0000
0000
0001
0000
0000
0010
0000
0000
0100
0000
0000
,
1000
0001
1000
0001
0100
0010
0100
0001
1000
0001
1000
0001
0010
0001
0010
0100
,
1000
0000
0000
0100
0000
0000
1000
0000
0000
0001
0000
0000
0100
0000
0000
0001
0000
0000
1000
0000
0000
0010
0000
0000
0100
0000
0001
0000
1000
0000
0100
0000
1000
0000
0001
0000
0010
0000
0100
0000
0010
0000
0001
0000
1000
0000
0001
0000
,
0100
0010
0100
0001
1000
0010
1000
0001
0100
0010
1000
0001
1000
0100
0010
0001
1000
0001
0100
0010
0100
0001
1000
0010
,
1000
0100
0010
0001
1000
0010
0100
0001
0010
0100
1000
0001
0100
0010
1000
0100
1000
0000
0001
0000
1000
0000
0001
0000
0010
0000
0100
0000
1000
0000
0001
0000
,
1000
0010
0100
0001
0010
0100
1000
0001
0010
0001
1000
0010
1000
0100
1000
0001
,
0010
0001
1000
0010
1000
0100
0010
0100
1000
0001
0010
0001
1000
0010
0100
0001
,
0010
0001
0100
0010
0100
0001
1000
0100
0010
0001
1000
0001
0100
0010
1000
0001
,
0100
0001
1000
0100
1000
0010
0100
0001
1000
0100
0010
0001
1000
0001
0100
0010
,
1000
0001
1000
0100
0010
0001
0100
0001
1000
0001
0010
0100
1000
0010
1000
0001
,
0100
0001
1000
0001
1000
0100
1000
0010
0100
0001
1000
0001
0010
0100
1000
0001
,
0100
0001
0010
0100
1000
0001
0100
0010
1000
0001
1000
0001
0010
0001
1000
0010
,
1000
0000
0100
0000
0010
0000
0001
0000
1000
0000
0001
0000
0100
0000
0010
0000
1000
0000
0001
0000
1000
0000
0100
0000
0010
0000
0000
0001
0000
0000
0100
0000
0000
0001
0000
0000
1000
0000
0000
0001
0000
0000
0010
0000
0000
0100
0000
0000
,
1000
0100
0010
0001
0100
0010
0100
0001
1000
0010
1000
0001
0010
0100
1000
0010
,
0100
0001
0100
0010
1000
0100
1000
0001
0010
0100
1000
0001
0010
0100
0010
0001
,
1000
0001
0100
0010
0100
0001
1000
0001
0010
0100
1000
0010
1000
0001
1000
0100
,
0010
0000
0001
0000
1000
0000
0010
0000
0100
0000
0001
0000
0010
0000
0100
0000
1000
0000
0001
0000
0100
0000
0010
0000
1000
0000
0000
0100
0000
0000
1000
0000
0000
0010
0000
0000
0100
0000
0000
0001
0000
0000
0010
0000
0000
0100
0000
0000
,
1000
0001
0100
0010
1000
0100
1000
0001
0100
0010
1000
0001
0100
0001
0010
0001
,
1000
0000
0000
0100
0000
0000
0010
0000
0000
0001
0000
0000
1000
0000
0000
0010
0000
0000
0100
0000
0000
0001
0000
0000
0010
0000
0001
0000
1000
0000
0100
0000
0010
0000
0001
0000
1000
0000
0100
0000
1000
0000
0001
0000
0100
0000
0001
0000
,
1000
0010
0100
0001
0010
0001
1000
0100
0010
0100
1000
0010
0100
0001
0010
0001
1000
0001
0100
0010
1000
0100
0010
0001
,
1000
0010
0100
0001
0010
0100
1000
0001
0100
0010
1000
0100
2000
0000
0000
0000
0000
0000
0000
0000
0000
0000
0000
0000
,
3002
0000
0203
0000
,
0320
0000
2030
0000
,
3002
0000
0203
0000
,
0302
0000
0023
0000
,
0230
0000
2300
0000
,
3200
0000
0320
0000
,
0032
0000
2003
0000
,
3002
0000
0000
0000
0103
0010
0100
1000
,
0010
0100
0001
0010
0001
1000
0100
0010
,
0001
1000
0010
0100
0001
0010
0001
1000
,
0100
0010
0100
1000
0010
0100
0001
0010
,
0001
1000
0001
0100
0010
1000
0100
0010
,
0001
1000
0010
0100
0001
0010
0100
1000
,
0001
0100
0010
1000
0100
1000
0010
0100
,
0001
0010
0100
1000
0001
0100
0010
1000
,
0100
0000
1000
0000
0001
0000
0100
0000
0010
1000
0001
1000
0001
0010
0100
1000
,
0001
1000
0001
0100
0010
1000
0001
1000
0100
0010
0001
1000
0010
1000
0001
1000
,
0001
0010
0100
1000
0001
1000
0001
0100
0010
0100
0001
1000
0001
1000
0001
0010
,
0001
0010
0100
1000
0100
1000
0001
0100
0001
1000
0010
0100
0001
1000
0100
1000
,
0002
0000
0000
0000
2003
0000
0000
0000
3001
0010
0100
0010
0001
1000
0001
1000
,
0010
0100
0010
1000
0001
0100
0001
1000
0010
0100
0001
1000
0001
0010
0100
1000
,
0100
1000
0001
1000
0001
0100
0010
1000
0010
1000
0010
1000
0001
0010
0100
1000
,
0100
0000
0010
0000
0001
0000
1000
0000
0001
0000
0100
0000
0010
0000
0100
0000
0001
1000
0010
1000
0001
0010
0001
1000
0100
0010
0100
1000
0001
1000
0001
0100
,
0010
0100
0001
1000
0010
1000
0001
0010
0100
1000
0100
1000
0001
0010
0001
1000
0010
0000
1000
0000
0001
0000
1000
0000
0100
0000
0010
0000
0001
0000
1000
0000
,
0010
0100
0001
0100
0001
1000
0100
0010
0001
1000
0100
1000
0001
1000
0001
0100
,
0010
0100
0001
1000
0100
1000
0001
0100
0010
1000
0001
1000
0100
0010
0001
1000
,
0001
0100
0010
0100
0001
1000
0010
1000
0001
1000
0100
0010
0001
0010
0100
1000
,
0002
0000
0000
0000
0203
0000
0000
0000
0310
0100
0001
1000
0010
1000
0001
0100
,
0010
1000
0001
0010
0100
0010
0001
1000
0100
1000
0001
0100
0001
1000
0010
0100
,
0010
1000
0001
0010
0100
1000
0100
0010
0001
1000
0010
0100
0001
1000
0001
0010
,
0100
0000
0010
0000
0001
0000
1000
0000
0100
0000
1000
0000
0001
0000
0100
0000
0001
1000
0100
0010
0001
0010
0100
1000
0001
1000
0001
0100
0010
1000
0010
1000
,
0001
0000
0000
0100
0000
0000
0010
0000
0000
1000
0000
0000
0001
0000
0000
1000
0000
0000
0001
0000
0000
0010
0000
0000
0100
0000
1000
0000
0001
0000
0100
0000
0001
0000
0010
0000
0001
0000
1000
0000
0100
0000
1000
0000
0001
0000
0010
0000
0200
0000
0000
0000
0000
0000
0300
0000
0000
0000
0000
0000
0000
0000
0000
0000
0000
0000
0000
0000
0000
0000
0000
0000
0000
0000
0000
0000
0000
0000
0000
0000
0000
0000
0000
0000
0000
0000
0000
0000
0000
0000
0000
0000
0000
0000
0000
0000
,
0000
0000
1100
0000
,
0000
0000
0011
0000
,
0000
0000
1010
0000
,
0000
0000
0101
0000
,
0110
0000
1100
0000
,
0011
0000
1000
0001
,
1000
0000
0001
0000
1000
0100
1000
0001
,
1000
0000
0001
0000
0100
0000
0001
0010
0100
1000
0010
1000
0001
0010
0001
1000
,
0010
0000
1000
0000
0100
0000
0010
0000
0001
0000
1000
0000
0001
0000
0100
0000
0010
0100
0001
0010
0100
1000
0001
0100
0010
1000
0100
1000
0001
0100
0010
1000
,
0001
0100
0001
0010
0001
1000
0100
0010
0001
1000
0010
0100
0001
0010
0001
1000
0100
0000
0010
0000
0001
0000
1000
0000
0010
0000
0100
0000
0001
0000
0010
0000
,
0001
1000
0100
1000
0010
0100
0001
1000
0002
0013
0100
1000
0001
1000
0010
0100
,
0001
1000
0001
0010
0100
1000
0010
0100
0001
1000
0001
0100
0010
1000
0010
0100
,
0001
1000
0100
0010
0001
1000
0010
1000
0100
0010
0001
1000
0010
0100
0001
1000
,
0001
0000
0000
0010
0000
0000
0100
0000
0000
1000
0000
0000
0010
0000
0000
0100
0000
0000
0001
0000
0000
1000
0000
0000
0001
0000
0100
0000
0010
0000
0100
0000
0001
0000
0010
0000
0001
0000
1000
0000
0100
0000
0010
0000
0001
0000
1000
0000
,
0100
0000
1000
0000
0001
0000
0100
0000
0001
0000
1000
0000
0010
0000
0100
0000
0001
0000
0010
0000
0001
0000
1000
0000
0100
0000
0000
1000
0000
0000
0001
0000
0000
0010
0000
0000
0100
0000
0000
0010
0000
0000
0001
0000
0000
1000
0000
0000
,
0001
0100
0010
0100
0001
1000
0001
0010
0100
1000
0100
0010
0001
0100
0001
1000
,
0100
1000
0001
1000
0010
0100
0010
1000
0001
1000
0100
0010
0001
1000
0010
1000
,
0001
0000
0000
1000
0000
0000
0010
0000
0000
0100
0000
0000
0010
0000
0000
1000
0000
0000
0001
0000
0000
1000
0000
0000
0010
0000
1000
0000
0100
0000
0010
0000
0001
0000
1000
0000
0010
0000
0100
0000
0001
0000
0010
0000
0100
0000
1000
0000
,
0001
0000
0100
0000
0010
0000
1000
0000
0100
0000
1000
0000
0010
0000
0100
0000
0001
0000
0010
0000
0100
0000
1000
0000
0001
0000
0000
0100
0000
0000
0010
0000
0000
1000
0000
0000
0001
0000
0000
1000
0000
0000
0100
0000
0000
0010
0000
0000
,
0001
0100
0001
0010
0001
1000
0010
0100
0001
0010
0001
1000
0010
1000
0100
1000
,
0001
0100
0001
1000
0100
1000
0010
0100
0001
1000
0100
1000
0010
0100
0010
1000
,
0001
0000
0000
0100
0000
0000
0001
0000
0000
1000
0000
0000
0100
0000
0000
1000
0000
0000
0010
0000
0000
0100
0000
0000
0001
0000
0010
0000
0001
0000
1000
0000
0100
0000
0010
0000
0001
0000
1000
0000
0100
0000
1000
0000
0001
0000
0100
0000
,
0010
0000
1000
0000
0010
0000
0100
0000
0001
0000
1000
0000
0100
0000
1000
0000
0001
0000
0100
0000
0010
0000
1000
0000
0001
0000
0000
0100
0000
0000
0001
0000
0000
1000
0000
0000
0100
0000
0000
1000
0000
0000
0010
0000
0000
0100
0000
0000
,
0001
1000
0100
0010
0001
1000
0001
0100
0010
1000
0001
1000
0100
0010
0001
0100
,
0001
1000
0001
0010
0100
1000
0010
1000
0001
0100
0001
1000
0100
1000
0010
0100
,
0001
0000
0000
1000
0000
0000
0001
0000
0000
0010
0000
0000
0100
0000
0000
1000
0000
0000
0100
0000
0000
0010
0000
0000
0001
0000
1000
0000
0010
0000
1000
0000
0100
0000
0010
0000
0001
0000
1000
0000
0010
0000
0100
0000
0001
0000
1000
0000
,
0001
0000
0010
0000
0100
0000
1000
0000
0010
0000
0100
0000
0001
0000
1000
0000
0001
0000
0100
0000
0010
0000
1000
0000
0010
0000
0000
0100
0000
0000
0001
0000
0000
0010
0000
0000
0001
0000
0000
1000
0000
0000
0100
0000
0000
0010
0000
0000
,
0100
1000
0010
0100
0001
1000
0001
0010
0001
1000
0100
0010
0100
1000
0010
0100
,
0001
0010
0001
1000
0100
0010
0100
1000
0010
0100
0001
1000
0001
0010
0001
1000
,
0010
0000
0000
0100
0000
0000
0001
0000
0000
0010
0000
0000
0001
0000
0000
1000
0000
0000
0100
0000
0000
0010
0000
0000
0001
0000
0100
0000
0010
0000
1000
0000
0001
0000
1000
0000
0001
0000
0010
0000
0100
0000
1000
0000
0001
0000
1000
0000
,
0001
0000
0100
0000
0010
0000
1000
0000
0001
0000
1000
0000
0100
0000
0010
0000
0001
0000
1000
0000
0010
0000
1000
0000
0001
0000
0000
1000
0000
0000
0001
0000
0000
1000
0000
0000
0001
0000
0000
0010
0000
0000
0001
0000
0000
0010
0000
0000
,
0100
1000
0100
1000
0001
0100
0001
1000
0010
0100
0001
1000
0100
1000
0001
0010
,
0100
0010
0001
1000
0001
1000
0010
0100
0010
1000
0001
0100
0001
1000
0010
0100
,
0001
0000
0000
1000
0000
0000
0001
0000
0000
0010
0000
0000
0100
0000
0000
1000
0000
0000
0100
0000
0000
1000
0000
0000
0001
0000
0010
0000
0001
0000
1000
0000
0100
0000
0010
0000
0001
0000
1000
0000
0010
0000
1000
0000
0001
0000
0010
0000
,
0001
0000
1000
0000
0100
0000
0010
0000
0001
0000
1000
0000
0010
0000
0100
0000
0010
0000
1000
0000
0100
0000
1000
0000
0001
0000
0000
0100
0000
0000
0010
0000
0000
1000
0000
0000
0100
0000
0000
1000
0000
0000
0001
0000
0000
0010
0000
0000
,
0001
1000
0100
0010
0001
1000
0010
0100
0001
0010
0001
1000
0100
0010
0100
1000
,
0010
0100
0001
1000
0001
0010
0001
1000
0100
0010
0100
1000
0010
0100
0001
0010
,
0001
0000
0000
1000
0000
0000
0100
0000
0000
0010
0000
0000
0100
0000
0000
1000
0000
0000
0010
0000
0000
0100
0000
0000
0001
0000
1000
0000
0001
0000
0010
0000
0100
0000
1000
0000
0010
0000
0100
0000
0001
0000
1000
0000
0001
0000
0100
0000
,
0010
0000
1000
0000
0010
0000
0100
0000
0001
0000
1000
0000
0100
0000
0010
0000
0001
0000
1000
0000
0010
0000
1000
0000
0100
0000
0000
0010
0000
0000
0001
0000
0000
1000
0000
0000
0100
0000
0000
1000
0000
0000
0001
0000
0000
0010
0000
0000
,
0100
1000
0001
1000
0010
0100
0001
1000
0001
0010
0100
1000
0001
1000
0010
0100
,
0001
0010
0100
1000
0001
0010
0001
1000
0010
1000
0100
1000
0001
0010
0001
1000
,
0010
0000
0000
1000
0000
0000
0100
0000
0000
0010
0000
0000
0100
0000
0000
1000
0000
0000
0001
0000
0000
0010
0000
0000
0001
0000
1000
0000
0010
0000
0100
0000
0001
0000
1000
0000
0001
0000
0010
0000
0100
0000
1000
0000
0001
0000
0010
0000
,
0001
1000
0010
0100
0001
1000
0001
0010
0100
1000
0001
0010
0001
0100
0010
0100
0002
0000
0000
0000
0000
0000
0000
0000
2003
0000
0000
0000
0000
0000
0000
0000
,
3020
0230
0302
2003
3020
0000
0230
0320
,
2030
0000
0000
0000
0000
0000
0000
0000
0000
0000
0000
0000
3002
0000
0000
0000
0000
0000
0203
0000
0000
0000
0000
0000
0302
0000
0000
0000
0000
0000
0000
0000
0000
0000
0000
0000
1003
0100
0010
0001
1000
0010
0100
0010
1000
0001
0100
0001
,
1000
0100
0010
0001
2000
0000
0000
0000
0000
0000
0000
0000
3001
0010
0100
1000
0001
0100
0010
0100
0001
1000
0010
1000
0001
0000
0000
0010
0000
0000
0001
0000
0000
0100
0000
0000
0010
0000
0000
1000
0000
0000
0100
0000
0000
1000
0000
0000
,
0001
0010
0100
1000
0001
0010
0001
1000
0010
1000
0001
0100
0010
1000
0100
1000
,
0001
0010
0100
0010
0001
0100
0010
1000
0100
1000
0001
1000
0010
0100
0001
0010
,
0100
1000
0001
0100
0010
1000
0100
0010
0001
1000
0010
0100
0001
0010
0001
0100
,
0010
1000
0100
0010
0001
1000
0010
0100
0001
0010
0001
1000
0010
0100
0001
1000
,
0010
1000
0100
1000
0001
0010
0100
1000
0001
0100
0010
1000
0100
1000
0001
0010
,
0001
0100
0010
1000
0001
1000
0100
0010
0001
1000
0010
1000
0001
0010
0001
0100
,
0010
1000
0100
0010
0001
1000
0010
0100
0001
0010
0001
0100
0010
1000
0100
1000
,
0001
0010
0100
1000
000M
0M00
00M0
M000
0010
1000
0001
0010
0001
1000
0100
0010
,
0001
1000
0100
1000
0001
0100
0001
1000
0010
0100
0001
0010
0001
1000
0100
0010
,
0100
1000
0010
0100
0001
0010
0001
1000
0001
0100
0010
1000
0100
0010
0001
1000
,
0010
0100
0001
0010
0100
1000
0001
0100
0010
1000
0100
1000
0010
0100
0001
0010
,
0100
0000
1000
0000
0001
0000
0100
0000
0001
0000
1000
0000
0100
0000
1000
0000
0001
0000
0010
0000
0100
0000
1000
0000
0001
0000
0000
0100
0000
0000
0010
0000
0000
1000
0000
0000
0001
0000
0000
0100
0000
0000
0001
0000
0000
0010
0000
0000
,
0001
1000
0100
0010
0001
1000
0010
0100
0001
0010
0001
1000
0100
1000
0010
0100
,
0001
1000
0001
0010
0100
1000
0001
0100
0001
1000
0100
1000
0010
0100
0001
0010
,
0100
0000
0000
1000
0000
0000
0001
0000
0000
0100
0000
0000
0010
0000
0000
1000
0000
0000
0100
0000
0000
1000
0000
0000
0010
0000
0100
0000
0001
0000
0010
0000
0001
0000
1000
0000
0100
0000
0010
0000
0001
0000
1000
0000
0010
0000
1000
0000
,
0100
1000
0001
0010
0001
1000
0100
0010
0001
1000
0001
0100
0010
1000
0001
1000
0100
0000
0010
0000
0001
0000
1000
0000
0001
0000
0100
0000
0010
0000
1000
0000
,
0100
0010
0001
1000
0100
1000
0001
0100
0001
0010
0001
1000
0100
1000
0001
0100
,
0001
0010
0100
0010
0001
1000
0100
1000
0001
0100
0010
1000
0001
1000
0100
0010
,
0001
1000
0100
1000
0010
0100
0010
1000
0001
0010
0100
1000
0001
1000
0010
0100
,
0001
1000
0010
1000
0001
0010
0001
0100
0010
1000
0001
0010
0100
1000
0001
1000
,
0010
0100
0001
1000
0001
0010
0100
1000
0010
1000
0001
1000
0100
0010
0001
0100
,
0001
1000
0010
1000
0001
1000
0100
0010
0001
0100
0001
1000
0010
1000
0001
1000
,
0001
0010
0001
0100
0010
1000
0001
1000
0100
0010
0001
1000
0010
1000
0100
0010
,
0001
0000
1000
0000
0010
0000
0100
0000
0001
0000
1000
0000
0001
0000
1000
0000
0100
0000
1000
0000
0001
0000
0100
0000
0001
0000
0000
0010
0000
0000
0100
0000
0000
1000
0000
0000
0001
0000
0000
0100
0000
0000
0010
0000
0000
1000
0000
0000
,
0001
1000
0100
0010
0001
0100
0010
1000
0001
1000
0010
0100
0001
0100
0010
1000
,
0001
0010
0100
1000
0001
0100
0001
0010
0100
1000
0001
0100
0010
1000
0001
1000
,
0100
0010
0001
0100
0010
1000
0001
1000
0010
0100
0001
0100
0010
1000
0001
0010
,
0100
0000
1000
0000
0001
0000
0100
0000
0010
0000
1000
0000
0001
0000
1000
0000
0100
0000
0010
0000
0001
0000
0100
0000
0010
0000
0000
1000
0000
0000
0001
0000
0000
0010
0000
0000
0100
0000
0000
1000
0000
0000
0001
0000
0000
0100
0000
0000
,
0001
1000
0100
1000
0001
0010
0100
1000
0001
0100
0010
0100
0001
0010
0001
1000
,
0010
0000
0000
0100
0000
0000
0001
0000
0000
0010
0000
0000
0001
0000
0000
1000
0000
0000
0100
0000
0000
1000
0000
0000
0001
0000
1000
0000
0001
0000
0010
0000
0100
0000
1000
0000
0001
0000
0100
0000
0001
0000
1000
0000
0001
0000
1000
0000
,
0100
0010
0001
1000
0001
1000
0010
0100
0010
1000
0001
1000
0001
1000
0100
1000
0100
0010
0001
0010
0001
1000
0010
1000
,
0001
0010
0100
1000
0001
0100
0010
1000
0100
1000
0001
0100
0010
1000
0001
0100
0001
0000
0010
0000
0100
0000
1000
0000
0001
0000
0100
0000
0001
0000
0010
0000
,
0100
1000
0010
0100
0001
0100
0010
1000
0100
1000
0001
0010
0100
1000
0100
0010
,
0001
1000
0100
1000
0010
0100
0001
0010
0001
1000
0100
0010
0001
1000
0100
1000
,
0001
0100
0001
1000
0010
0100
0001
0010
0001
1000
0100
0010
0100
1000
0010
0100
,
0001
0010
0001
1000
0001
0100
0010
1000
0100
0010
0001
1000
0010
0100
0001
0010
,
0100
1000
0001
0100
0010
1000
0100
1000
0010
0100
0001
0010
0100
1000
0001
0100
,
0010
1000
0100
1000
0001
0100
0010
1000
0001
0100
0001
0010
0001
1000
0100
0010
,
0001
1000
0010
0100
0001
0010
0001
1000
0100
1000
0010
0100
0001
1000
0001
0010
,
0200
0000
0000
0000
0000
0000
0000
0000
0301
0010
0001
0100
0010
1000
0100
0010
,
0001
1000
0100
1000
0001
0100
0001
1000
0010
0100
0001
0010
0001
1000
0100
0010
,
0100
1000
0010
0100
0001
0010
0001
1000
0001
0100
0010
1000
0100
0010
0001
1000
,
0010
0100
0001
0010
0100
1000
0001
0100
0010
1000
0100
1000
0010
0100
0001
1000
,
0001
0010
0100
1000
0100
0010
0001
1000
0010
0100
0001
1000
0001
1000
0100
0010
,
0001
1000
0001
1000
0010
0100
0010
1000
0001
1000
0001
1000
0100
1000
0100
0010
,
0001
0010
0001
1000
0010
1000
0001
0100
0010
1000
0001
1000
0100
0010
0001
1000
,
0001
0100
0010
1000
0100
0010
0001
1000
0100
1000
0001
0100
0001
0010
0001
1000
,
0100
1000
0001
0100
0001
0010
0100
0010
0002
0000
0000
0000
0000
0000
0000
0000
,
0000
0000
2003
0000
,
0000
0000
0000
0000
3010
0100
0010
1000
,
0001
0000
1000
0100
0010
0000
0001
0000
1000
0000
0010
0000
1000
0000
0100
0000
,
1000
0000
0001
1000
0010
0000
1000
0000
0010
0000
0100
0000
0001
0000
1000
0000
,
0010
0000
1000
0100
0010
0000
0001
0000
1000
0000
0100
0000
0010
0000
0001
0000
,
1000
0000
0001
0010
0100
0000
1000
0000
0001
0000
0100
0000
0001
0000
1000
0000
,
0010
0000
1000
0100
0010
0000
0100
0000
1000
0000
0001
0000
0100
0000
0010
0000
,
0100
0000
0001
1000
0001
0000
1000
0000
0000
0000
0000
0000
0000
0000
0000
0000
,
0000
0000
0000
0000
,
0000
0000
0000
0000
;
