#TITLE:340 BPM GABBER;
#SUBTITLE:;
#ARTIST:Master of Rave;
#TITLETRANSLIT:;
#SUBTITLETRANSLIT:;
#ARTISTTRANSLIT:;
#CREDIT:;
#BANNER:gabberbanner.png;
#BACKGROUND:gabberbg.png;
#LYRICSPATH:;
#CDTITLE:;
#MUSIC:master of rave - 340 bpm gabber speedcore.mp3;
#OFFSET:-11.340;
#SAMPLESTART:17.607;
#SAMPLELENGTH:12.000;
#SELECTABLE:YES;
#BPMS:0.000=340.000;
#STOPS:;
#BGCHANGES:;
// cache tags:
#FIRSTBEAT:0.000;
#LASTBEAT:876.000;
#SONGFILENAME:Songs/hard shit/340BPM Gabber [Jello]/340 bpm Gabber.sm;
#HASMUSIC:1;
#HASBANNER:1;
#MUSICLENGTH:166.536;
// end cache tags

//---------------dance-single - ----------------
#NOTES:
     dance-single:
     :
     Hard:
     14:
     1.000,1.000,1.000,0.432,0.057,1115.000,746.000,72.000,0.000,142.000:
1010
0011
0110
1001
,
1100
0000
0011
0000
0110
0000
1100
0110
,
0011
1100
0110
0101
,
1010
0000
1100
0000
0011
0000
0011
1100
,
0011
0110
1010
1100
,
0011
0000
0110
0000
0101
0000
1100
0011
,
0110
1010
0101
0011
,
0110
0000
1010
0000
1100
0000
0110
1010
,
0101
0010
1010
0100
0011
1000
0110
1000
,
0011
0100
0011
0100
1010
0100
0011
0100
,
1001
0010
0101
0010
1001
0010
1010
0100
,
0011
1000
0101
0010
1100
0001
0101
0010
,
1100
0001
0011
1000
0110
0001
1100
0010
,
0110
0001
1001
0010
0110
0100
1010
0001
,
1010
0001
0110
0010
0101
1000
0011
0010
,
1100
0001
0101
0010
1010
0100
0110
0001
,
0101
0010
0110
1000
0110
0001
0110
1000
,
0110
0010
0110
0010
0011
0010
1010
0010
,
0110
0100
1100
0100
0110
0100
0101
0100
,
0011
0010
0110
0001
0101
0010
0110
0100
,
1100
0100
0110
0010
0011
0010
0101
0010
,
1100
0010
0101
0010
1100
0100
0011
0100
,
1100
0011
0100
1010
0101
0010
1010
0100
,
0011
0010
1100
0010
0101
0010
1001
0010
,
0101
0010
1001
0010
0101
0010
1010
0100
,
1001
0010
0101
1000
0011
0100
1010
0100
,
0011
0100
1010
0100
0011
0100
0011
1000
,
0110
0001
0110
1000
0011
0100
1010
0100
,
1010
0100
1010
0100
0011
0100
0011
1000
,
0101
0010
0101
0010
0101
1000
0110
1000
,
0110
0010
1001
0100
0110
0010
1001
0010
,
1010
0100
0011
0010
1001
0010
0110
0010
,
1001
0110
1100
0011
,
0101
1010
0110
1001
,
0011
0110
1001
1100
,
0110
1001
1100
0011
,
1001
0110
0011
0110
,
1100
0110
1001
0011
,
0110
1001
1100
0110
,
1001
0011
0110
1010
,
0101
0110
1100
0011
,
0110
0011
1100
0011
,
1100
0011
1100
0011
,
1100
0110
1001
0110
,
1001
0110
1001
0110
,
1001
0101
1010
0101
,
1010
0101
1010
0101
,
1010
0011
0110
1001
,
0200
0011
1010
0011
,
1302
1010
2013
0101
,
3020
1100
0101
1001
,
2130
0011
3102
1010
,
1203
0011
1001
1010
,
2301
0011
3102
1010
,
1203
0011
1001
1010
,
0312
1010
0123
1001
,
0231
1001
1010
0011
,
2301
0110
3201
1010
,
0321
1001
1100
0101
,
1032
1010
0123
1001
,
0231
1001
0011
1010
,
2301
0110
3102
1010
,
1203
0011
1001
1010
,
1320
0101
2130
0011
,
3000
0010
0101
0100
1010
0010
0101
0010
,
1010
0100
0101
0010
1100
0001
1100
0001
,
1100
1000
0011
1000
0011
0100
0011
0100
,
0110
0001
0110
0001
0110
1000
0110
1000
,
0110
1000
0101
0010
1010
0100
0010
1001
,
0010
0100
1001
0010
0101
0010
1010
0100
,
1001
0010
0011
0010
0110
0010
1010
0010
,
0110
0100
1100
0100
0110
0100
0101
0100
,
1001
0001
0101
0001
0011
0001
1001
1000
,
1010
1000
1100
1000
1010
0010
0110
0010
,
1010
0010
0110
0010
0011
0010
0110
0100
,
0101
0100
1100
0010
0101
0010
1100
0010
,
1100
0010
0101
0010
0101
0010
1010
0100
,
0101
0010
1001
0010
0110
0100
1010
0010
,
0101
1000
0110
0010
1001
0100
0011
0100
,
1100
0001
0101
0010
1010
0100
0110
0001
,
2100
0010
0101
0010
0011
0010
0110
0100
,
3012
1000
0110
0100
1010
0100
1100
0010
,
2103
0010
0101
0010
0011
0010
0110
0010
,
3102
0010
1010
0100
1010
0100
1010
0100
,
1100
0010
1100
1000
0110
1000
1010
0010
,
1010
0100
1010
1000
0113
0000
0000
0000
,
1001
0000
0110
0000
,
1001
0000
0000
0000
,
0201
0010
1001
0010
0001
1010
0001
1010
,
0321
1000
1001
0100
0101
1000
1001
0100
,
0231
1000
1010
0001
0011
0010
1010
0001
,
1320
0100
1001
0100
0101
1000
1100
0100
,
1001
0001
0101
0001
1001
0001
0101
0001
,
1001
0001
0101
0001
1031
0000
0000
0000
,
1001
0000
0110
0000
,
1001
0000
0000
0000
,
0000
0000
0000
0000
,
0000
0000
0000
0000
,
0000
0000
0000
0000
,
0000
0000
0000
0000
,
0000
0000
0000
0000
,
0000
0000
0000
0000
,
0000
0000
0000
0000
,
0000
0000
0000
0000
,
1000
0100
0010
0001
0010
0100
1000
0000
0000
0000
0000
0000
0001
0010
0100
1000
,
0100
0010
0001
0010
0100
1000
0000
0000
0000
0000
0000
0000
0000
0000
0000
0000
,
1001
0000
0000
0110
,
0000
1001
0000
0000
,
1001
0001
0110
1000
0110
1000
0101
0010
,
1001
0100
1001
0010
0101
0010
1010
0100
,
0101
0010
0011
0010
1010
0100
1001
0010
,
0101
0010
1010
0100
0011
0100
1010
0100
,
0101
0010
1010
0100
0011
0010
1010
0100
,
0101
0010
1010
0100
0011
0100
1100
0010
,
0011
0100
1100
0010
0011
0001
1001
0100
,
1010
0010
1100
0010
0101
0010
1010
0100
,
1001
0000
0000
0000
1001
0000
0000
0000
0001
0010
0100
1000
0100
0010
0001
0000
,
0000
0000
0000
0000
0000
0000
0000
1000
0100
0010
0001
0010
0100
0001
1000
0010
,
0100
1001
1010
0101
,
1001
1100
0101
1010
,
0110
0101
1010
0110
,
1001
0011
1100
1001
,
0101
0011
1100
0011
,
1010
1001
0011
0110
,
1001
0101
1010
1100
,
0011
1001
1010
1001
,
2222
0000
0000
0000
,
0000
0000
0000
0000
,
3333
0000
0011
1100
0011
1100
0011
1100
,
1001
0110
1001
0110
1001
0110
0011
1001
,
0110
1100
0011
0110
1001
0011
1100
0110
,
1001
0011
0110
0101
1010
0101
1010
0110
,
1001
0011
1010
1100
0110
1001
0011
1100
,
0110
1001
1100
0110
1001
1100
0110
1001
,
0011
1001
0110
1001
0011
1100
0101
1010
,
0110
0000
0000
0000
0110
0000
0000
0000
0001
1000
0010
0100
0010
1000
0100
0000
,
0000
0000
0000
0000
,
0000
0000
0000
0000
,
0011
0100
1010
0100
0101
0010
1001
0010
,
1100
0001
0101
0010
1100
0100
1010
0100
,
0101
0010
1001
0010
0110
1000
1001
0010
,
0101
0010
0011
0010
1010
0010
0011
0010
,
1010
0100
1001
0010
0101
0010
0101
0010
,
1010
0100
1010
0100
0101
0010
0101
0010
,
1001
0010
0110
0100
1001
0000
1010
0000
,
0000
0000
0011
0000
0000
0000
1010
1010
,
0000
0110
0000
0011
,
0000
0000
0101
0000
0000
0000
0110
0110
,
0000
0011
0000
1100
,
0000
0000
1001
0000
0000
0000
0011
1001
,
0000
1100
0000
0011
,
0000
1010
0000
0000
,
1001
0000
1001
0000
,
0110
0000
0000
0000
,
2020
0000
0000
0000
,
3232
0000
0000
0000
,
2323
0000
0000
0000
,
3232
0000
0000
0000
,
2303
0000
3020
0000
,
0230
0000
0302
0000
,
2003
3200
0302
0023
,
2030
3200
0302
0203
,
0300
0011
1001
1010
,
1100
0110
0011
1001
,
1010
0110
0011
0101
,
1010
0110
0101
0011
,
1001
0101
1010
0110
,
1001
0101
1010
0110
,
1001
0101
0110
1001
,
1100
0101
0011
1001
,
1100
1010
1100
1001
,
0011
0011
0101
1001
,
1010
1010
0110
1001
,
0011
0110
1001
1010
,
0011
1010
1001
0110
,
1001
0110
1001
0011
,
1001
1100
0110
0011
,
1001
1010
0110
1001
,
1000
1000
1000
1000
,
1000
1000
1000
1000
,
1000
1000
1000
1000
,
1000
1000
1000
1000
,
1001
0001
0001
0001
,
0001
0001
0001
0001
,
0101
0100
0100
0100
,
0110
0010
1010
1000
,
1001
0100
1001
0010
0101
0010
1010
0100
,
0101
0010
0101
0010
1010
0100
0110
0010
,
1001
0001
0101
1000
0101
0010
0011
1000
,
1100
0001
0110
0001
1010
0100
1001
0010
,
0101
0100
1001
0010
0101
0010
0101
0010
,
1010
0010
1010
0100
0101
0010
1001
0010
,
0110
1001
0110
1010
,
0101
1001
0110
1010
,
2002
0110
0110
0110
,
3223
1001
1001
1001
,
2332
0110
0110
0110
,
3223
1001
1001
1001
,
2332
0110
0110
0110
,
3223
1001
1001
1001
,
2332
0110
0110
0110
,
3223
1001
1001
1001
,
0330
1100
0110
0011
,
0110
1100
0110
0011
,
0110
1001
0110
1001
,
0110
1001
0110
1001
,
1100
1001
0011
0110
,
1001
0011
1100
0110
,
1001
0101
0110
1001
,
1100
0110
1001
0011
,
0110
1001
0011
0101
,
1001
1100
0110
1001
,
0011
1100
0110
1001
,
0011
0110
1001
1100
,
1001
0011
0101
1001
,
1100
0110
1001
0101
,
0011
1010
1100
0101
,
1001
1100
0110
1001
,
0110
0000
0110
0000
,
1001
0000
0000
0000
;
