#TITLE:La Combi Completa;
#SUBTITLE:f/ Daddy Yankee;
#ARTIST:Nicky Jam;
#TITLETRANSLIT:;
#SUBTITLETRANSLIT:;
#ARTISTTRANSLIT:;
#CREDIT:;
#BANNER:banner.JPG;
#BACKGROUND:;
#LYRICSPATH:;
#CDTITLE:!tizaTitle.png;
#MUSIC:Nicky Jam  y Daddy Yankee - La Combi Completa.ogg;
#OFFSET:0.020;
#SAMPLESTART:36.301;
#SAMPLELENGTH:22.000;
#SELECTABLE:YES;
#BPMS:0.000=103.600,32.000=104.000,109.000=103.900,141.000=104.000;
#STOPS:54.250=0.300
,54.500=0.280
,67.000=0.280
,74.500=0.280
,84.250=0.300
,84.500=0.280
,193.000=0.280
,200.500=0.280
,210.250=0.300
,210.500=0.280
;
#BGCHANGES:;
// cache tags:
#FIRSTBEAT:16.000;
#LASTBEAT:266.500;
#SONGFILENAME:Songs/Reggaeton and more/La Combi Completa I/lacombicompleta.sm;
#HASMUSIC:1;
#HASBANNER:1;
#MUSICLENGTH:157.022;
// end cache tags

//---------------dance-single - ----------------
#NOTES:
     dance-single:
     :
     Challenge:
     11:
     0.710,0.721,0.605,0.032,1.000,680.000,95.000,5.000,35.000,1.000:
0000
0000
0000
0000
,
0000
0000
0000
0000
,
0000
0000
0000
0000
,
0000
0000
0000
0000
,
1000
0000
0000
0010
0000
0000
0100
0000
0010
0000
0000
1000
0000
0000
0000
0000
,
0001
0000
0000
0100
0000
0000
0010
0000
0100
0000
0000
0001
0000
0000
0000
0000
,
1000
0000
0000
0100
0000
0000
0010
0000
0001
0000
0000
0010
0000
0000
0100
0000
,
1000
0000
0000
0100
0020
0000
0000
0000
1000
0000
0000
0000
0100
0000
0000
0000
,
0031
0000
0101
0000
0010
0000
0000
1100
,
1000
0000
0010
0000
0100
0000
0001
0000
0010
0000
0100
0000
1000
0000
0100
0000
0010
0000
0001
0000
0100
0000
0010
0000
1000
0000
0100
0010
0001
0000
0010
0000
,
0011
0000
0000
0000
1001
0000
0000
0000
1100
0000
0000
0010
0000
0000
1001
0000
,
1000
0100
0001
1000
0010
0001
0100
0010
1000
0000
1001
0000
0001
0100
0010
1000
,
0100
0010
0100
1000
0001
0100
0010
0100
0001
1000
0000
0000
0001
0010
0100
0010
,
0001
0100
0010
1000
0100
0010
0100
1000
0001
0100
0010
0000
1100
1000
0010
0100
,
1000
0001
0010
1000
0100
0010
0000
0000
0001
0010
0100
1000
0001
0100
0010
1000
,
0100
0000
0010
0000
0001
0000
0100
0000
0010
0000
1000
0000
0000
0000
0000
1000
0001
0000
0000
0000
0010
0000
0000
0000
0011
0000
0000
0000
0000
0000
0000
0000
,
1000
0010
0100
0001
0000
0001
1000
0000
1000
0100
0010
0001
1001
0000
1000
0100
,
0000
0000
0100
0010
0000
0000
0010
0001
0000
0000
1001
0000
0000
0000
0001
0100
,
0010
1000
0000
1000
0001
0000
0001
0010
0100
1000
1001
0000
0001
0100
0000
0000
,
0010
1000
0000
0000
1000
0100
0010
0100
1000
0001
0100
0010
1000
0100
0010
0001
,
0010
0100
0000
0000
1000
0010
0001
1000
0100
0001
0010
0100
1000
0100
0010
0001
,
1000
0001
0100
0000
1001
0001
0100
0010
1000
0100
0001
1000
0010
0001
0000
0000
,
0001
0100
0010
1000
0100
0010
0100
0010
0001
1000
0001
1000
0100
0010
0000
0000
,
0101
0000
0010
0000
1100
0000
0000
0000
1001
0000
0000
0000
0101
0000
0000
0010
,
0000
0000
1100
0000
0100
0010
0001
0100
0010
1000
0100
0010
0001
0010
0100
1000
,
0010
0000
0100
0001
0100
0000
0010
0000
1010
0000
0000
0000
0000
0000
0000
0000
0110
0000
0000
0000
0000
0000
0000
0000
0101
0000
0000
0000
0000
0000
1000
0000
,
0000
0000
1100
0000
1000
0100
0010
0001
1000
0010
0100
0001
2000
0000
0000
0000
,
0002
0000
0000
3003
0000
0100
0010
1000
0001
0100
0000
0100
0000
0100
0010
1000
,
0100
0000
0010
0000
0000
0000
0010
0100
1000
0100
0010
0001
0000
0001
0010
0100
,
1000
0000
1001
0000
0000
0000
1000
0100
0010
0001
0010
0100
0000
1000
0100
0010
,
0001
0000
1001
0000
0000
0000
0100
0010
1000
0001
1000
0010
0000
0100
0001
0010
,
0100
0000
1000
0000
1001
1000
0010
0100
0001
0010
0100
1000
0000
1000
0010
0001
,
0010
0000
1000
0000
1001
0000
1000
0100
0001
1000
0010
0001
0000
0100
1000
0001
,
0010
0000
1000
0000
0000
0000
1000
0010
0001
0010
1000
0100
0000
0001
0100
1000
,
0010
0000
0100
0000
0001
0000
0010
0100
1000
0001
0100
0010
0000
0100
0001
1000
,
0100
0000
0010
0000
1001
0001
1000
0000
1010
1000
0010
0100
0001
0000
0101
0100
,
0010
1000
0100
0010
0011
0000
1001
0000
1000
0100
0010
0001
1000
0000
0010
0100
,
0001
0000
0000
0000
1000
0001
1000
0000
1000
0010
0001
1000
0001
0000
1000
0100
,
0001
1000
0100
0010
0001
0000
1001
0000
1000
0010
0100
0001
0010
0000
0001
0100
,
0010
0000
0000
0000
1000
0100
0001
0100
1000
0010
0001
0010
1000
0000
0000
0000
,
1000
0010
0100
0010
1000
0000
0001
0010
0100
0010
0001
0100
0010
0000
0100
0001
,
0010
0000
0000
0000
1000
0100
0010
0001
1000
0010
0100
0010
1001
0000
0000
0000
,
0001
0010
0100
0010
0011
0000
0001
0100
0010
0100
0001
1000
1001
0000
1000
0010
,
1010
0000
0000
0000
0000
0000
MMMM
0000
0000
0000
0000
0000
10M0
0000
0000
0000
0M00
0000
0000
0000
M000
0010
0000
0000
000M
0000
0000
0000
M000
0000
0100
0000
00M0
0000
0000
0000
0101
0000
0000
0000
0000
0000
0001
0000
M000
0010
0000
0000
,
0100
0000
0000
1000
000M
0000
0100
0000
0000
0010
0000
0000
M001
0000
0000
0000
0000
0000
0000
0000
0M00
1000
0000
0000
1001
0000
0000
0000
00M0
0000
0000
0000
0000
0000
0000
0000
M110
0000
0000
0000
0M00
0000
0000
0000
00M0
0000
0000
0000
,
1M01
0000
0000
0000
00M0
0000
0000
0000
000M
0000
0000
0000
0110
0000
0000
0000
0000
0000
0000
0000
000M
1000
0000
0000
00M0
0000
0000
0000
0M00
0000
0010
0000
M000
0000
0000
0000
0001
0000
0000
0000
0000
0000
0010
0000
000M
1000
0000
0000
,
0100
0000
0000
0010
M000
0000
0001
0000
0000
0010
0000
0000
0100
0000
0000
0000
M000
0000
0000
0000
00M0
0101
0000
0000
M000
0000
0000
0000
0000
0000
0010
0000
0M00
0000
0000
0000
1100
0000
0000
0000
00MM
0000
0100
0000
0000
0010
0000
0000
,
0011
0000
0000
0000
MM00
0000
0000
0000
0000
0000
0000
0000
1001
0000
0000
0000
0000
0000
0000
0000
0000
0000
0000
0000
0001
0000
0000
0010
0000
0000
0100
0000
0000
0010
0000
0000
0000
0000
0000
0001
0000
0000
0100
0000
0000
0000
0000
0000
,
1010
1001
0000
0000
0101
0000
1100
0110
0000
0000
0011
1001
0000
0000
1001
1100
,
0000
0000
1001
0000
0000
0000
1000
0010
0100
0001
0000
0010
0100
0000
1000
0001
,
0000
0000
1001
0000
1010
0100
0000
0000
0011
1000
0000
0000
1000
0010
0001
1000
,
0100
0001
0010
1000
0001
0100
1000
0010
0100
0001
0000
0000
0001
0100
0010
1000
,
0100
0001
1000
0010
0001
0100
1000
0001
0010
1000
1001
0000
0001
0100
0010
0001
,
0010
0100
0001
0010
0100
1000
0000
1000
0100
0010
0001
0100
0010
1000
0100
0010
,
0100
1000
0001
0100
0010
1000
0000
0000
0000
0000
0000
0000
1100
0000
0000
0000
,
1001
0000
0000
0000
1010
0000
0000
0100
0000
0000
0011
0000
0001
0010
0100
1000
,
0010
0000
0100
0000
0001
0000
0100
0000
0010
0000
1000
0000
0100
0000
0010
0000
0001
0000
0010
0100
1000
0000
0100
0000
0110
0000
0000
0000
0000
0000
0000
0000
,
1001
0000
0000
0000
2000
0000
0000
0002
0000
0000
0010
3003
1000
0001
0100
0010
,
0100
0001
0010
0100
0000
0000
1001
0000
0000
0000
0000
0000
1100
1000
0010
0100
,
0001
0010
0000
0011
0000
0001
0010
0100
0110
0000
1001
0000
0000
0000
1100
1000
,
0010
0100
0001
0101
0000
0101
0010
1000
0001
0000
0110
0000
0000
0000
0011
0100
,
0010
1000
0100
1100
0000
1100
1000
0001
0101
0000
0110
0000
1010
0000
1000
0100
,
0010
0001
0010
1100
0000
1010
0100
0001
0011
0000
1001
0000
1000
0100
0010
0100
,
1000
0010
0100
0001
0000
0001
0010
0100
1000
0100
0010
0001
0101
0100
0010
1000
,
0100
0010
0001
0010
0000
0100
1000
0010
0110
0100
0101
0001
1001
1000
0100
0010
,
0001
0100
1000
0001
0000
0010
1000
0100
0010
0001
0010
0000
0000
0000
1100
1000
,
0010
0100
0001
0101
0000
0101
0110
1010
1001
0000
0110
0000
0000
0000
0000
0000
;
