#TITLE:Your Best Friend;
#SUBTITLE:Undertale;
#ARTIST:Toby Fox;
#TITLETRANSLIT:;
#SUBTITLETRANSLIT:;
#ARTISTTRANSLIT:;
#CREDIT:WillSM;
#BANNER:../BN.png;
#BACKGROUND:../BG.png;
#LYRICSPATH:;
#CDTITLE:;
#MUSIC:Undertale OST_ 003 - Your Best Friend.ogg;
#OFFSET:-0.160;
#SAMPLESTART:-0.160;
#SAMPLELENGTH:12.000;
#SELECTABLE:YES;
#BPMS:0.000=123.993,2.000=123.987,3.000=123.993,4.000=123.987,5.000=123.993,6.000=123.987,7.000=123.993,9.000=123.987,10.000=123.993,11.000=123.987,12.000=123.993,13.000=123.987,14.000=123.993,16.000=123.987,17.000=123.993,18.000=123.987,19.000=123.993,20.000=123.987,21.000=123.993,22.000=123.987,23.000=123.993,25.000=123.987,26.000=123.993,27.000=123.987,28.000=123.993,29.000=123.987,30.000=123.993,32.000=123.987,33.000=123.993,34.000=123.987,35.000=123.993,36.000=123.987,37.000=123.993,38.000=123.987,39.000=123.993,41.000=123.987,42.000=123.993,43.000=123.987,44.000=123.993,45.000=123.987,46.000=123.993;
#STOPS:;
#BGCHANGES:;
// cache tags:
#FIRSTBEAT:0.000;
#LASTBEAT:46.000;
#SONGFILENAME:Songs/Index Gradation/Your Best Friend - [Will]/Your Best Friend.sm;
#HASMUSIC:1;
#HASBANNER:1;
#MUSICLENGTH:23.452;
// end cache tags

//---------------dance-single - ----------------
#NOTES:
     dance-single:
     :
     Easy:
     4:
     0.305,0.270,0.000,0.085,0.000,48.000,0.000,2.000,0.000,0.000:

1000
0001
1000
0001
,
1000
0001
1000
0001
,
1000
0001
1000
0001
,
1000
0001
1000
0001
,
1000
0000
0001
0100
0001
0000
0010
0000
,
0100
0000
1000
0100
1000
0000
0100
0000
,
0010
0000
0001
0010
0001
0000
1000
0000
,
2000
0000
0000
0000
0000
0000
0000
3000
0000
1000
0000
0000
,
0001
0000
0100
0010
0100
0000
0001
0000
,
0010
0000
0100
1000
0100
0000
0010
0000
,
0001
0100
0010
0000
,
2000
0000
0000
0000
0000
3000
0010
0000
0000
0000
0000
0000
;

//---------------dance-single - ----------------
#NOTES:
     dance-single:
     :
     Challenge:
     8:
     0.682,0.613,0.000,0.085,1.000,110.000,0.000,2.000,0.000,0.000:

1000
0100
0000
0010
0001
0000
1000
0100
0000
0010
0001
0000
,
1000
0100
0000
0010
0001
0000
1000
0100
0000
0010
0001
0000
,
1000
0100
0000
0010
0001
0000
1000
0100
0000
0010
0001
0000
,
1000
0100
0000
0010
0001
0000
1000
0100
0000
0010
0001
0000
,
1000
0100
0010
0100
1000
0100
0010
0001
0010
0001
0010
0100
,
1000
0100
0010
0001
0010
0100
0010
1000
0100
0001
0010
0100
,
1000
0100
0010
0001
0010
0100
0010
0100
1000
0100
1000
0100
,
2000
0000
0000
0000
0000
0000
0000
3001
0000
0001
1000
0000
,
1000
0100
0010
0001
0010
0100
1000
0100
0010
0001
0010
0100
,
1000
0100
0010
0001
0010
0100
0010
0100
0000
1000
0100
0010
,
0001
0100
0001
0100
0010
1000
0010
0100
0000
0001
0100
0001
,
0200
0000
0000
0000
0000
0000
0000
0000
0000
0000
0301
0100
0010
0000
0000
0000
0000
0000
0000
0000
0000
0000
0000
0000
;
