#TITLE:Eclipse (Luna);
#SUBTITLE:;
#ARTIST:Glome;
#TITLETRANSLIT:;
#SUBTITLETRANSLIT:;
#ARTISTTRANSLIT:;
#CREDIT:;
#BANNER:../fthescorept1bn.png;
#BACKGROUND:../fthescorept1bg.png;
#LYRICSPATH:;
#CDTITLE:;
#MUSIC:Eclipse Luna.ogg;
#OFFSET:-0.095;
#SAMPLESTART:11.380;
#SAMPLELENGTH:11.230;
#SELECTABLE:YES;
#BPMS:0.000=170.000;
#STOPS:;
#BGCHANGES:;
// cache tags:
#FIRSTBEAT:16.000;
#LASTBEAT:63.500;
#SONGFILENAME:Songs/Fuck The Score Part I/Eclipse (Luna) [Dossar]/Eclipse Luna.sm;
#HASMUSIC:1;
#HASBANNER:1;
#MUSICLENGTH:22.674;
// end cache tags

//---------------dance-single - ----------------
#NOTES:
     dance-single:
     :
     Challenge:
     15:
     1.000,1.000,0.000,0.000,1.000,196.000,0.000,0.000,0.000,0.000:
0000
0000
0000
0000
,
0000
0000
0000
0000
,
0000
0000
0000
0000
,
0000
0000
0000
0000
,
1000
0100
0010
0000
0001
0100
0000
0010
0000
1000
0100
0000
0010
0100
0000
1000
,
0010
0100
0001
0000
0010
0100
0000
0010
0001
1000
0000
0010
0100
0000
0001
0010
,
0100
1000
0010
0000
0100
0001
0000
0010
0000
0100
0010
0000
0100
1000
0000
0001
,
0100
0010
1000
0000
0100
0010
0001
0100
0010
1000
0100
0010
0001
0100
0010
1000
,
0100
0000
0010
0000
0001
0000
0000
0000
0100
0000
0001
0000
1000
0000
0010
0000
0000
0000
1000
0010
0100
0001
1000
0010
1000
0000
0001
0000
0100
0000
0010
0000
,
1000
0000
0001
0000
0010
0000
0000
0000
0100
0000
1000
0000
0001
0000
1000
0000
0001
0000
0100
0010
1000
0001
0100
0001
1000
0000
0010
0100
0001
0000
1000
0000
,
0010
0000
0100
0000
0001
0000
0000
0000
1000
0000
0100
0000
0010
0000
0001
0000
1000
0000
0001
0010
0100
1000
0001
0010
0001
0000
1000
0000
0100
0000
1000
0000
,
0001
0010
0001
0000
1000
0000
0100
0000
1000
0000
0001
0000
0100
0000
0010
0000
1000
0000
0001
0100
0010
1000
0001
0100
0001
0000
1000
0000
0010
0000
0100
0000
,
0001
0000
1000
0000
0100
0000
0000
0000
0010
0000
0100
0000
1000
0000
0100
0000
0000
0000
1000
0100
0010
0001
1000
0100
1000
0000
0001
0000
0010
0000
0100
0000
,
0010
0000
0001
0000
1000
0000
0000
0000
0010
0000
0100
0000
0001
0000
1000
0000
0010
0000
1000
0001
0100
0010
1000
0001
1000
0000
0010
0100
0001
0000
1000
0000
,
0010
0000
0100
0000
0001
0000
0000
0000
1000
0000
0100
0000
0010
0000
0001
0000
0000
0000
1000
0100
0010
0001
1000
0100
1000
0000
0001
0000
0100
0000
0001
0000
,
1000
0010
0100
0001
1000
0000
0001
0100
0010
1000
0000
0001
0000
1000
0000
0010
0100
0001
0100
0010
1000
0000
0001
0000
0100
0000
0000
0000
0010
0000
0000
0000
;
