#TITLE:Cut You Up With A Linoleum Knife;
#SUBTITLE:;
#ARTIST:Mastodon;
#TITLETRANSLIT:;
#SUBTITLETRANSLIT:;
#ARTISTTRANSLIT:;
#CREDIT:Darkmage;
#BANNER:cutyouupwithalinoleumknife-bn.png;
#BACKGROUND:cutyouupwithalinoleumknife-bg.png;
#LYRICSPATH:;
#CDTITLE:!darkmagetitle2.png;
#MUSIC:Cut You Up With A Linoleum Knife.ogg;
#OFFSET:0.841;
#SAMPLESTART:30.972;
#SAMPLELENGTH:20.000;
#SELECTABLE:YES;
#BPMS:0.000=207.000;
#STOPS:;
#BGCHANGES:0.000=cutyouupwithalinoleumknife-bg.png=1.000=0=0=1,
99999=-nosongbg-=1.000=0=0=0 // don't automatically add -songbackground-
;
// cache tags:
#FIRSTBEAT:4.000;
#LASTBEAT:377.000;
#SONGFILENAME:Songs/Archmage and Dark0wl Hammer of Thor UltraHyperMegaPack/Cut You Up With A Linoleum Knife/Cut You Up With A Linoleum Knife.sm;
#HASMUSIC:1;
#HASBANNER:1;
#MUSICLENGTH:105.000;
// end cache tags

//---------------dance-single - Darkmage----------------
#NOTES:
     dance-single:
     Darkmage:
     Challenge:
     15:
     1.000,1.000,1.000,0.467,1.000,876.000,139.000,49.000,0.000,8.000:
0000
0000
0000
0000
,
1000
0001
2200
0000
3301
0001
0010
0010
,
0100
0100
1000
1000
0010
1000
0001
0010
,
1100
0110
0022
0000
0133
0100
1000
1000
,
0001
0001
0100
0100
0001
0010
1000
0010
,
0001
0110
2020
0000
3130
0010
0001
1000
,
0010
0100
0001
0100
0010
1000
0001
0010
,
1100
0110
0022
0000
0000
0133
0100
1000
,
0010
0100
0001
0010
0100
1000
0100
0001
,
0100
0000
1000
0100
1000
0100
1000
0000
0000
0000
0001
0010
0001
0010
0001
0000
,
0000
0000
1000
0010
1000
0010
1000
0000
0000
0000
0001
0100
0001
0100
0001
0000
,
0000
0101
1000
0100
1000
0110
0000
0100
,
0011
0000
1000
0101
0000
0010
0200
2300
,
3020
0030
0101
0000
0001
1100
0000
1000
,
0110
0000
0100
0011
0000
0002
0203
2300
,
3200
0300
0011
0000
0100
1010
0000
0001
,
0110
0000
1000
0101
0000
0020
0230
2300
,
3002
0003
0000
1100
0000
0010
0101
0000
,
0001
0000
1100
0000
0000
0000
1000
0000
0011
0000
0000
0000
1000
0000
0001
0100
,
0010
1000
0001
0000
0000
0000
1010
0000
0000
0000
0100
0000
0011
0000
0000
0000
,
0001
1010
0000
1000
0110
0000
0002
0023
,
0230
2300
3000
1100
0000
1000
0110
0000
,
0001
1010
0000
1000
0110
0000
0200
0302
,
0203
2300
3200
0311
0000
0100
1010
0000
,
1000
0110
0000
0100
0011
0000
0002
0203
,
0320
2030
3200
0310
0101
0000
1000
0101
,
0000
0010
1100
0000
1000
0101
0000
0001
,
0110
1001
1100
0011
,
1000
0100
1000
0100
1000
0100
1000
0100
1000
0000
0000
0000
0100
0000
0000
0000
,
0010
0001
0010
0001
0010
0001
0010
0001
0010
0001
0010
0000
0000
0000
0100
0000
,
0000
0000
1000
0100
1000
0100
1000
0100
1000
0100
0010
0001
0010
0001
0010
0001
,
0010
0001
0100
0010
0100
0010
0100
0010
0100
0010
0101
0000
0000
0000
1001
0000
,
0000
0000
0100
0010
0100
0000
0010
1000
0010
1000
0010
0000
0000
0000
1010
0000
,
0000
0110
0000
0000
0101
0000
0000
0011
0000
0000
1100
0000
0000
0000
0110
0000
,
0000
0000
0011
0000
1000
0100
1000
0100
1000
0100
0010
0001
0010
0001
0010
0001
,
0010
0001
1000
0010
0100
0001
0010
0100
1000
0001
0100
0010
1001
0000
0000
0000
,
0110
0000
0000
0000
1000
0100
1000
0100
1000
0000
0000
0000
0110
0000
0000
0000
,
0011
0000
0000
0001
0100
0010
0100
0001
0010
0100
1000
0001
,
0100
0010
1000
0100
0010
0100
1000
0010
0100
0001
0100
0010
,
1000
0100
1000
0010
0100
0001
0010
0100
0001
0100
0010
0001
,
0101
0000
0000
0000
0110
0000
0000
0000
1000
0100
0010
0001
0010
0100
1000
0100
,
0011
0000
0000
0000
1100
0000
0001
0010
0001
0000
1000
0000
0010
0000
0100
0000
,
0101
0000
0000
0000
1010
0000
0000
0000
0001
0010
0001
0010
0001
0010
0001
0010
,
0100
1000
0100
1000
0100
1000
0100
1000
0010
0100
0010
0100
0010
0100
0010
0100
,
0010
1001
0000
0100
1010
0000
1000
0101
,
0000
0001
1010
0000
0100
2010
3200
0302
,
0023
0130
1001
0000
0010
0101
0000
0001
,
1100
0000
1000
0110
0000
0010
2200
0000
,
3322
0000
0000
1133
0000
1100
1100
0000
,
0011
0011
0000
0101
0101
0000
1010
1010
,
0101
1001
0000
0101
0000
0110
1010
0000
,
1100
1010
0000
0110
0101
0000
0011
0110
,
0000
1001
0100
0011
0000
0100
1100
0000
,
1000
1100
0000
1100
1100
0000
1100
0200
,
2300
3002
0000
1013
0000
0001
0101
0000
,
0100
0000
0101
0000
0000
0000
0101
0000
0101
0000
0000
0000
0001
0000
1000
0100
,
1000
0100
1000
0000
0000
0000
0000
0000
0011
0000
0000
0000
1000
0000
0110
0000
,
0000
0001
1100
0000
1000
0011
0000
0001
,
1100
0000
1001
0000
0101
0000
0100
1010
,
0000
0000
0010
0000
0101
0001
0100
0001
0100
0010
1000
0010
1000
0010
1000
0010
,
0100
0001
0100
0001
0100
0001
0100
0001
1001
0000
0000
0000
1000
0100
1000
0100
,
1000
0000
0000
0000
0001
0010
0001
0010
0001
0000
0000
0000
1000
0010
0100
0001
,
1100
0000
0000
0110
0000
0000
0011
0000
1100
0000
0000
0000
0000
0000
0001
0100
,
0010
0100
0001
0000
0000
0000
1000
0100
0010
0100
1000
0000
0000
0000
0100
0010
,
1000
0001
0011
0000
0000
1100
0000
0000
1010
0000
0101
0000
0000
0000
1000
0100
,
1000
0100
1000
0100
1000
0100
0010
0001
0010
0001
0010
0001
0010
0001
1000
0010
,
1000
0010
1000
0010
1000
0010
0100
0001
0100
0001
0100
0001
0100
0001
1000
0100
,
1000
0100
1000
0100
1000
0100
1000
0001
1000
0001
1000
0001
1000
0001
0100
0010
,
0100
0010
0100
0010
0100
0010
1000
0100
0010
0001
1000
0100
0010
0001
1000
0000
,
0100
1000
0100
1000
0100
0000
0000
0000
1000
0010
1000
0010
1000
0000
0000
0000
,
0001
0010
0001
0010
1100
0000
0000
1010
0000
0000
0101
0000
0011
0000
0000
0000
,
0100
0001
0100
0001
0100
0000
0000
0000
0010
1000
0010
1000
0010
0000
0000
0000
,
1000
0001
1000
0001
1100
0000
0000
1010
0000
0000
0101
0000
0011
0000
0000
0000
,
0001
0010
0100
0010
0001
0000
0000
0000
1000
0100
0010
0100
1000
0000
0000
0000
,
0001
0100
0010
1000
0101
0000
0000
1010
0000
0000
0000
0000
1200
0000
0000
0000
,
0000
0300
1020
0000
0000
0030
0102
0000
,
0000
0000
0003
0000
0021
0000
0000
0000
0000
0000
0030
0000
0100
1000
0100
0010
,
0100
0001
0100
0010
0001
1000
0010
0100
1000
0100
0010
1000
0001
0010
0100
0010
,
0001
1000
0010
0100
0001
0010
0100
0001
0100
0010
0001
1000
0010
0100
1000
0100
,
0010
1000
0010
0001
0010
0100
0001
0010
0100
1000
0100
0010
1000
0010
0100
0001
,
0100
0010
0001
1000
0010
0100
0001
1000
0100
0010
0100
1000
0010
0100
0010
0100
,
0001
0010
0001
0010
0100
1000
0100
1000
0010
1000
0010
1000
0001
0010
0001
0010
,
0100
1000
0100
1000
0010
1000
0010
1000
0001
0100
0001
0100
0010
1000
0010
1000
,
0100
1000
0100
1000
0001
0010
0001
0010
0100
0010
0100
0010
0100
1000
0100
1000
,
0001
0100
0001
0100
0010
0100
0010
0100
0001
0010
0100
1000
0010
0100
0001
0010
,
0100
1000
0100
0010
0001
1000
0010
0100
0001
0100
1000
0100
0010
1000
0001
0010
,
0100
0010
0001
1000
0010
0001
0010
1000
0001
0010
0100
1000
0100
0010
0001
1000
,
0010
0100
0001
0010
0100
0010
0001
1000
0100
0010
0100
1000
0001
0010
0100
0010
,
0001
1000
0100
0010
0100
1000
0001
0010
0100
0010
0001
1000
0010
0100
0001
0100
,
0010
1000
0010
0100
0001
0100
0010
1000
0010
0100
0001
1000
0100
0010
0001
0010
,
0100
1000
0001
0010
0100
1000
0100
0010
0001
0010
0100
0010
0001
0010
0100
1000
,
0001
0010
0100
1000
0001
0010
0100
1000
0001
0010
0100
1000
0001
0010
0100
0010
,
0001
0010
0100
1000
0100
0010
0100
1000
0100
0010
0001
0010
0100
1000
0100
0001
,
0100
1000
0100
0001
0200
0000
0000
0000
0000
0000
0000
0000
0000
0000
0000
0000
,
0000
0300
0000
0000
;
