#TITLE:anemone;
#SUBTITLE:;
#ARTIST:S-C-U feat. Qrispy Joybox;
#TITLETRANSLIT:;
#SUBTITLETRANSLIT:;
#ARTISTTRANSLIT:;
#CREDIT:owenviau1;
#BANNER:BN.png;
#BACKGROUND:BG.png;
#LYRICSPATH:;
#CDTITLE:../CDTitleOV1.png;
#MUSIC:S-C-U feat. Qrispy Joybox - anemone.mp3;
#OFFSET:-0.377;
#SAMPLESTART:68.777;
#SAMPLELENGTH:29.999;
#SELECTABLE:YES;
#DISPLAYBPM:200.000;
#BPMS:0.000=200.000;
#STOPS:;
#BGCHANGES:;
// cache tags:
#FIRSTBEAT:0.000;
#LASTBEAT:319.500;
#SONGFILENAME:Songs/owenviau1 Simfiles 7/anemone - [owenviau1] v1.0.3/anemone.sm;
#HASMUSIC:1;
#HASBANNER:1;
#MUSICLENGTH:101.198;
// end cache tags

//---------------dance-single - 10.19 (10) (owenviau----------------
#NOTES:
     dance-single:
     10.19 (10) (owenviau:
     Hard:
     10:
     1.000,1.000,1.000,0.089,0.104,618.000,111.000,9.000,0.000,1.000:
1100
0110
0011
0100
1010
0101
1000
0110
,
0001
0101
0110
1010
1000
0011
0110
1100
,
0001
0100
0010
1000
1010
0001
0010
0100
,
1000
0010
0100
0001
1010
1000
0001
0100
,
0101
1010
1001
0100
1010
0101
0010
0100
,
1000
0001
0100
0010
0100
0001
4000
0000
,
3011
0011
0011
1001
0000
0000
1010
1010
,
1010
0110
0000
0001
0011
0010
0110
0000
,
1000
0100
0010
0001
1000
0010
0100
0010
,
1000
0001
0010
0100
1000
0010
0100
0001
,
1000
0100
1000
0001
0010
0001
0100
0010
,
1000
0001
0010
0100
1000
0010
0100
0001
,
1000
0100
1000
0010
0100
0010
1000
0001
,
0100
0001
1000
0100
0010
0001
0100
0010
,
1001
1001
1001
1010
0000
0000
0110
0110
,
0110
0101
0000
1000
1100
0100
0110
0000
,
0001
1000
0100
1000
0010
0100
0001
1000
,
0100
0010
0001
0100
0010
1000
0001
0010
,
0100
1000
0001
0100
0001
1000
0010
0100
,
0010
1000
0001
0010
0001
0100
0010
1000
,
0001
0010
0100
1000
0010
0100
0001
1000
,
0100
1000
0010
0100
0010
1000
0001
0100
,
0001
1001
1001
1000
0110
0110
0001
1010
,
1010
0100
0011
0011
0001
0100
0010
1000
,
0100
1000
0001
0010
0100
1000
0010
0100
,
0001
1000
0100
0010
0001
1000
0010
1000
,
0001
0100
0010
0100
0001
1000
0100
1000
,
0010
0100
0001
1000
0100
0010
0001
1000
,
0001
0100
0110
1000
0100
0010
0101
1000
,
0010
0100
0011
1000
0100
0010
1001
0100
,
1020
1000
0130
0010
2001
0001
3100
0010
,
0102
0100
1003
0010
0220
0000
0000
0000
,
1330
0100
0010
0001
1000
0010
0100
0010
,
1000
0001
0010
0001
0100
0010
1000
0001
,
0010
0100
1000
0010
0100
0001
1000
0100
,
1000
0001
0100
0001
0010
0100
1000
0010
,
0100
0001
1000
0010
0100
0010
1000
0001
,
0010
0001
1000
0100
0010
0001
0100
0010
,
1000
0001
0010
0001
1000
0100
1000
0010
,
0100
0010
1000
0001
0100
0001
1000
0010
,
0100
0010
1000
0001
0010
0100
1000
0010
,
0100
0001
1000
0100
0010
0001
1000
0100
,
1000
0010
0100
0001
1000
0010
0100
0010
,
1000
0001
0010
0100
1000
0010
0100
0001
,
1000
0100
1000
0010
0100
0010
1000
0001
,
0100
0001
1000
0010
0100
0010
1000
0001
,
0010
0001
0100
0010
1000
0001
0010
0100
,
1000
0010
0100
0001
1000
0100
0010
0001
,
0100
0000
0010
0000
1000
0000
0100
0010
0001
0000
1000
0000
0010
0100
0001
0000
,
1000
0000
0001
0010
0100
0000
1000
0000
0010
0100
0001
0000
1000
0000
0001
0100
,
0010
0000
1000
0000
0100
0010
0001
0000
1000
0000
0010
0100
0001
0000
1000
0000
,
0100
0010
0001
0000
1000
0000
0010
0100
0010
0000
1000
0000
0001
0010
0100
0000
,
1000
0001
0010
0000
0100
0000
1000
0010
0100
0000
0001
0000
0010
0100
1000
0000
,
0010
0000
0100
0001
1000
0000
0100
0000
0010
0001
0100
0000
0010
0000
1000
0100
,
1000
0000
0010
0000
0100
0001
1000
0000
0100
0000
0010
0001
0100
0000
0010
0000
,
1000
0100
0010
0000
0001
0000
0100
0010
1000
0000
0010
0000
0100
0001
1000
0000
,
0020
0000
0000
0030
0020
0000
0000
0000
,
1030
0100
0010
0001
1000
0010
0100
0010
,
1000
0001
0010
0001
0100
0010
1000
0001
,
0010
0100
1000
0010
0100
0001
1000
0100
,
1000
0010
0100
0010
1000
0001
0100
0001
,
1000
0010
1000
0001
0010
0100
1000
0010
,
0100
0001
1000
0100
0010
0001
0100
0010
,
1001
1001
1001
1010
0000
0000
0110
0110
,
0110
0101
0000
1000
1010
0010
0110
0000
,
0001
0010
0100
1000
0010
0100
0001
1000
,
0100
1000
0010
0100
0010
1000
0001
0100
,
0001
1000
0010
0100
0010
1000
0001
0010
,
0100
1000
0001
0010
0001
0100
0010
1000
,
0100
1000
0001
0010
0100
1000
0010
0100
,
0001
1000
0100
0010
0001
0100
0010
1000
,
0011
0011
0011
1001
0000
0000
1010
1010
,
1010
0110
0000
0001
0011
0010
0110
0000
,
1001
1001
1001
1010
0000
0000
0110
0110
,
0110
0101
0000
1000
1100
0100
0110
0000
,
0011
0011
0011
1001
0000
0000
1010
1010
,
1010
0110
0000
0001
1001
1000
1010
0000
,
0110
0110
0110
0101
0000
0000
1100
1100
,
1100
0011
0000
0000
0110
0110
0110
1001
,
0000
0000
1010
1010
1010
2002
0000
3003
,
0000
0000
0000
0000
,
0000
0000
0000
0000
,
0000
0000
0000
0000
,
0000
0000
0000
0000
,
0000
0000
0000
0000
;

//---------------dance-single - 15.27 (15) (owenviau----------------
#NOTES:
     dance-single:
     15.27 (15) (owenviau:
     Challenge:
     15:
     1.000,1.000,1.000,0.089,1.000,982.000,103.000,9.000,0.000,1.000:
1100
0110
0011
0100
1010
0101
1000
0110
,
0001
0101
0110
1010
1000
0011
0110
1100
,
0001
0100
0010
1000
1010
0001
0010
0100
,
1000
0010
0100
0001
1010
1000
0001
0100
,
0101
1010
1001
0100
1010
0101
0010
0100
,
1000
0001
0100
0010
0100
0001
4000
0000
,
3011
0011
0011
1001
0000
0000
1010
1010
,
1010
0110
0000
0001
0011
0010
0110
0000
,
1000
0100
0010
0001
0100
0010
1000
0001
0010
0100
1000
0010
0100
0010
1000
0100
,
0010
0001
0100
0010
1000
0001
0010
0001
0100
0010
1000
0100
0010
0001
0100
0010
,
0100
0001
1000
0001
0010
0100
1000
0010
0100
0010
1000
0001
1000
0100
0010
0001
,
0100
0010
1000
0001
0100
0001
1000
0010
1000
0001
0010
0100
1000
0001
0010
0001
,
1000
0100
0010
0001
0100
0010
1000
0001
0010
0001
0100
0010
1000
0001
0010
0001
,
0100
0010
1000
0100
0010
0001
1000
0010
1000
0001
0100
0010
1000
0100
0010
0000
,
1001
1001
1001
1010
0000
0000
0110
0110
,
0110
0101
0000
1000
1100
0100
0110
0000
,
0001
0100
0010
1000
0001
0010
0100
1000
0010
0100
0010
1000
0100
0010
0001
0100
,
0010
1000
0001
0010
0001
0100
0010
1000
0100
0010
0001
0100
0010
0100
0001
1000
,
0001
0010
0100
1000
0010
0100
0010
1000
0001
1000
0100
0010
0001
0100
0010
1000
,
0001
0100
0001
1000
0010
1000
0001
0010
0100
1000
0001
0010
0001
1000
0100
0010
,
0001
0100
0010
1000
0001
0010
0001
0100
0010
1000
0001
0010
0001
0100
0010
1000
,
0100
0010
0001
0100
0010
1000
0001
0010
0100
1000
0010
0100
0010
1000
0100
0010
,
0001
0100
0010
1000
0001
0010
0001
0100
0010
1000
0100
0010
0001
0100
0010
0100
,
0001
1000
0001
0010
0100
1000
0010
0100
0010
1000
0001
1000
0100
0010
0001
0100
,
0010
1000
0001
0100
0001
1000
0010
1000
0001
0010
0100
1000
0001
0010
0001
1000
,
0100
0010
0001
0100
0010
1000
0001
0010
0001
0100
0010
1000
0001
0010
0001
0100
,
0010
1000
0100
0010
0001
1000
0010
1000
0001
0100
0010
1000
0001
0010
0100
1000
,
0010
0100
0010
1000
0100
0010
0001
0100
0010
1000
0001
0010
0001
0100
0010
1000
,
0001
0100
0110
1000
0100
0010
0101
1000
,
0010
0100
0011
1000
0100
0010
1001
0100
,
1020
1000
0130
0010
2001
0001
3100
0010
,
0102
0100
1003
0010
0220
0000
0000
0000
,
1330
0001
0100
0010
0100
0001
1000
0010
0100
0001
1000
0010
0100
0010
1000
0100
,
0010
0001
0100
0010
1000
0001
0010
0001
0100
0010
1000
0100
0010
0001
0100
0010
,
0100
0001
1000
0001
0010
0100
1000
0010
0100
0010
1000
0001
1000
0100
0010
0001
,
0100
0010
1000
0001
0100
0001
1000
0010
1000
0001
0010
0100
1000
0001
0010
0001
,
1000
0100
0010
0001
0100
0010
1000
0001
0010
0001
0100
0010
1000
0001
0010
0001
,
0100
0010
1000
0100
0010
0001
1000
0010
1000
0001
0100
0010
1000
0100
0010
0001
,
0100
0010
1000
0001
0010
0100
1000
0010
0100
0010
1000
0100
0010
0001
0100
0010
,
1000
0001
0010
0001
0100
0010
1000
0100
0010
0001
0100
0010
0100
0001
1000
0001
,
0010
0100
1000
0010
0100
0010
1000
0001
1000
0100
0010
0001
0100
0010
1000
0001
,
0100
0001
1000
0010
1000
0001
0010
0100
1000
0001
0010
0001
1000
0100
0010
0001
,
0100
0010
1000
0001
0010
0001
0100
0010
1000
0001
0010
0001
0100
0010
1000
0100
,
0010
0001
1000
0010
1000
0001
0100
0010
1000
0100
0010
0001
0100
0010
1000
0001
,
0010
0100
1000
0010
0100
0010
1000
0100
0010
0001
0100
0010
1000
0001
0010
0001
,
0100
0010
1000
0100
0010
0001
0100
0010
0100
0001
1000
0001
0010
0100
1000
0010
,
0100
0010
1000
0001
1000
0100
0010
0001
0100
0010
1000
0001
0100
0001
1000
0010
,
1000
0001
0010
0100
1000
0001
0010
0001
1000
0100
0010
0001
0100
0010
1000
0001
,
0100
0000
0010
0000
1000
0000
0100
0010
0001
0000
1000
0000
0010
0100
0001
0000
,
1000
0000
0001
0010
0100
0000
0000
0000
1000
0010
0100
0000
0001
0000
1000
0100
,
0010
0000
0001
0000
0100
0010
1000
0000
0001
0000
0010
0100
1000
0000
0001
0000
,
0100
0010
1000
0000
0001
0000
0100
0010
0100
0000
0001
0000
1000
0010
0100
0000
,
0001
0010
0100
0000
1000
0000
0010
0100
0001
0000
1000
0000
0010
0100
0010
0000
,
1000
0000
0001
0010
0100
0000
1000
0000
0001
0100
0010
0000
1000
0000
0001
0010
,
0100
0000
1000
0000
0010
0100
0001
0000
1000
0000
0100
0010
0001
0000
0100
0000
,
0010
1000
0001
0000
0100
0000
0010
1000
0001
0000
0010
0000
0100
1000
0001
0000
,
0200
0300
0020
0000
,
1030
0001
0100
0010
1000
0010
0100
0001
0010
0100
1000
0010
0100
0010
1000
0100
,
0010
0001
0100
0010
1000
0001
0010
0001
0100
0010
1000
0100
0010
0001
0100
0010
,
0100
0001
1000
0001
0010
0100
1000
0010
0100
0010
1000
0001
1000
0100
0010
0001
,
0100
0010
1000
0001
0100
0001
1000
0010
1000
0001
0010
0100
1000
0001
0010
0001
,
1000
0100
0010
0001
0100
0010
1000
0001
0010
0001
0100
0010
1000
0001
0010
0001
,
0100
0010
1000
0100
0010
0001
1000
0010
1000
0001
0100
0010
1000
0100
0010
0000
,
1001
1001
1001
1010
0000
0000
0110
0110
,
0110
0101
0000
1000
1010
0010
0110
0000
,
0001
0100
0010
1000
0001
0010
0100
1000
0010
0100
0010
1000
0100
0010
0001
0100
,
0010
1000
0001
0010
0001
0100
0010
1000
0100
0010
0001
0100
0010
0100
0001
1000
,
0001
0010
0100
1000
0010
0100
0010
1000
0001
1000
0100
0010
0001
0100
0010
1000
,
0001
0100
0001
1000
0010
1000
0001
0010
0100
1000
0001
0010
0001
1000
0100
0010
,
0001
0100
0010
1000
0001
0010
0001
0100
0010
1000
0001
0010
0001
0100
0010
1000
,
0100
0010
0001
0100
0010
1000
0001
0010
0100
1000
0010
0100
0010
1000
0100
0000
,
0011
0011
0011
1001
0000
0000
1010
1010
,
1010
0110
0000
0001
0011
0010
0110
0000
,
1001
1001
1001
1010
0000
0000
0110
0110
,
0110
0101
0000
1000
1100
0100
0110
0000
,
0011
0011
0011
1001
0000
0000
1010
1010
,
1010
0110
0000
0001
1001
1000
1010
0000
,
0110
0110
0110
0101
0000
0000
1100
1100
,
1100
0011
0000
0000
0110
0110
0110
1001
,
0000
0000
1010
1010
1010
2002
0000
3003
,
0000
0000
0000
0000
,
0000
0000
0000
0000
,
0000
0000
0000
0000
,
0000
0000
0000
0000
,
0000
0000
0000
0000
;
