#TITLE:Decisive Battle of the Fugitives;
#SUBTITLE:;
#ARTIST:S.S.H.;
#TITLETRANSLIT:;
#SUBTITLETRANSLIT:;
#ARTISTTRANSLIT:;
#CREDIT:;
#BANNER:DB-BN.png;
#BACKGROUND:DB-BG.png;
#LYRICSPATH:;
#CDTITLE:;
#MUSIC:FM-BAT2.ogg;
#OFFSET:-0.025;
#SAMPLESTART:58.740;
#SAMPLELENGTH:11.980;
#SELECTABLE:YES;
#BPMS:0.000=226.000,890.000=221.760,890.500=218.380,891.000=212.160,891.500=209.080,892.000=206.820,892.500=203.460,893.000=201.740,893.500=206.340,894.000=199.200,894.500=197.000,895.000=196.000,895.500=194.160,896.000=192.940,896.500=190.520,897.000=187.100,897.500=184.880,898.000=183.260,898.500=181.640,899.000=180.220,899.500=178.800,900.000=140.000,901.000=115.000,902.000=70.000;
#STOPS:;
#BGCHANGES:;
// cache tags:
#FIRSTBEAT:5.000;
#LASTBEAT:906.500;
#SONGFILENAME:Songs/SSSC Pack 2/Decisive Battle of the Fugitives [Zarkonis]/Decisive Battle and the Fugitives.sm;
#HASMUSIC:1;
#HASBANNER:1;
#MUSICLENGTH:246.099;
// end cache tags

//---------------dance-single - Blank----------------
#NOTES:
     dance-single:
     Blank:
     Challenge:
     15:
     1.000,1.000,0.199,1.000,0.707,1813.000,49.000,361.000,94.000,0.000:

0000
0000
0000
0000
,
0000
0000
0001
0100
0120
0000
1000
0000
,
0M0M
1000
0M0M
1000
,
0M0M
0000
1030
0100
0120
0000
0001
0000
,
MM00
0000
0031
0000
0101
0000
0100
0010
,
0000
0010
2000
0000
0001
0000
0MM0
0000
,
0001
0MM0
0001
0MM0
,
3001
0000
MM11
0000
0000
MM11
0000
0000
,
MM11
0000
0000
0000
0010
0100
1000
0001
0100
0001
1000
0010
1000
0001
0010
0100
,
1000
0000
0001
0100
0001
1000
01M0
0100
,
0001
0M10
0010
1000
0001
0001
1000
0001
,
0020
0230
1300
0M10
0010
0001
01M0
0100
,
1000
0001
1000
0M10
0010
0001
01M0
0100
,
2000
0000
3001
0200
0320
1030
0100
0010
,
0001
1000
0010
1000
0001
0001
1000
0001
,
0020
0230
1300
0100
0010
0001
0100
0010
,
1000
0000
0100
0000
1000
0000
0001
0010
0001
0000
1000
0000
0010
1000
0010
0000
,
0100
0001
0100
0001
1000
0000
1000
0000
0010
0000
0100
0000
0001
0000
0010
0000
,
0001
0200
0000
0310
0100
0001
0010
0001
,
2000
0000
3001
0001
0100
0010
1000
0100
,
1000
0000
0020
0000
0000
0000
0130
0010
0100
0000
0001
0000
1000
0001
1000
0000
,
0002
0000
0010
0003
0001
0010
0100
1000
0002
0000
0023
0000
0032
0000
0203
0000
,
0320
2030
0000
3002
0023
0032
0203
0320
,
2030
0000
3100
0200
0320
0032
2003
3020
,
0230
0000
0302
0000
0013
0000
0100
1000
0100
0000
0010
0000
0001
0100
0001
1000
,
0010
0100
0002
0000
0023
0000
0130
1000
,
0010
0000
0210
0000
0000
0000
0301
0000
0010
0000
0100
1000
0100
0000
0010
0000
,
0001
0000
1000
0001
1000
0000
0100
0000
0100
0000
0010
0000
0001
0000
0001
0000
,
0100
0000
0010
0000
0010
0000
1000
0000
0010
0000
1000
0001
1000
0000
0001
0000
,
0010
0100
2000
0000
0001
0000
3001
1000
,
0010
0100
0100
0001
0010
0010
0001
0100
,
0010
0000
0100
0000
0002
0000
0000
0000
0013
0000
0100
0010
0100
0000
1000
0000
,
0010
0000
0010
0000
0100
0000
0001
0000
0000
0000
1001
0000
0000
0000
1000
0001
,
1000
0001
0020
0000
0100
0000
0100
0000
,
0100
0000
0000
0000
0130
0000
1000
0100
1000
0000
0001
0000
0100
0001
0100
0000
,
0010
1000
0002
0023
0032
0023
0230
2300
,
3002
0203
0320
2030
3020
2030
3002
0023
,
0230
2300
3002
0203
0320
0230
0302
2003
,
3002
2003
3002
0023
0230
0320
0032
2003
,
3002
2003
3002
2003
3200
2300
3002
0203
,
0320
0230
0302
0023
0230
0320
0032
2003
,
3020
0230
0320
2030
3200
0320
0032
0203
,
0320
0000
0230
0000
0301
1000
0001
1000
0001
1000
0001
1000
0002
0000
0000
0000
,
0000
0000
2003
3200
2300
3200
0320
0032
,
2003
3020
0230
0302
0203
0302
2003
3200
,
0320
0032
2003
3020
0230
0320
2030
3002
,
2003
3002
2003
3200
0320
0230
2300
3002
,
2003
3002
2003
3002
0203
0302
2003
3020
,
0230
0320
2030
3200
0320
0230
2300
3002
,
0203
0320
0230
0302
0023
0230
2300
3002
,
0203
0000
0320
0000
1030
0001
1000
0001
1000
0001
1000
0001
2000
0000
0000
0000
,
0000
0000
3001
0010
0010
0100
0100
1000
,
0010
0010
0110
0000
1010
0000
1001
0000
,
0101
0000
0100
0010
1000
0001
0001
0010
,
0100
0000
0100
0000
0010
0000
0001
0010
0001
0010
0100
1000
0100
1000
0001
0100
,
0001
0100
0010
1000
0001
0000
0010
0000
0011
0000
0000
0000
0001
0000
1000
0000
,
0010
0000
0010
0100
0100
0001
1000
0100
,
1000
0000
0001
0000
0011
0000
0010
0001
,
0100
0000
0100
0010
0010
1000
0100
0010
,
0001
0000
1001
1000
0010
0100
0100
0001
,
0100
0100
0010
1000
0001
0010
0010
0100
,
0010
0010
0001
0000
0100
0001
0000
1000
,
0100
0000
0010
0000
0001
0010
0001
1000
0010
1000
0001
0010
0100
1000
0001
0100
,
0001
0000
0000
0000
1000
0001
1000
0000
0100
0000
0010
0000
0001
0000
1000
0000
,
1010
0000
0010
0100
0101
0000
0001
0010
,
0100
0000
1100
1000
0001
0101
0100
0010
,
1000
0001
0010
0010
0100
0010
0010
0100
,
1000
0001
0400
M0M0
0000
M0M0
0000
M0M0
,
0000
M000
0320
2030
3200
0320
0032
2003
,
3020
0230
0304
M0M0
0000
M0M0
0000
M0M0
,
0000
M000
0013
0100
1000
0001
1000
0001
,
0100
0000
0020
0100
0130
0020
0100
0130
,
0001
0010
0200
1000
1300
0200
1000
1300
,
0010
0100
0002
0010
0013
0002
0010
0013
,
0100
2000
3000
0002
0023
0230
2300
3020
,
0230
0302
1MM0
0000
1MM0
0000
0000
0000
,
1MM0
0000
0000
0000
1MM0
0000
0000
1003
,
0100
0010
0001
2000
0MM1
0000
0000
0000
,
0MM1
0000
0000
0000
0MM1
0000
0000
3001
,
0010
0100
1000
0000
1M1M
0000
0000
0000
,
M1M1
0000
0000
0000
MM11
0000
0000
0001
,
0001
0010
0100
1000
1MM1
0000
0000
0000
,
M1M1
0000
0000
0000
0100
0001
1000
0100
1000
0001
0010
0001
1000
0100
0010
0001
,
1000
0010
1000
0001
0100
0000
0010
0000
1000
0010
1000
0000
0001
0000
0010
0001
,
0010
0000
0100
0000
1000
0100
1000
0000
0001
0100
0010
1000
0001
0010
0001
1000
,
0100
0000
0000
0000
0010
0001
1000
0010
0200
0000
0000
0000
0000
0000
0000
0000
,
0000
0000
0302
0000
,
0000
0000
0000
0000
0000
0000
0023
0000
0000
0230
0000
0000
1300
0000
0100
0000
1000
0000
0001
0000
0100
0000
0001
0000
,
1000
0100
1000
0001
0010
0001
1000
0100
0010
0001
0100
0010
,
1000
0100
1000
0001
0100
0001
1000
0010
1000
0001
0010
0001
,
1000
0100
0010
0100
0010
0001
1000
0010
1000
0001
0010
0001
,
0100
0010
1000
0100
1000
0001
0100
0010
0100
0010
1000
0010
,
1000
0000
0001
0000
1000
0000
0001
0000
0010
0000
0001
0000
2000
0000
0000
0000
0000
0000
0000
0000
0000
3002
0000
0000
,
0000
0000
0000
0000
0023
0000
0000
0000
0031
0010
0001
1000
0010
0100
0001
1000
,
0001
1000
0100
0010
0001
1000
0010
1000
0001
0100
0001
1000
0001
1000
0100
1000
,
0001
0010
0001
1000
0010
0100
0001
1000
0002
0000
0023
0000
0230
0000
2300
0000
,
3020
0230
0320
2030
3002
0023
0230
2300
,
3001
0010
0100
1000
0001
0100
0010
1000
0001
0010
0001
1000
0010
0100
0001
0010
,
0001
1000
0010
0100
0001
0010
0001
1000
0200
0000
0320
0000
0230
0000
2300
0000
,
3002
0000
0203
0000
0320
0000
2030
0000
3001
0010
0001
0000
1000
0010
1000
0000
,
0001
0100
0010
1000
0001
0100
0001
1000
0200
0000
0000
0000
0000
0000
0000
0000
,
0000
0000
0000
0000
1300
0100
0010
0001
1000
0010
1000
0001
0100
0001
0100
0010
,
1000
0001
0010
0001
1000
0010
1000
0010
0100
0001
1000
0100
1000
0001
0010
0100
,
0010
0001
1000
0010
1000
0001
0100
0010
1000
0010
0100
0001
1000
0000
0200
0000
,
0000
0000
0300
0000
1000
0100
0010
0001
1000
0000
0020
0000
0000
0000
0000
0000
,
0230
0000
0000
0000
0000
0000
0000
0000
0301
0010
0100
1000
0001
0010
0100
1000
,
0001
0100
0001
1000
0100
1000
0001
0010
0100
1000
0001
1000
0010
1000
0001
0010
,
0001
0010
0100
1000
0001
0010
0100
1000
0001
0100
0010
1000
0001
1000
0010
1000
,
0001
1000
0100
1000
0001
0010
0100
1000
0002
0000
0000
0000
0000
0000
0000
0000
,
0000
0000
0000
1003
0100
0010
0001
0100
0001
1000
0100
1000
,
0001
0000
0000
0000
0010
0000
0000
0000
0001
0000
0000
0000
1000
0000
0000
0000
0010
0000
0000
0000
1000
0000
0000
0000
0001
0000
0000
0000
0100
0000
0000
0000
0010
0000
0000
0000
1000
0000
0000
0100
0000
0000
0010
0000
0000
0001
0000
0000
,
1000
0100
0010
0001
1000
0010
1000
0001
0100
0001
1000
0001
1000
0100
0010
0001
,
1000
0001
1000
0010
0100
0001
1000
0001
1000
0010
0100
0001
1000
0100
1000
0001
,
0010
0100
0010
0100
1000
0001
0010
0001
1000
0010
0100
0001
1000
0100
1000
0001
,
0010
0100
1000
0100
0010
0001
1000
0010
0100
0001
0100
0001
1000
0100
1000
0100
,
0010
0001
0010
0001
1000
0010
1000
0010
0100
0001
1000
0001
1000
0100
0010
0001
,
1000
0010
1000
0001
0100
0010
1000
0001
1000
0001
1000
0000
0001
0010
0100
1000
,
0001
0100
0001
1000
0100
0000
1000
0000
0001
0100
0001
0000
1000
0100
1000
0000
,
0001
0100
0001
0000
1000
0100
1000
0000
0001
0010
0001
0000
1000
0010
1000
0000
,
0001
0010
0001
0000
1000
0010
1000
0000
0001
0010
0100
1000
0001
0100
0001
1000
,
0001
0010
0100
1000
0001
0100
0001
1000
0002
0000
0023
0000
0230
0000
2300
0000
,
0000
0000
0000
0000
3010
0000
0100
0000
0001
0000
0000
0000
1000
0000
0000
0000
0002
0000
0000
0000
0200
0003
0000
0000
0020
0300
0000
0000
2000
0030
0000
0000
,
0200
3000
0000
0000
2000
0300
0000
0000
0002
3000
0000
0000
0020
0003
0000
0000
0002
0030
0000
0000
0200
0003
0000
0000
0020
0300
0000
0000
2000
0030
0000
0000
,
0002
3000
0000
0000
0020
0003
0000
0000
0002
0030
0000
0000
2000
0003
0000
0000
0020
3000
0000
0000
0200
0030
0000
0000
0020
0300
0000
0000
2000
0030
0000
0000
,
0002
3000
0000
0000
2000
0003
0000
0000
0200
3000
0000
0000
0010
0300
0001
0000
0010
0000
0000
0000
0001
0000
0000
0000
1000
0000
0000
0000
0010
0000
1000
0000
,
0010
0000
0100
0000
0001
0000
1000
0000
0001
0000
0010
0100
1000
0001
0100
0000
,
0010
1000
0100
1000
0001
0010
0001
2000
,
0000
0000
3001
0100
0010
1000
0001
1000
0001
0000
0010
0000
0100
0000
2000
0000
,
0000
3001
0100
0020
0030
0010
1000
0100
,
1000
0001
1000
0100
0020
0000
0000
0032
,
0000
0000
2003
0000
0000
3010
0100
0001
,
0010
0001
0100
0001
2000
0000
0100
0000
,
3100
0010
0001
0100
0010
1000
1000
0010
,
1000
1000
0002
0023
0230
2300
3020
0230
,
0300
0200
0302
0023
0230
2300
3002
2003
,
3020
2030
3200
2300
3020
0230
0302
0203
,
0320
0230
0302
0203
0320
2030
3200
0320
,
0032
0203
0320
2030
3200
0320
0032
0023
,
0230
0320
0032
2003
0000
3020
0230
0320
,
2030
3020
0230
0320
2030
0000
0000
0000
,
0000
0000
3002
0023
0000
0000
0000
0000
,
0000
0000
0000
0000
,
0000
0000
0000
0000
0000
0000
0000
0000
0031
0000
1000
0010
1000
0001
0010
0100
,
1000
0001
0100
0001
1000
0100
0010
0001
1000
0000
1MM1
0000
0000
0000
0000
0000
,
0000
0000
0000
0000
0101
0000
0000
1001
,
0000
1100
012M
0001
,
0001
0000
0000
0001
0000
0000
0031
0000
1000
0000
0010
0000
,
0100
0000
0001
0000
0011
0000
0000
0010
,
0100
0000
1000
0000
1010
0000
0000
0010
,
0100
0000
0000
0001
0000
0000
1000
0100
1000
0001
0100
0001
,
1000
0010
1000
0001
0010
0001
1000
0000
0000
1010
0000
0000
,
0011
0000
0000
0000
1100
0000
0000
0000
0001
1000
0001
0000
0010
0000
0100
0000
,
1000
0001
0101
0000
0100
0010
1010
0000
,
1000
0100
0010
0000
0011
0001
1000
1010
,
0010
0100
0001
1000
0100
0100
0010
0100
,
0100
0010
0001
1000
0040
0M0M
0000
0M0M
,
0000
0M0M
0000
000M
0230
0302
0023
0230
,
2300
3002
0203
0320
2030
0M0M
0000
0M0M
,
0000
0M0M
0000
000M
3100
0010
0001
1000
,
0001
1000
0010
0000
0100
0010
0010
0100
,
0010
0010
1000
0100
0010
0001
0001
0010
,
0001
0001
0100
0010
1000
0100
0100
1000
,
0100
0100
0010
0002
0003
2000
3200
0320
,
0032
0203
0320
2030
300M
2000
3200
0320
,
0032
0000
0203
0000
0320
0000
2030
0000
3002
0003
0010
0000
0001
0000
1000
0000
,
0010
0000
1000
0000
0001
0000
0100
0000
0001
0000
1000
0000
0200
0300
1000
0000
,
0002
0003
0100
0000
2000
3000
0100
0000
0002
0003
0100
0000
0001
0000
1000
0000
,
0100
0000
1000
0000
0001
0000
0010
0000
0001
0000
1000
0000
0020
0030
1000
0000
,
0002
0003
0010
0000
2000
3000
0010
0000
0002
0003
0100
0000
0001
0000
1000
0000
,
0010
0000
1000
0000
0001
0000
0100
0000
0002
0003
1000
0000
0100
0000
1000
0000
,
0002
0003
0100
0000
1000
0000
0100
0000
0002
0003
0010
0000
0001
0000
1000
0000
,
0100
1000
0001
0020
0032
2003
3020
2030
,
3002
0023
1030
0010
0002
0003
1000
0010
,
0200
0000
0301
0000
0010
0000
0100
1000
,
0000
1000
0010
0100
0001
0010
0001
0100
,
0020
0000
1030
0000
0100
0000
0010
0001
,
0000
1000
0010
0100
0001
1000
0001
0010
,
0200
0000
1300
0000
0010
0000
0100
0001
,
0000
0001
1000
0100
1000
0010
0100
0001
,
0020
0000
0000
0000
0130
0000
0000
0000
1000
0000
0001
0100
0001
0000
1000
0000
,
0001
0010
0100
1000
0001
0000
1000
0000
0001
0000
0010
0000
0001
0000
0010
0000
,
0100
0010
0100
1000
0100
1000
0001
1000
,
0001
0100
0010
1000
0010
0100
0010
1000
,
0100
0010
0100
1000
0001
1000
0001
1000
,
0010
1000
0010
0100
0010
0100
0001
0010
,
0100
1000
0001
0010
0001
1000
0010
1000
,
0001
0010
0100
0010
0001
1000
0010
0100
,
0010
1000
0100
1000
0001
0100
0001
0010
,
0100
1000
0001
1000
0001
0020
0100
0M31
,
0010
0100
1000
0200
0010
13M0
0100
0010
,
0001
0100
0010
1000
0001
0200
0010
03M1
,
0100
0010
1000
0020
0100
1M30
0010
0100
,
0001
0010
0001
1000
0200
0000
0000
0000
,
0000
0000
0320
0000
,
0032
0000
0000
0000
1003
0100
0100
0010
,
0001
0000
0010
0000
0100
0000
1000
0000
0001
0010
0001
0000
1000
0000
0010
1000
,
0010
0100
0010
1000
0001
0010
0001
0010
,
0100
1000
0100
1000
0001
0100
0001
0100
,
0010
1000
0100
1000
0001
0100
0001
0100
,
0010
1000
0010
1000
0001
0010
0001
0010
,
0100
1000
0010
1000
0001
1000
0001
1000
,
0010
1000
0010
1000
0100
1000
0100
1000
,
0010
1000
0100
1000
0001
0010
0001
0010
,
0001
0100
0001
0100
0001
1000
0001
1000
,
0010
0000
1000
0000
0001
0010
0100
1000
0001
0000
1000
0000
0010
0000
1000
0000
,
0100
1000
0001
1000
0010
0100
0001
0010
,
0001
0100
0010
1000
0001
0010
0001
1000
,
0010
1000
0001
0010
0001
1000
0010
0100
,
0010
0000
0100
0000
0001
0000
0010
0000
0200
0000
0000
0000
1300
0100
0010
0001
,
1000
0010
1000
0001
0100
0001
1000
0010
0100
0010
1000
0001
0010
0001
0010
0100
,
1000
0001
0010
0100
1000
0001
0100
0001
1000
0010
1000
0001
0010
0001
1000
0100
,
0020
0000
0032
0000
2003
0000
3020
0000
0130
0000
0001
0010
0001
0000
1000
0000
,
0010
0100
0010
0000
1000
0000
0001
0000
0020
0000
0000
0000
0100
0000
0000
0000
,
0130
1000
0001
0200
0000
0310
1000
0100
,
1000
0000
0010
0000
0100
0000
0001
0000
1000
0100
1000
0001
0010
0100
1000
0001
,
0100
0001
1000
0010
1000
0001
0100
0010
1000
0001
0100
0010
1000
0001
0010
0100
,
0010
0001
1000
0001
0100
0001
1000
0010
1000
0001
0010
0001
1000
0100
0010
0001
,
1000
0100
0010
0001
1000
0010
1000
0010
0100
0001
1000
0100
1000
0001
0010
0001
,
1000
0010
0100
0001
1000
0001
0010
0100
2000
0000
0000
0000
0010
0000
0000
0000
,
3010
0100
0001
0010
0200
1000
0000
1300
,
0000
0000
0100
1000
0020
0000
0000
0000
0000
0000
0000
0000
0000
0000
0000
0000
,
0100
0000
0000
0000
0130
0000
0001
0010
,
0110
0000
0100
1000
1001
0001
0000
0100
,
0110
0000
0010
0000
1010
0000
1000
0001
,
0011
0000
0010
0100
1100
0000
1000
0001
,
M1M1
0100
M22M
0000
,
M00M
0000
0000
0000
M00M
0330
0000
0000
;
