#TITLE:Revolutionary Etude;
#SUBTITLE:(in C Minor);
#ARTIST:Chopin;
#TITLETRANSLIT:;
#SUBTITLETRANSLIT:;
#ARTISTTRANSLIT:;
#CREDIT:;
#BANNER:revolutionary.png;
#BACKGROUND:revolutionary-bg.png;
#LYRICSPATH:;
#CDTITLE:!a0Title.png;
#MUSIC:revolutionary.mp3;
#OFFSET:1.622;
#SAMPLESTART:38.919;
#SAMPLELENGTH:12.000;
#SELECTABLE:YES;
#BPMS:0.000=148.000;
#STOPS:;
#BGCHANGES:;
// cache tags:
#FIRSTBEAT:39.250;
#LASTBEAT:395.000;
#SONGFILENAME:Songs/Essential Sim Collection/(Arch0wl) revolutionary etude/revolutionary.sm;
#HASMUSIC:1;
#HASBANNER:1;
#MUSICLENGTH:166.303;
// end cache tags

//---------------dance-single - ----------------
#NOTES:
     dance-single:
     :
     Hard:
     11:
     1.000,1.000,1.000,0.000,1.000,1353.000,247.000,0.000,0.000,0.000:  // measure 1
0000
0000
0000
0000
,  // measure 2
0000
0000
0000
0000
,  // measure 3
0000
0000
0000
0000
,  // measure 4
0000
0000
0000
0000
,  // measure 5
0000
0000
0000
0000
,  // measure 6
0000
0000
0000
0000
,  // measure 7
0000
0000
0000
0000
,  // measure 8
0000
0000
0000
0000
,  // measure 9
0000
0000
0000
0000
,  // measure 10
0000
0000
0000
0000
0000
0000
0000
0000
0000
0000
0000
0000
0000
1000
0100
0010
,  // measure 11
0001
1000
0100
0010
0100
0001
0100
0010
0100
1000
0100
0010
0100
0001
0100
0010
,  // measure 12
0100
0001
0010
0100
1000
0100
0010
0001
0010
0100
1000
0001
0010
0100
0010
0100
,  // measure 13
0010
0100
1000
0100
0010
0001
1000
0100
0010
0001
1000
0100
0010
0001
1000
0100
,  // measure 14
1000
0100
1000
0010
1000
0010
1000
0001
1000
0001
1000
0010
1000
0010
1000
0100
,  // measure 15
1000
0100
0001
0010
0001
0010
1000
0100
1000
0100
0001
0100
1000
0100
0001
0100
,  // measure 16
1000
0100
0001
0100
1000
0100
1000
0010
0001
0010
1000
0010
0001
0010
1000
0010
,  // measure 17
0001
0010
1000
0010
0001
1000
0100
0010
0100
0001
0010
0001
0100
0010
0100
0001
,  // measure 18
0010
0001
0100
0010
0100
1000
0010
1000
0100
0010
0100
1000
0010
1000
0100
0010
,  // measure 19
0001
0100
0010
1000
0100
0010
0001
0100
1000
0100
0010
0100
0001
0100
0010
0100
,  // measure 20
1000
0100
0010
0100
0001
0100
0001
0010
0100
0010
1000
0010
0100
0010
0001
0010
,  // measure 21
0100
0010
1000
0010
0100
0010
0001
1000
0100
0010
0001
1000
0100
0010
0001
1000
,  // measure 22
0100
0010
0001
1000
0100
0010
0001
0010
0100
1000
0001
0010
0100
1000
0001
0010
,  // measure 23
0100
1000
0100
0010
0001
1000
0100
0010
0001
0100
0010
1000
0100
0010
0001
0100
,  // measure 24
0010
1000
0100
0010
0001
0100
0010
1000
0100
0010
0001
0100
1000
0100
0010
0001
,  // measure 25
0100
0010
0001
0010
0001
0100
0001
1000
0010
0001
0010
0100
0010
1000
0100
1000
,  // measure 26
0100
0010
0100
0001
1000
0100
1000
0010
1000
0001
1000
0001
1000
0001
1000
0010
,  // measure 27
0100
0010
0100
0010
0100
1000
0001
1000
0010
0100
0010
1000
0001
1000
0010
0100
,  // measure 28
0010
1000
0100
1000
0001
0100
0001
0010
0100
0010
0100
1000
0100
0010
0001
0010
,  // measure 29
0100
1000
0100
0010
0001
0010
0100
1000
0100
0010
0001
0010
0100
1000
0100
0010
,  // measure 30
0001
0010
1000
0010
0001
1000
0100
0001
1000
0010
0001
1000
0100
0001
1000
0010
,  // measure 31
0001
1000
0100
0001
1000
0100
0001
1000
0010
0001
0100
1000
0001
0010
1000
0001
,  // measure 32
0100
1000
0001
0010
1000
0100
1000
0010
0100
0010
0001
1000
0001
0010
0100
0010
,  // measure 33
1000
0001
1000
0100
0010
0100
0010
0100
0010
0001
1000
0001
0010
0100
0010
1000
,  // measure 34
0001
1000
0100
0010
0100
0010
0100
0010
0001
1000
0001
0010
0100
0010
1000
0001
,  // measure 35
1000
0100
0010
0100
0001
0010
0100
1000
0100
0010
0001
0010
0100
1000
0100
0010
,  // measure 36
0001
0010
0100
1000
0100
0010
0001
1000
0100
0010
0001
1000
0100
0010
0001
1000
,  // measure 37
0100
0010
0001
1000
0100
0010
0001
0010
0100
1000
0001
0010
0100
1000
0001
0010
,  // measure 38
0100
1000
0001
0010
0100
1000
0001
0010
0100
1000
0100
1000
0010
1000
0010
1000
,  // measure 39
0001
1000
0001
1000
0001
0100
0001
0100
0010
0100
0010
0100
1000
0100
1000
0100
,  // measure 40
1000
0010
0001
0010
0001
0010
0001
0010
0100
0010
0100
0010
1000
0010
1000
0001
,  // measure 41
1000
0001
1000
0001
0100
0001
0100
0001
0010
0001
0010
0001
1000
0010
1000
0010
,  // measure 42
0101
1000
0010
1000
0010
0101
1000
0010
1000
0010
0101
1000
0010
1000
0010
0101
,  // measure 43
0010
0100
0010
1001
0010
0100
0010
1001
0010
0100
0010
1001
0010
0100
0010
1001
,  // measure 44
0100
0010
0100
0010
0100
1000
0100
0010
0001
1100
0001
0010
0100
1000
0011
1000
,  // measure 45
0100
0010
0001
1100
0001
0010
0100
1000
0011
1000
0100
1000
0100
0011
0100
0010
,  // measure 46
0100
0010
1100
0001
0010
0001
0010
1100
0010
0001
0010
0001
1100
0001
0010
0001
,  // measure 47
0010
1100
0010
0001
0010
0001
1100
0001
0010
0001
0010
1100
0010
0001
0010
0001
,  // measure 48
1100
0010
0010
0010
0010
0010
0100
0100
0100
0100
1000
1000
1000
1000
0001
0001
,  // measure 49
0001
0001
0100
1000
0100
0010
0100
0011
0100
1000
0100
0010
0100
0011
1000
0010
,  // measure 50
1000
0001
1000
0101
1000
0010
1000
0001
1000
0110
1000
0010
1000
0001
1000
0101
,  // measure 51
1000
0010
1000
0001
1000
0110
0001
1000
0001
0110
0001
1000
0001
0110
0001
1000
,  // measure 52
0001
0110
0001
1000
0001
0110
1000
0100
0010
0001
0110
1000
0100
0010
0001
0110
,  // measure 53
1000
0001
1000
0110
1000
0001
1000
0110
1000
0001
1000
0110
1000
0100
1000
0100
,  // measure 54
0011
1000
0100
1000
0100
1000
0010
1000
0100
1000
0000
0100
0000
1000
0000
0100
,  // measure 55
0000
1000
0110
0000
1000
0010
0100
0001
0010
0100
1001
0010
0100
0011
1000
0100
,  // measure 56
0011
1000
0100
0011
1000
0100
0011
1000
0100
0011
1000
0100
0011
0100
0010
1001
,  // measure 57
0010
0100
0011
0100
0010
1001
0100
0011
1000
0100
0011
1000
0100
0011
1000
0100
,  // measure 58
1000
0001
0100
0010
0001
0100
0001
1000
0100
0010
1000
0100
1000
0001
0100
0010
,  // measure 59
0001
0100
0001
1000
0100
0010
1000
0100
1000
0001
0100
0010
0001
0100
0001
1000
,  // measure 60
0100
0010
1000
0100
1000
0001
0100
0010
0001
0100
0001
1000
0100
0010
1000
0100
,  // measure 61
1000
0001
0100
0010
0001
0100
0001
1000
0100
0010
1000
0100
0010
1000
0100
0010
,  // measure 62
0001
0010
0100
0001
0010
0100
0001
0010
0100
1000
0100
0010
0001
0001
0010
0100
,  // measure 63
1000
1000
0100
0010
0001
0001
0010
0100
1000
1000
0100
0010
0001
0001
0010
0100
,  // measure 64
1000
1000
0100
0010
0100
0010
0001
0010
0001
1010
0100
0010
0100
0011
1000
0010
,  // measure 65
1000
0110
1000
0001
1000
0001
1000
0001
1001
0010
0100
0010
0100
0010
0110
1000
,  // measure 66
0100
0010
0001
0110
1000
0110
1000
0110
1000
0110
1000
0110
1000
0100
0011
1000
,  // measure 67
0011
1000
0011
1000
0011
1000
0011
1000
0010
0100
1000
0100
0010
0001
0100
0010
,  // measure 68
1001
0100
0010
0100
1001
0010
0100
0010
1001
0100
1010
0001
1010
0001
1010
0001
,  // measure 69
1010
0001
1010
0001
1010
0001
1100
0001
1100
0001
1100
0001
1100
0001
1100
0001
,  // measure 70
1100
0001
1100
1000
0110
0001
0110
1000
0110
0001
0110
1000
0110
0001
0110
1000
,  // measure 71
0110
1001
0100
1001
0100
1001
0100
1001
0100
1001
0010
1001
0010
1001
0010
1001
,  // measure 72
0010
1001
1000
0101
0010
0101
1000
0101
0010
0101
1000
0101
0010
1100
0001
1100
,  // measure 73
0010
1100
0001
1100
0010
1100
0001
1100
1100
1100
0110
0110
0110
0011
0011
0011
,  // measure 74
0110
0110
0110
1100
1100
1100
1001
1001
1001
0110
0110
0110
1001
1001
1001
0011
,  // measure 75
0011
0011
1100
1100
1100
0011
0011
0011
1100
1100
1100
0110
1100
0110
1100
0110
,  // measure 76
1100
0110
0101
0110
0101
0110
0101
0110
1100
0110
0101
0110
1100
0110
0101
0110
,  // measure 77
1100
1001
1010
1001
1100
0011
0110
1010
0110
0011
0110
1010
0110
0011
0011
1100
,  // measure 78
0011
1100
0011
1100
0011
1100
0010
0100
0100
1000
1000
0100
0100
0010
0010
0001
,  // measure 79
0001
0010
0010
0100
0100
1000
1000
0100
0010
0100
1000
0100
0001
0100
0010
0100
,  // measure 80
1000
0100
0001
0100
0010
0100
1000
0100
0001
0100
0010
0100
1000
0100
0011
0100
,  // measure 81
1100
0010
0100
0010
1100
0001
0010
0001
1100
0010
0100
0010
1100
0001
0010
0001
,  // measure 82
1100
0010
0100
0010
1100
0001
0010
0001
1100
1000
0100
0010
0001
0010
0100
1000
,  // measure 83
0100
0010
0001
0010
0100
1000
0100
0010
0001
1000
0100
0010
0001
1000
0100
0010
,  // measure 84
0001
1000
0100
0010
0001
0010
0100
1000
0001
0010
0100
1000
0001
0010
0100
1000
,  // measure 85
0100
0001
0100
1000
0100
0001
0100
1000
0100
0001
0100
1000
0100
0001
0100
1000
,  // measure 86
0100
0001
0100
1000
0100
0001
1001
0010
0100
0010
1001
0100
0010
0100
1001
0010
,  // measure 87
0100
0010
1001
0100
0010
0100
1001
0001
0010
1000
0100
1001
0001
0010
1000
0100
,  // measure 88
0001
0010
1000
0100
0001
0010
1000
0100
0001
0010
1000
0100
0001
0010
1000
0100
,  // measure 89
1010
0100
0011
0100
1001
0010
0101
1000
0110
0001
1100
0001
0010
0100
1000
0001
,  // measure 90
0010
0100
1000
0100
0010
0001
1000
0100
0010
0001
0010
0100
1000
0001
0010
0100
,  // measure 91
1000
0001
1010
0001
1000
0011
1000
0110
0001
1100
0001
0110
1000
0100
1000
0010
,  // measure 92
1000
0100
1000
0100
0001
0010
0001
0100
0001
1100
0001
1100
0010
1100
0010
1100
,  // measure 93
0001
0010
0101
1100
0011
1010
0110
1001
0011
0110
1010
0110
1001
0000
0000
0000
,  // measure 94
0000
0000
0000
0000
,  // measure 95
0000
0000
0000
0000
,  // measure 96
0000
0000
0000
0000
0000
1000
0010
1000
0011
0010
1001
0010
1001
1000
0110
1000
,  // measure 97
0011
1000
0110
0011
0110
0011
1010
0101
1100
0101
0110
1000
0011
1001
0110
0000
,  // measure 98
0000
0011
0000
0000
0000
0000
1100
0000
,  // measure 99
0000
0000
0000
0000
0000
0110
0000
0000
0000
0000
0000
0000
1001
0000
0000
0000
;
