#TITLE:Polar 240;
#SUBTITLE:;
#ARTIST:ParagonX9;
#TITLETRANSLIT:;
#SUBTITLETRANSLIT:;
#ARTISTTRANSLIT:;
#CREDIT:;
#BANNER:p240-bn.GIF;
#BACKGROUND:p240-bg.GIF;
#LYRICSPATH:;
#CDTITLE:;
#MUSIC:Polar 240.mp3;
#OFFSET:0.000;
#SAMPLESTART:4.000;
#SAMPLELENGTH:12.400;
#SELECTABLE:YES;
#BPMS:0.000=240.001;
#STOPS:;
#BGCHANGES:;
// cache tags:
#FIRSTBEAT:16.000;
#LASTBEAT:400.000;
#SONGFILENAME:Songs/toune/Polar 240/Polar 240.sm;
#HASMUSIC:1;
#HASBANNER:1;
#MUSICLENGTH:104.053;
// end cache tags

//---------------dance-single - ----------------
#NOTES:
     dance-single:
     :
     Hard:
     8:
     0.649,0.769,0.951,0.461,0.000,326.000,99.000,48.000,0.000,0.000:
0000
0000
0000
0000
,
0000
0000
0000
0000
,
0000
0000
0000
0000
,
0000
0000
0000
0000
,
1000
0000
0100
0001
0000
0001
0100
0000
,
0010
0100
0010
0220
,
0000
0000
0000
0330
,
1001
0000
0101
0000
,
0001
0000
0100
1000
0000
1000
0100
0000
,
0001
1000
0001
1000
,
2002
0000
0000
3003
,
0110
0000
1001
0000
,
1000
0000
0010
0001
0000
0001
0010
0000
,
1000
0100
1000
0100
,
2200
0000
0000
3300
,
0011
0000
1010
0000
,
1000
0000
0001
0100
0000
0100
0010
0000
,
1000
0100
1000
0100
,
0202
0000
0000
0303
,
1001
0000
1001
0000
,
0001
0000
1000
0010
0000
0010
1000
0000
,
1010
0000
0000
1000
0000
0000
0001
0000
,
1000
0000
0000
0010
0000
0000
0100
0010
,
0100
0000
0202
0303
,
0200
0000
0000
0302
0000
0000
0203
0000
,
2000
0300
0000
0002
3000
0000
0003
0001
,
0100
0000
0000
0202
0000
0000
0303
0010
,
0100
0000
0011
0000
,
1010
0000
0000
1100
0000
0000
1001
0000
,
0101
0000
0000
1001
0000
0000
0110
0000
,
1100
0000
0000
1001
0000
0000
0001
0010
,
0200
0300
1000
0000
,
0210
0000
0010
0000
,
0010
0000
0010
0000
,
0010
0000
0001
0000
,
0010
0000
1300
0000
,
0100
0000
0001
0100
0000
0100
0001
0000
,
1000
1000
0010
0100
,
0010
0100
0001
0100
,
0101
0000
1100
0000
,
1000
0000
0100
0010
0000
0010
0100
0000
,
0001
0010
0100
1000
,
0100
0010
0001
0010
,
0011
0000
1010
0000
,
1000
0000
0100
0010
0000
0100
0010
0000
,
0001
0010
0100
0010
,
0001
0100
1000
0100
,
1100
0000
0101
0000
,
0001
0000
1000
0100
0000
0100
0001
0000
,
0001
0100
0010
1000
,
0100
0010
0001
1000
,
1001
0000
0220
0000
,
0330
1100
1100
2200
,
3300
0101
0101
0202
,
0303
1001
0011
1001
,
1100
0000
1010
0000
1000
0002
0000
0003
,
0000
0101
1100
0202
,
0303
0011
1010
0022
,
0033
1100
0110
1100
,
0110
0000
0101
0000
0100
0002
0000
0003
,
0000
1001
1001
2002
,
3003
0110
0110
0220
,
0330
1001
0110
1001
,
0110
0000
1001
0000
0001
0020
0000
0030
,
0000
1000
0100
0202
,
0303
1000
0010
0022
,
0033
1100
0110
0011
,
1001
0000
1100
0000
1000
0002
0000
0003
,
0000
0000
1000
0100
1000
0000
0010
0000
,
0100
0000
0010
0001
0010
0000
1000
0000
,
0100
0000
0010
0100
0010
0000
0001
0000
,
1000
0000
0010
1000
0010
1000
0010
1000
,
0010
0000
0100
0010
0100
0000
0001
0000
,
0010
0000
0100
0001
0100
0000
0001
0000
,
0010
0000
1000
0001
1000
0000
0100
0000
,
0001
0000
0010
0100
0010
0100
0010
0100
,
0010
0000
0001
0100
0001
0000
1000
0000
,
0100
0000
0100
1000
0100
0000
1000
0000
,
0001
0000
0010
1000
0010
0000
1000
0000
,
0001
0000
0100
0001
0100
0001
0100
0001
,
0100
0000
1000
0100
1000
0000
0010
0000
,
0100
0000
0010
0001
0010
0000
0001
0000
,
0100
0000
0010
1000
0010
0000
0100
0000
,
0001
0101
1100
0101
,
1100
0000
0000
1100
0000
0000
0101
0000
,
1001
0000
0000
1010
0000
0000
0110
0000
,
1001
0000
0000
1010
0000
0000
0100
0010
,
2000
0000
0200
3300
,
0011
0000
0000
1010
0000
0000
1100
0000
,
0110
0000
0000
0011
0000
0000
1000
0010
,
0001
0000
0000
0101
0000
0000
0001
0100
,
1000
0000
2200
3300
,
0110
0000
0000
1001
0000
0000
1100
0000
,
0011
0000
0000
1001
0000
0000
1010
0000
,
0101
0000
0000
0110
0000
0000
0001
0010
,
0200
0000
2000
0300
,
0020
0000
0000
0000
,
0000
0000
0000
0000
,
0000
0000
0000
0000
,
0000
0000
0000
0000
,
3030
0000
0000
0000
;

//---------------dance-single - ----------------
#NOTES:
     dance-single:
     :
     Beginner:
     2:
     0.136,0.192,0.000,0.019,0.000,97.000,0.000,2.000,0.000,0.000:
0000
0000
0000
0000
,
0000
0000
0000
0000
,
0000
0000
0000
0000
,
0000
0000
0000
0000
,
1000
0000
0000
0000
,
0000
0000
0001
0000
,
0000
0000
0000
0000
,
0010
0000
0010
0000
,
0010
0000
0000
0000
,
0000
0000
0100
0000
,
0000
0000
0000
0000
,
0001
0000
0001
0000
,
0001
0000
0000
0000
,
0000
0000
0000
0100
,
0000
0000
0000
0000
,
0010
0000
0010
0000
,
0010
0000
0000
0000
,
0000
0000
0000
1000
,
0000
0000
0000
0000
,
0100
0000
0100
0000
,
0100
0000
0000
0000
,
0010
0000
0000
0000
,
0100
0000
0000
0000
,
0001
0000
0001
0000
,
0001
0000
0000
0000
,
0100
0000
0000
0000
,
0010
0000
0000
0000
,
1000
0000
1000
0000
,
1000
0000
0000
0000
,
0100
0000
0000
0000
,
0010
0000
0000
0000
,
0001
0000
0001
0000
,
0002
0000
0000
0000
,
0000
0000
0000
0000
,
0000
0000
0000
0000
,
0003
0000
0000
0000
,
0100
0000
0000
0000
,
0000
0000
0000
0010
,
0000
0000
0000
0000
,
0100
0000
0100
0000
,
0100
0000
0000
0000
,
0000
0000
0000
0010
,
0000
0000
0000
0000
,
1000
0000
1000
0000
,
1000
0000
0000
0000
,
0000
0000
0000
0100
,
0000
0000
0000
0000
,
0010
0000
0010
0000
,
0010
0000
0000
0000
,
0000
0000
0000
1000
,
0000
0000
0000
0000
,
0001
0000
0001
0000
,
0001
0000
0000
0000
,
0000
0100
0000
0000
,
0000
0010
0000
0010
,
0000
0010
0000
0000
,
0000
0100
0000
0000
,
0000
0001
0000
0000
,
0000
1000
0000
1000
,
0000
1000
0000
0000
,
0000
0100
0000
0000
,
0000
0010
0000
0000
,
0000
0100
0000
0100
,
0000
0100
0000
0000
,
0000
0001
0000
0000
,
0000
0100
0000
0000
,
0000
0010
0000
0010
,
0000
0010
0000
0000
,
0000
0100
0000
0000
,
0000
0010
0000
0000
,
0000
0100
0000
0000
,
0000
0010
0000
0000
,
0000
1000
0000
0000
,
0000
0001
0000
0000
,
0000
1000
0000
0000
,
0000
0001
0000
0000
,
0000
0100
0000
0000
,
0000
0001
0000
0000
,
0000
0100
0000
0000
,
0000
0001
0000
0000
,
0000
0010
0000
0000
,
0000
0001
0000
0000
,
0000
0010
0000
0000
,
0000
0001
0000
0000
,
0100
0000
0000
0000
,
0100
0000
0000
0000
,
0010
0000
0000
0000
,
0010
0000
0000
0000
,
0100
0000
0000
0000
,
0100
0000
0000
0000
,
1000
0000
0000
0000
,
1000
0000
0000
0000
,
0001
0000
0000
0000
,
0001
0000
0000
0000
,
0100
0000
0000
0000
,
0100
0000
0000
0000
,
0020
0000
0000
0000
,
0000
0000
0000
0000
,
0000
0000
0000
0000
,
0000
0000
0000
0000
,
0030
0000
0000
0000
;

//---------------dance-single - ----------------
#NOTES:
     dance-single:
     :
     Easy:
     4:
     0.265,0.336,0.010,0.029,0.000,189.000,1.000,3.000,0.000,0.000:
0000
0000
0000
0000
,
0000
0000
0000
0000
,
0000
0000
0000
0000
,
0000
0000
0000
0000
,
0100
0001
0100
0001
,
0000
0000
1000
0100
,
0000
0000
0000
0000
,
0010
0000
1000
0000
,
0100
0001
0100
0001
,
0000
0000
0010
0001
,
0000
0000
0000
0000
,
0010
0000
0100
0000
,
0001
0100
0001
0100
,
0000
0000
1000
0100
,
0000
0000
0000
0000
,
0010
0000
1000
0000
,
0010
1000
0010
1000
,
0000
0000
0100
0010
,
0000
0000
0000
0000
,
0100
0000
0001
0000
,
1000
0000
0000
0000
,
0100
0000
0000
0000
,
0010
0000
0000
0001
,
0010
0000
0100
0000
,
1000
0000
1000
0000
,
0100
0000
0100
0000
,
0010
0000
0010
0000
,
0001
0000
0001
0000
,
0001
0000
0010
0000
,
0100
0000
1000
0000
,
0100
0000
0010
0000
,
0001
0010
0100
0000
,
2000
0000
0000
0000
,
0000
0000
0000
0000
,
0000
0000
0000
0000
,
0000
0000
0000
0000
,
3001
0010
0001
0010
,
0000
0000
0100
1000
,
0000
0000
0000
0000
,
1000
0000
0100
0000
,
0010
0001
0010
0001
,
0000
0000
0100
1000
,
0000
0000
0000
0000
,
0010
0000
1000
0000
,
0001
0010
0100
1000
,
0000
0000
1000
0001
,
0000
0000
0000
0000
,
0001
0000
0100
0000
,
1000
0010
0100
0001
,
0000
0000
1000
0001
,
0000
0000
0000
0000
,
0001
0000
0010
0000
,
1000
0001
1000
0001
,
0000
1000
0001
1000
,
0000
0001
1000
0001
,
1000
0000
0100
0000
,
0000
0010
0100
0010
,
0000
0100
0010
0100
,
0000
0010
0100
0010
,
0100
0000
0001
0000
,
0000
1000
0100
1000
,
0000
0100
1000
0100
,
0000
1000
0100
1000
,
0100
0000
0010
0000
,
0000
0001
0100
0001
,
0000
0100
0001
0100
,
0000
0001
0100
0001
,
0100
0000
0010
0000
,
0000
1000
0000
0100
,
0000
0010
0000
0001
,
0000
0010
0000
0100
,
0000
1000
0100
0010
,
0001
0000
0100
0000
,
1000
0000
0100
0000
,
0010
0000
0001
0000
,
0100
0001
0010
0100
,
1000
0000
0100
0000
,
0010
0000
0001
0000
,
0100
0000
1000
0000
,
0010
0100
0001
0100
,
0001
0000
0010
0000
,
0100
0000
0010
0000
,
1000
0000
0010
0000
,
0001
0000
0100
0000
,
1000
0000
0000
0000
,
0100
0000
0000
0000
,
0010
0000
0000
0001
,
0010
0000
0100
0000
,
1000
0000
0000
0000
,
0100
0000
0000
0000
,
0001
0000
0000
0010
,
0100
0000
0010
0000
,
0100
0000
0000
0000
,
0010
0000
0000
0000
,
0100
0000
0000
0000
,
0001
0010
0100
0000
,
2002
0000
0000
0000
,
0000
0000
0000
0000
,
0000
0000
0000
0000
,
0000
0000
0000
0000
,
3003
0000
0000
0000
;

//---------------dance-single - ----------------
#NOTES:
     dance-single:
     :
     Medium:
     6:
     0.357,0.432,0.173,0.038,0.000,238.000,18.000,4.000,0.000,0.000:
0000
0000
0000
0000
,
0000
0000
0000
0000
,
0000
0000
0000
0000
,
0000
0000
0000
0000
,
0100
0010
0100
0010
,
0000
0000
1000
0100
,
0010
0000
0001
0000
,
0010
0000
0100
0000
,
1000
0100
0001
0100
,
0000
0000
1000
0100
,
0001
0000
0100
0000
,
1000
0000
0001
0000
,
1000
0010
0100
0001
,
0000
0000
0001
0010
,
0100
0000
1000
0000
,
0010
0000
0100
0000
,
0001
0100
0010
1000
,
0000
0000
0100
0010
,
0100
0000
1001
0000
,
1100
0000
1100
0000
,
1100
0000
0000
1000
0000
0000
0100
0000
,
0100
0000
0000
0010
0000
0000
0001
0000
,
0001
0000
0000
1000
0000
0000
0100
0000
,
0100
0000
0010
0000
,
0100
0000
0000
0001
0000
0000
1000
0000
,
1000
0000
0000
0100
0000
0000
0010
0000
,
0001
0000
0010
0000
,
0100
1000
0100
0000
,
0010
0000
0000
1000
0000
0000
0010
0000
,
0100
0000
0000
0001
0000
0000
0010
0000
,
0100
0000
0000
1000
0000
0000
0000
0000
,
0100
0001
0100
0000
,
2002
0000
0000
0000
,
0000
0000
0000
0000
,
0000
0000
0000
0000
,
0003
0000
0000
0000
,
3001
0010
0001
0010
,
0001
0000
0010
0100
,
1000
0000
0100
0000
,
0010
0000
0110
0000
,
0100
0001
0100
1000
,
0100
0000
0100
0010
,
0001
0000
0100
0000
,
1100
0000
0001
0000
,
0001
0010
0100
1000
,
0001
0000
0100
0010
,
0100
0000
0001
0000
,
1100
0000
0101
0000
,
0100
0001
0010
0100
,
1000
0000
0010
0100
,
0001
0000
0010
0000
,
0100
0000
1100
0000
,
1001
1000
0001
1000
,
0000
0100
0010
0100
,
0000
0001
0010
0100
,
1000
0100
0010
0001
,
0000
0010
0100
0010
,
0000
1000
0100
1000
,
0000
0001
0100
0001
,
0010
0100
1000
0000
,
0000
1000
0010
1010
,
0000
0010
0100
0110
,
0000
0001
0100
0010
,
1000
0100
0010
0000
,
0000
0001
0010
0100
,
0000
1000
0010
0100
,
0000
0001
0010
0100
,
0010
0000
0100
0000
0010
0001
0000
0000
,
0000
1000
0000
0010
,
0000
0100
0000
0010
,
0000
0001
0000
1000
,
0000
0010
0100
0010
,
0100
0010
0000
0001
,
0000
0100
0000
1000
,
0000
0100
0000
0010
,
0000
0001
0010
0100
,
1000
0001
0000
0100
,
0000
0010
0000
0001
,
0000
0010
0000
0100
,
0000
1000
0010
0001
,
0010
1000
0000
0100
,
0000
0001
0000
0010
,
0000
1000
0000
0100
,
0000
0001
0100
0001
,
1000
0000
0000
0100
0000
0000
0010
0000
,
0010
0000
0000
0001
0000
0000
0010
0000
,
0100
0000
0000
0001
0000
0000
0000
0000
,
1001
0000
1100
0000
,
0010
0000
0000
0100
0000
0000
0010
0000
,
0001
0000
0000
1000
0000
0000
0000
0000
,
0100
0000
0010
0000
,
1000
0000
0001
0000
,
0100
0000
0000
0001
0000
0000
0010
0000
,
0100
0000
0000
1000
0000
0000
0001
0000
,
0010
0000
0000
1000
0000
0000
0000
0000
,
0101
0000
0011
0000
,
2002
0000
0000
0000
,
0000
0000
0000
0000
,
0000
0000
0000
0000
,
0000
0000
0000
0000
,
3003
0000
0000
0000
;
