#TITLE:CHRISTMAS TREE SONG;
#SUBTITLE:(FAST FOOD SONG 2003 FESTIVE VERSION);
#ARTIST:Fast Food Rockers;
#TITLETRANSLIT:;
#SUBTITLETRANSLIT:;
#ARTISTTRANSLIT:;
#CREDIT:;
#BANNER:CHRISTMAS TREE SONG (FAST FOOD SONG 2003 FESTIVE VERSION).png;
#BACKGROUND:CHRISTMAS TREE SONG (FAST FOOD SONG 2003 FESTIVE VERSION)-bg.png;
#LYRICSPATH:CHRISTMAS TREE SONG (FAST FOOD SONG 2003 FESTIVE VERSION) lyrics.lrc;
#CDTITLE:Christmas Mix.png;
#MUSIC:CHRISTMAS TREE SONG (FAST FOOD SONG 2003 FESTIVE VERSION).mp3;
#OFFSET:-6.650;
#SAMPLESTART:65.160;
#SAMPLELENGTH:22.000;
#SELECTABLE:YES;
#BPMS:0.000=129.980;
#STOPS:;
#BGCHANGES:16.000=-random-=1.000=0=0=1,
189.000=CHRISTMAS TREE SONG (FAST FOOD SONG 2003 FESTIVE VERSION)-bg.png=1.000=0=0=1,
99999=-nosongbg-=1.000=0=0=0 // don't automatically add -songbackground-
;
// cache tags:
#FIRSTBEAT:0.000;
#LASTBEAT:191.000;
#SONGFILENAME:Songs/DDRExtreme.co.uk presents ChristmasMix/CHRISTMAS TREE SONG (FAST FOOD SONG 2003 FESTIVE VERSION)/CHRISTMAS TREE SONG (FAST FOOD SONG 2003 FESTIVE VERSION).sm;
#HASMUSIC:1;
#HASBANNER:1;
#MUSICLENGTH:101.572;
// end cache tags

//---------------dance-single - ----------------
#NOTES:
     dance-single:
     :
     Easy:
     3:
     0.235,0.235,0.276,0.177,0.000,121.000,28.000,18.000,0.000,0.000:
2000
3000
0002
0003
,
1000
0001
1000
0000
,
0200
0300
0020
0030
,
0100
0010
0100
0000
,
1001
0000
1001
0000
,
0010
0100
1001
0000
,
1001
0000
1001
0000
,
0010
0100
1001
0000
,
2000
3000
0002
0003
,
0100
0001
1001
0000
,
0002
0003
2000
3000
,
0010
1000
1001
0000
,
0100
0000
0010
0000
,
1000
1000
0001
0000
,
0010
0000
0100
0000
,
0001
0001
1000
0000
,
1000
0000
0001
0000
,
0100
0100
0010
0000
,
0001
0000
1000
0000
,
0010
0010
0100
0000
,
0100
0000
1001
0000
,
0010
0010
1000
0000
,
0010
0000
1001
0000
,
0100
0100
0001
0000
,
0100
0000
1000
0000
,
0100
0010
0100
0000
,
0010
0000
0001
0000
,
0010
0100
0010
0000
,
1001
0000
0100
0000
,
1000
1000
0001
0001
,
2000
0000
3002
0000
,
0103
0000
0010
0000
,
1001
0000
1001
0000
,
0010
0100
1001
0000
,
1001
0000
1001
0000
,
0100
0010
1001
0000
,
0002
0003
2000
3000
,
0001
0100
1001
0000
,
2000
3000
0002
0003
,
1000
0100
1001
0000
,
1001
0000
1001
0000
,
0010
0100
1001
0000
,
1001
0000
1001
0000
,
0010
0100
1001
0000
,
2000
3000
0002
0003
,
0100
0001
1001
0000
,
0002
0003
2000
3000
,
0010
1000
1001
1001
;

//---------------dance-single - Copied from----------------
#NOTES:
     dance-single:
     Copied from:
     Hard:
     7:
     0.519,0.470,0.118,0.492,0.098,307.000,12.000,50.000,0.000,0.000:
1001
0010
0100
0000
1010
0100
0010
0000
,
0001
0010
0100
1000
0100
0010
1001
0000
,
1001
0100
0010
0000
0101
0010
0100
0000
,
1000
0100
0010
0001
0010
0100
1001
0000
,
0020
0032
1003
0000
0200
2300
3001
0000
,
0010
0001
0010
0100
1000
0100
0011
0000
,
0200
2300
3001
0000
0020
0032
1003
0000
,
0100
1000
0100
0010
0001
0010
1100
0001
,
0020
0000
0130
1000
0200
0000
0310
1000
,
0100
0010
1000
0100
0010
0001
0100
1000
,
0200
0000
0310
0001
0020
0000
0130
0001
,
0010
0100
0001
0010
0100
1000
0010
0100
,
0010
0000
0000
1000
0000
0000
0100
0000
0001
0000
0000
0010
0000
0000
0100
0000
,
1000
0000
0100
0000
0010
0000
0001
0000
0010
0000
0000
0100
0000
0000
0100
0000
,
0010
0000
0000
1000
0000
0000
0100
0000
0001
0000
0000
0010
0000
0000
0100
0000
,
1000
0100
0010
0001
0010
0000
0000
0010
,
0100
0000
0000
0001
0000
0000
0010
0000
1000
0000
0000
0100
0000
0000
0010
0000
,
0001
0000
0010
0000
0100
0000
1000
0000
0100
0000
0000
0010
0000
0000
0100
0000
,
0010
0000
0000
1000
0000
0000
0100
0000
0001
0000
0000
0010
0000
0000
0100
0000
,
1000
0100
0010
0001
0010
1000
1000
0100
,
0001
0000
0000
0010
0000
0000
1000
0000
0100
0000
0000
0001
0000
0000
1000
0000
,
0010
0000
1000
0000
0001
0000
0100
0000
0001
0000
0000
1000
0000
0000
0001
0000
,
1000
0000
0000
0100
0000
0000
0001
0000
0010
0000
0000
1000
0000
0000
0001
0000
,
0100
0001
1000
0010
1000
0000
0000
0001
,
0010
0000
0000
0100
0000
0000
0001
0000
1000
0000
0000
0010
0000
0000
0001
0000
,
0100
0000
0001
0000
0010
0000
1000
0000
0010
0000
0000
0001
0000
0000
0001
0000
,
0010
0000
0000
0100
0000
0000
0001
0000
1000
0000
0000
0010
0000
0000
0001
0000
,
0100
0001
0010
1000
0010
0000
1000
0000
,
2000
3002
0203
0320
,
2030
3002
0203
0320
,
2030
3002
0203
0320
,
2030
3100
0002
0013
,
0200
2300
3001
0000
0020
0032
1003
0000
,
0100
1000
0100
0010
0001
0010
1100
0000
,
0020
0032
1003
0000
0200
2300
3001
0000
,
0010
0001
0010
0100
1000
0100
0011
1000
,
0200
0000
0310
0001
0020
0000
0130
0001
,
0010
0100
0001
0010
0100
1000
0010
0001
,
0020
0000
0130
1000
0200
0000
0310
1000
,
0100
0010
1000
0100
0010
0001
0100
0000
,
0020
2030
3001
0000
0002
0203
1300
0000
,
0010
1000
0010
0001
0100
0001
1010
0000
,
0002
0203
0310
0000
0020
2030
3100
0000
,
0001
0100
0001
0010
1000
0010
0101
1000
,
0020
0000
0031
0100
0002
0000
0013
0100
,
0001
0010
0100
0001
0010
1000
0001
0100
,
2000
0000
3100
0001
0200
0000
1300
0001
,
0100
1000
0001
0100
1000
0010
0100
0000
;

//---------------dance-single - Copied from----------------
#NOTES:
     dance-single:
     Copied from:
     Beginner:
     2:
     0.190,0.212,0.266,0.000,0.000,108.000,27.000,0.000,0.000,0.000:
1000
0000
0001
0000
,
1000
1000
1000
0000
,
0100
0000
0010
0000
,
0010
0010
0010
0000
,
1001
0000
1001
0000
,
0010
0000
1001
0000
,
1001
0000
1001
0000
,
0100
0000
1001
0000
,
1000
0000
0001
0000
,
0010
0000
1001
0000
,
1000
0000
0001
0000
,
0100
0000
1001
0000
,
0100
0000
0010
0000
,
1000
1000
1000
0000
,
0010
0000
0100
0000
,
0001
0001
0001
0000
,
1000
0000
0001
0000
,
0100
0100
0100
0000
,
0001
0000
1000
0000
,
0010
0010
0010
0000
,
0100
0000
1001
0000
,
0010
0010
0010
0000
,
0010
0000
1001
0000
,
0100
0100
0100
0000
,
0100
0000
1000
0000
,
0001
0001
0001
0000
,
0010
0000
0001
0000
,
1000
1000
1000
0000
,
1001
0000
0100
0000
,
0001
0000
1000
1000
,
0000
0001
0000
0100
,
0000
0000
0010
0000
,
1001
0000
1001
0000
,
0010
0000
1001
0000
,
1001
0000
1001
0000
,
0100
0000
1001
0000
,
0001
0000
1000
0000
,
0100
0100
0100
0000
,
1000
0000
0001
0000
,
1000
0000
1001
0000
,
1001
0000
1001
0000
,
0010
0000
1001
0000
,
1001
0000
1001
0000
,
0100
0000
1001
0000
,
1000
0000
0001
0000
,
0100
0000
1001
0000
,
1000
0000
0001
0000
,
0100
0000
1001
1001
;

//---------------dance-single - Copied from----------------
#NOTES:
     dance-single:
     Copied from:
     Medium:
     5:
     0.315,0.306,0.039,0.236,0.000,196.000,4.000,24.000,0.000,0.000:
2000
3100
0002
0013
,
1001
0000
0001
0000
1000
0100
0010
0000
,
0200
1300
0020
0031
,
0100
0000
0010
0000
0100
0010
0001
0000
,
1000
0100
1000
0000
0001
0010
0001
0000
,
0010
0000
0100
0000
1000
0100
1000
0000
,
0001
0010
0001
0000
1000
0100
1000
0000
,
0010
0000
0100
0000
0001
0010
0001
0000
,
2000
3100
0002
0013
,
0100
0000
0001
0000
1000
0100
1000
0000
,
0002
0013
2000
3100
,
0010
0000
1000
0000
0001
0010
0001
0000
,
0200
0000
0320
0000
,
1030
1000
0001
0000
,
0010
0000
0100
0000
,
0001
0000
0001
0100
1000
0000
0000
0000
,
2000
0000
3002
0000
,
0103
0100
0010
0000
,
0001
0000
1000
0000
,
0010
0000
0010
0001
0100
0000
0000
0000
,
0100
0000
1001
0000
,
0010
0100
0010
0100
1000
0000
0000
0000
,
0010
0000
1001
0000
,
0100
0010
0100
0010
0001
0000
0000
0000
,
0100
0000
1000
0000
,
0100
0010
0100
0000
,
0010
0000
0001
0000
,
0010
0100
0010
0000
,
2000
0001
0010
3100
,
0002
1000
0100
0013
,
2000
0000
3002
0000
,
0103
0000
0010
0000
,
1000
0100
1000
0000
0001
0010
0001
0000
,
0010
0000
0100
0000
0001
0010
0001
0000
,
0001
0010
0001
0000
1000
0100
1000
0000
,
0100
0000
0010
0000
1000
0100
1000
0000
,
0002
0013
2000
3100
,
0001
0000
0100
0000
0001
0010
0001
0000
,
2000
3100
0002
0013
,
1000
0000
0100
0000
1000
0100
1000
0000
,
0010
0100
0010
0000
0100
0010
0100
0000
,
0010
0000
0100
0000
0010
0100
0010
0000
,
0010
0100
0010
0000
0100
0010
0100
0000
,
0010
0000
0100
0000
0100
0010
0100
0000
,
2000
3100
0002
0013
,
0100
0000
0001
0000
0001
0100
1000
0000
,
0002
0013
2000
3100
,
0010
0000
0100
0000
1000
0010
1001
0000
;
