#TITLE:Power of The Dragonflame;
#SUBTITLE:Power of the Dragonflame (2002);
#ARTIST:Rhapsody;
#TITLETRANSLIT:;
#SUBTITLETRANSLIT:;
#ARTISTTRANSLIT:;
#CREDIT:SulferDragon;
#BANNER:Power of the Dragonflame-banner.png;
#BACKGROUND:Power of the Dragonflame-bg.png;
#LYRICSPATH:;
#CDTITLE:!SulferDragon.png;
#MUSIC:Power of The Dragonflame.mp3;
#OFFSET:-0.286;
#SAMPLESTART:68.600;
#SAMPLELENGTH:11.540;
#SELECTABLE:YES;
#BPMS:0.000=190.000;
#STOPS:;
#BGCHANGES:;
// cache tags:
#FIRSTBEAT:1.000;
#LASTBEAT:824.000;
#SONGFILENAME:Songs/Astronomic Metal Collection/Power of the Dragonflame (SulferDragon)/Power of the Dragonflame.sm;
#HASMUSIC:1;
#HASBANNER:1;
#MUSICLENGTH:267.003;
// end cache tags

//---------------dance-single - ----------------
#NOTES:
     dance-single:
     :
     Hard:
     13:
     1.000,1.000,1.000,0.345,1.000,2056.000,424.000,92.000,0.000,33.000:
0000
0000
0000
0000
1001
0010
0100
1000
0100
0000
0010
0100
0001
0010
0001
0000
,
0010
0100
0001
1000
0001
0000
0100
0010
1000
0001
1000
0000
0010
0100
0001
0100
,
0010
1000
0001
1000
0011
0100
0001
0100
0010
0000
1000
0001
0100
0010
0100
0000
,
0001
1000
0010
1000
0100
0000
0010
0001
0100
0001
1000
0000
1010
0001
0010
0100
,
1010
0100
0010
0001
1010
0001
0100
0010
0100
0000
0001
1000
0010
1000
0001
0000
,
0100
0001
1000
0001
0100
0000
0010
0100
0001
0100
0010
0000
0001
1000
0100
1000
,
0010
0100
0001
0100
0022
0000
0000
0000
0000
0000
1133
0000
0000
0000
1000
0000
,
0100
0010
2002
0000
0000
3113
0000
0010
,
0100
0010
0100
0010
1001
0100
0010
0001
0010
0000
0100
0010
1000
0100
1000
0000
,
0100
0010
1000
0001
1000
0000
0010
0100
0001
1000
0001
0000
0100
0010
1000
0010
,
0100
0001
1000
0001
1100
0010
1000
0010
0100
0000
0001
1000
0010
0100
0010
0000
,
1000
0001
0100
0001
0010
0000
0100
1000
0010
1000
0001
0000
0101
1000
0100
0010
,
0101
0010
0100
1000
0101
1000
0010
0100
0010
0000
1000
0001
0100
0001
1000
0000
,
0010
1000
0001
1000
0010
0000
0100
0010
1000
0010
0100
0000
1000
0001
0010
0001
,
0100
0010
1000
0010
2200
0000
0000
0000
0000
0000
3311
0000
0000
0000
0001
0000
,
0010
0100
2020
0000
0000
3131
0000
0001
,
0010
0100
2001
0000
0000
0000
0000
0000
,
0000
0000
0000
0000
3110
0001
0010
0001
0110
1000
0100
1000
0110
0001
0010
0100
,
1000
0100
0010
0001
0110
0000
1000
0000
0101
0000
0010
0000
1100
0000
0010
0000
,
1001
0100
1010
0001
0110
1000
0101
1000
,
0011
0100
1010
0001
1100
0010
1001
0100
,
0011
0100
1010
0001
0110
1000
0120
0000
,
0231
0300
1010
0001
0110
1000
0110
0001
,
1100
0010
0101
0010
1100
0001
1100
0010
,
0101
0010
0220
0000
0000
1331
0000
0001
,
1000
0000
0100
0000
0022
0000
0000
0000
0000
0000
1133
0000
0000
0000
0001
1000
,
0001
0100
0001
0010
1001
0000
0100
0000
1010
0000
0001
0000
0110
0000
0001
0000
,
1100
0010
1001
0100
0011
1000
0110
1000
,
0101
0010
1001
0100
0011
0100
1001
0010
,
1100
0001
0110
1000
0101
0010
1002
0000
,
1203
0300
0011
0100
1010
0001
1010
0100
,
1001
0010
0101
1000
0110
0001
0110
1000
,
0101
0010
0100
0001
0220
0000
0000
0000
0000
0000
1331
0000
0000
0000
1000
0000
,
0100
0000
0010
0000
0202
0000
0000
0000
0000
0000
1313
0000
0000
0000
0001
0100
,
0001
1000
0001
0010
2002
0000
0000
0000
0000
0000
0000
0000
0000
0000
0000
0000
,
0000
0000
3213
0000
0010
0020
0000
0000
,
0000
0000
0000
0000
0000
0000
0000
0000
0000
0000
0000
0000
0331
0100
0001
1000
,
0010
0100
0010
1000
0110
0001
1000
0010
1000
0010
0100
0010
1000
0100
0010
0001
,
0100
0001
1000
0100
1000
0010
0100
0001
1000
0010
1000
0100
0010
0001
0010
0100
,
1000
0010
0100
0010
1000
0010
0100
0001
0010
0001
0100
0001
0010
0100
1000
0010
,
0100
0001
1000
0001
0010
0100
1000
0010
0100
0010
1000
0001
0100
0001
0010
0100
,
1000
0010
0100
0010
1100
0001
0100
0010
0100
0001
0100
0010
1000
0100
0010
0001
,
1000
0001
0010
0100
1000
0100
0010
0001
1000
0001
0100
0001
0010
0100
1000
0010
,
0100
0001
0100
0010
0201
0000
0000
0000
0000
0000
0310
0000
0110
0000
0000
0000
,
1100
0000
0000
0000
0101
0000
0000
0000
1000
0100
0010
0001
0100
0010
1000
0100
,
0010
0001
0100
0010
1001
0000
0000
0000
0110
0000
0000
0000
1001
0010
1000
0001
,
1000
0100
0010
0001
0100
0010
0100
0001
0010
0001
0100
0010
1000
0001
1000
0010
,
0100
0010
1000
0100
0010
0001
0100
0001
0010
0001
0100
0010
1000
0001
0010
0001
,
0100
0010
0100
0001
0010
0100
1000
0001
1000
0010
1000
0100
0010
0001
0100
0010
,
0100
0001
1000
0100
0010
0001
0010
0100
1000
0010
0100
0010
1100
0001
1000
0010
,
0100
0001
0100
0010
0100
0001
1000
0100
0010
0001
0010
0100
1000
0010
0100
0010
,
1000
0001
0100
0001
0010
0100
1000
0010
0100
0010
1000
0010
2001
0000
0000
0000
,
0000
3001
0101
0000
0110
0000
1001
0000
,
0001
0100
0010
1000
0100
0010
0001
0100
0010
1000
0100
0010
1001
0000
0000
0000
,
1001
0110
1100
0001
1100
0110
0011
1000
,
0101
1100
0101
0010
1100
0101
0011
0100
,
1010
0001
0110
1000
0100
0011
0100
0010
,
1100
0000
0010
0000
0101
0000
1000
0000
0010
0000
0100
0000
1001
0010
0100
1000
,
0100
0010
0001
0010
1001
0000
0100
0000
0011
0000
1000
0000
0110
0000
1000
0000
,
0011
1010
1100
0010
0101
1100
1010
0100
,
0010
0101
1001
0100
1010
0001
1100
0010
,
0101
0000
1100
0000
2001
0000
0010
0000
0100
0010
0100
0000
0001
0000
0010
0000
,
3100
0001
0100
0000
0010
0000
1000
0000
0010
0100
0010
1000
0001
0010
0100
1000
,
0100
0010
0001
0100
1001
0010
1000
0001
0010
0001
0100
0010
0100
0001
0010
0100
,
1000
0010
0100
0010
1000
0001
1000
0100
0010
0001
0100
0010
0100
0001
0100
0010
,
1000
0100
0010
0001
0010
0100
1000
0010
0100
0010
1000
0001
0010
0001
0100
0010
,
1000
0100
1000
0001
1000
0010
0100
0001
1000
0010
1000
0100
0010
0001
0010
0100
,
1000
0010
0100
0010
0101
1000
0001
0100
0010
1000
0010
0100
0010
1000
0001
0010
,
0100
1000
0100
0010
0001
0100
0001
0010
0100
0010
0001
0100
0010
1000
0001
0100
,
0010
1000
0010
0100
2010
0000
0000
0000
0000
0000
3001
0000
1001
0000
0000
0000
,
0011
0000
0000
0000
1010
0000
0000
0000
1000
0100
0010
0001
1000
0010
0100
0001
,
0010
0100
1000
0010
1001
0000
0000
0000
0101
0000
0000
0000
0110
0001
0100
0010
,
0100
0001
0010
0100
1000
0010
0100
0010
1000
0100
1000
0001
0010
0100
1000
0100
,
0010
0001
0100
0010
0100
0001
1000
0001
0100
0010
1000
0001
0100
0010
0100
0001
,
0100
0010
1000
0100
1000
0010
0100
0010
1000
0001
0010
0100
1000
0010
1000
0001
,
1000
0100
0010
0001
0100
0010
0100
0001
0010
0001
0100
0010
1100
0001
1000
0010
,
1000
0100
0010
0001
0100
0010
0100
0001
1000
0010
0100
0010
1000
0010
0100
0001
,
0100
0010
0100
0001
0100
0010
1000
0001
0010
0100
0010
0001
1020
0000
0000
0000
,
0000
0130
0101
0000
1100
0000
1001
0000
,
0001
0100
0010
1000
0001
0010
0100
1000
0001
0100
0010
1000
0110
0000
0000
0000
,
1001
0110
1100
0001
1100
0110
0011
1000
,
0101
1100
0101
0010
1100
0101
0011
0100
,
1010
0001
0110
1000
0100
0011
0100
0010
,
1100
0010
0101
1000
0010
0100
2001
0010
,
3110
0000
0001
0000
1001
0000
0100
0000
0011
0100
0001
0000
0110
0000
1000
0000
,
0011
0000
1010
0000
1100
0000
0010
0000
0101
0010
1100
0000
1010
0000
0100
0000
,
0001
0010
0101
0000
1001
0000
0100
0000
1010
0001
1000
0000
1100
0000
0010
0000
,
0101
0010
1100
0000
2001
0000
0010
0000
0100
0010
0100
0000
0001
0000
0010
0000
,
3100
0001
0100
0000
0010
0000
1000
0000
0010
0100
0010
0000
1000
0000
0001
0100
,
0001
1000
0001
0100
1001
0010
1000
0100
0010
0001
0100
0010
0100
0001
0010
0001
,
1000
0010
1000
0100
0010
0001
0100
0001
1000
0001
0100
0010
1000
0001
1000
0001
,
0100
0010
1000
0001
1010
0100
0010
1000
0001
0010
0001
0100
0001
0010
0100
1000
,
0010
0100
0010
1000
0010
1000
0100
0010
0001
0100
0001
1000
0100
1000
0010
0100
,
0010
1000
0001
0010
1001
0000
1000
0000
1000
0000
1000
0000
1000
0000
1000
0000
,
1010
0100
0101
0010
0100
0010
0101
1000
,
0001
1000
0011
0010
0010
0010
0010
0010
,
1001
0100
1100
0010
0100
0010
1100
0001
,
0110
0000
1000
0000
0011
0100
0010
1000
0100
0010
0001
0100
0001
1000
0001
0010
,
0100
1000
0010
0100
0010
1000
0100
1000
0001
0100
0001
0010
0100
1000
0010
0100
,
0010
1000
0010
0100
0011
1000
0001
0010
0100
1000
0010
0100
0010
1000
0100
1000
,
0001
0100
0001
0010
0001
0100
0010
1000
0100
0010
0001
1000
0001
0100
0010
1000
,
0100
1000
0001
1000
0202
0000
0000
0000
0000
0000
0000
0000
0000
0000
0000
0000
,
0000
0303
2200
0000
0000
0000
0000
0000
,
0000
3300
2020
0000
0000
0000
0000
0000
,
0000
0000
3030
0000
2002
0000
0000
0000
0000
0000
0000
0000
3013
0100
0010
0100
,
0010
0100
0010
0000
1001
0000
0100
0000
1010
0000
0100
0000
0011
0000
1000
0000
,
0101
0010
1100
0001
0110
1000
0011
0100
,
1001
0100
1010
0001
0110
1000
0101
0010
,
1100
0001
0110
1000
0011
1000
0201
0000
,
1320
0030
1001
0100
0011
1000
0101
0010
,
1100
0010
1001
0100
1010
0001
0110
1000
,
0101
0010
0220
0000
1331
0011
0000
0110
,
1001
0101
2200
0000
3311
1010
0000
0110
,
1001
1010
0110
0001
1100
0010
1001
0100
,
0011
0100
1010
0001
0110
1000
0101
0010
,
1001
0100
0011
1000
0110
0001
1100
0010
,
1001
0010
0101
1000
0110
0001
2100
0000
,
3012
0003
1100
0010
0101
1000
0011
0100
,
1001
0000
0010
0000
0101
0000
0010
0000
1001
0000
0100
0000
1010
0001
0010
0100
,
1000
0001
1000
0001
1020
0000
0000
0000
0100
0000
0131
0000
0000
0000
0011
0000
,
0110
0000
1010
0000
0012
0000
0000
0000
0100
0000
1103
0000
0000
0000
1000
0001
,
1000
0010
1000
0100
2002
0000
0000
0000
0000
0000
0000
0000
0000
0000
0000
0000
,
0000
0000
0000
0000
,
3013
2001
0000
0010
,
3100
0000
0012
0010
0100
0010
1000
0000
,
0103
0201
0000
0010
,
1300
2002
0000
0000
,
3103
0000
1020
0000
0100
0100
0001
0000
,
0130
0000
2001
0000
0010
0010
0100
0000
,
3001
0100
0012
0000
0100
0000
1000
0000
,
0013
0000
1000
0000
0120
0000
0000
0000
0000
0000
0000
0000
0130
0001
0100
0001
,
1000
0010
1000
0010
1001
0000
0100
0000
1010
0000
0001
0000
0110
0000
1000
0000
,
0101
0010
1100
0001
1010
0110
0101
0010
,
1100
0010
1001
0100
1010
0100
0011
1000
,
0110
0001
1100
0010
0101
1000
0011
0100
,
1001
0010
1100
0001
0110
1010
0011
1000
,
0110
0001
1010
0100
1001
1100
0011
0100
,
1001
0110
1010
0100
0011
1000
0110
0001
,
1010
0011
1001
0010
0101
0010
1100
0010
,
1001
0000
0100
0000
0001
0100
0010
1000
0001
0010
0100
1000
0001
0100
0010
1000
,
0010
1000
0010
1000
0110
0000
0000
0000
1000
0100
0010
0001
0010
0000
0000
0000
,
0001
0100
0010
1000
0011
0000
0000
0000
0001
0010
0100
1000
0100
0000
0000
0000
,
1000
0010
0100
0001
1100
0000
0000
0000
0100
0010
0001
1000
0001
0000
0000
0000
,
0110
0000
1000
0000
0010
0000
0100
0000
0001
0000
0000
0000
0010
0100
1000
0000
0011
0000
0100
0000
0010
0000
1000
0000
0001
0000
0000
0000
0000
0000
0010
0001
,
1100
0000
0010
0000
0100
0000
0010
0000
0100
0000
0001
0010
0100
0000
0001
0000
1100
0000
0010
0000
1000
0000
0001
0000
0100
0000
0000
0000
0000
0000
0000
0000
,
0000
0000
0000
0000
0001
0010
0100
1000
0101
0000
0000
0000
1001
0010
0100
0001
,
0100
0000
0001
0000
0101
0010
1000
0001
1000
0000
0000
0000
1010
0100
0001
1000
,
0001
0000
0100
0000
0110
1000
0001
0100
0001
0000
0000
0000
0101
0010
1000
0100
,
1010
0000
0000
0000
1010
0000
0000
0000
0011
0000
0100
0000
0010
0000
1000
0000
0101
0000
0010
0100
1000
0000
0000
0000
0001
0000
0010
0000
0100
0000
1000
0000
,
0011
0000
0000
0000
0000
0000
0100
0010
0001
0000
0100
0000
0010
0000
1000
0000
0110
0000
0001
0100
0010
0000
0001
0000
0010
0000
0000
0000
0100
0000
0000
0000
,
1010
0000
0000
0000
0000
0000
0001
0000
0010
0000
0100
0000
1000
0000
0000
0000
0000
0000
0000
0000
0000
0000
0000
0000
0011
0000
0000
0000
0000
0000
1000
0000
0100
0000
0010
0000
0001
0000
0000
1000
0000
0000
0001
0000
0000
1000
0000
0000
,
0010
0100
0010
0100
1001
0000
1000
0000
1100
0000
0100
0000
0101
0000
0001
0000
,
0011
0100
0110
0010
1010
1000
1001
0001
,
0101
0100
2001
0000
0001
0000
3120
0000
,
2130
3102
1000
0213
,
0001
0000
1310
0010
0110
0100
0101
0001
,
1001
0100
1100
1000
1010
0010
0011
0001
,
0101
0100
2001
0000
0001
0000
3210
0000
,
0312
0000
0000
0000
2013
0000
0000
0000
0100
0000
0000
0000
3001
0000
0100
0001
,
1000
0100
1000
0100
1001
0010
1000
0100
0010
0001
0100
0010
1000
0001
0010
0100
,
1000
0001
0100
0010
0101
1000
0010
0100
1010
0001
1000
0010
1001
0000
0100
0000
,
1001
0100
1010
0000
0101
0000
0010
0000
1100
0010
0101
0000
0011
0000
1000
0000
,
0101
0010
1100
0000
0110
0000
0001
0000
1100
0010
1000
0000
0101
0000
1000
0000
,
0001
0010
1001
0000
0100
0000
0001
0000
1010
0100
1000
0000
0011
0000
0100
0000
,
0010
0100
1000
0000
0210
0000
0010
0000
0301
0010
0100
0000
1001
0000
0010
0000
,
0101
1000
0001
0000
1100
0000
0010
0000
0101
0010
1100
0000
1001
0000
0010
0000
,
0101
1000
0011
0000
1001
0000
0010
0000
0100
1000
0110
0000
0101
0000
0010
0000
,
1100
0001
1000
0000
0110
0000
1000
0000
0011
0100
1010
0000
2001
0000
0100
0000
,
0010
0100
0010
0000
0001
0000
0100
0000
3010
0001
0010
0000
1001
0000
0100
0000
,
0001
1000
0001
0000
0100
0010
1000
0100
0010
0001
0100
0010
1001
0100
0001
0100
,
0010
0100
0001
0010
0100
1000
0010
0100
0010
1000
0100
1000
0010
0100
0001
1000
,
0001
1000
0010
0100
0001
0100
0001
0010
0100
1000
0001
1000
0101
0010
0100
0010
,
1000
0100
0010
0100
1000
0100
0010
0001
0100
0010
1000
0100
1000
0100
0010
0001
,
0100
0010
0100
0001
0010
0100
1000
0100
0010
0001
0100
0010
1100
0000
1000
0000
,
1000
1000
1000
1000
1001
0100
0110
0001
,
0010
0001
1010
0100
0010
0100
0011
0010
,
0010
0010
0010
0010
1100
0001
1001
0010
,
1000
0000
0010
0000
1001
0000
0100
0000
0011
0000
1000
0000
0101
0010
0100
0001
,
0010
0100
1000
0100
0010
0001
0100
0010
0100
0001
0100
0010
1000
0100
1000
0100
,
0010
0001
0010
0001
0100
0010
1000
0001
1000
0100
1000
0010
1001
0100
0001
0010
,
0100
1000
0010
0100
0001
1000
0010
1000
0001
0100
0001
0010
0001
0100
0010
1000
,
0100
0010
0001
0100
0001
0010
0100
1000
0010
1000
0001
1000
0202
0000
0000
0000
,
0000
0000
0000
0000
0000
0303
2200
0000
,
0000
0000
0000
0000
0000
3300
2020
0000
,
0000
0000
0000
0000
0000
3030
2002
0000
,
0000
0000
0000
0000
3103
0010
0100
0010
0100
0010
0100
0010
1001
0100
0001
0010
,
0100
0010
0100
1000
0010
0100
0010
1000
0010
0100
0001
1000
0001
0010
0100
1000
,
0010
0100
0001
1000
0001
1000
0010
0100
0001
0010
0001
0010
0101
1000
0100
1000
,
0010
0100
0001
0010
0001
1000
0001
0100
0010
1000
0001
0100
0010
0100
0001
0010
,
0100
1000
0010
0100
0010
1000
0001
0100
0001
1000
0010
0100
0011
0000
0001
0000
,
0001
0001
0001
0001
0101
0010
1010
0100
,
0010
0100
0011
1000
0010
1000
0011
0010
,
0010
0000
0010
0000
0010
0000
0010
0000
1100
0000
0001
0000
1001
0010
1000
0010
,
1000
0100
0010
0001
1000
0100
1000
0100
0010
0001
0010
0001
0110
1000
0010
0100
,
0001
0010
0001
0010
0100
1000
0010
1000
0010
0100
0001
1000
0001
0100
0001
0010
,
0100
1000
0001
1000
0001
0100
0010
1000
0100
0010
0100
1000
0101
0010
0100
0010
,
1000
0100
0010
0001
0010
0100
1000
0010
0100
0001
0100
0010
1000
0010
0100
0001
,
0010
0100
1000
0010
1000
0001
0010
0100
1000
0001
0100
0001
0220
0000
0000
0000
,
0000
0000
0000
0000
0000
0330
2002
0000
,
0000
0000
0000
0000
0000
3003
0202
0000
,
0000
0000
0000
0000
0000
0303
2200
0000
,
0000
0000
0000
0000
0000
0000
3301
0100
0001
0100
0001
0100
2001
0000
0000
0000
,
0010
0100
0010
0100
,
0010
0100
0010
3002
,
0100
0010
0100
0010
,
0100
0000
0000
0000
0013
0000
1000
0010
0100
0010
0100
0001
0220
0000
0000
0000
,
0330
0000
0000
0000
;
