#TITLE:Kurukuru Ki Ki;
#SUBTITLE:;
#ARTIST:Berserk+Haste;
#TITLETRANSLIT:;
#SUBTITLETRANSLIT:;
#ARTISTTRANSLIT:;
#CREDIT:;
#BANNER:Kurukuru Ki Ki-bn.png;
#BACKGROUND:Kurukuru Ki Ki-bg.png;
#LYRICSPATH:;
#CDTITLE:;
#MUSIC:Kurukuru Ki Ki.ogg;
#OFFSET:-4.953;
#SAMPLESTART:112.960;
#SAMPLELENGTH:12.000;
#SELECTABLE:YES;
#DISPLAYBPM:100.000:200.000;
#BPMS:0.000=200.000,360.000=100.000,469.000=200.000,720.000=400.000,721.000=200.000,722.000=400.000,723.000=200.000,725.000=400.000,726.000=200.000,729.000=400.000,730.000=200.000;
#STOPS:460.000=4.200
,685.000=1.800
,720.000=0.150
,722.000=0.038
,722.250=0.038
,722.500=0.037
,722.750=0.037
,725.000=0.025
,725.167=0.025
,725.333=0.025
,725.500=0.025
,725.667=0.025
,725.833=0.025
,729.000=0.037
,729.250=0.038
,729.500=0.037
,729.750=0.038
;
#BGCHANGES:;
// cache tags:
#FIRSTBEAT:0.000;
#LASTBEAT:991.000;
#SONGFILENAME:Songs/SSSC Pack 2/Kurukuru Ki Ki - [Kytsune]/Kurukuru Ki Ki.sm;
#HASMUSIC:1;
#HASBANNER:1;
#MUSICLENGTH:349.922;
// end cache tags

//---------------dance-single - Blank----------------
#NOTES:
     dance-single:
     Blank:
     Challenge:
     16:
     1.000,1.000,0.111,0.029,1.000,3176.000,39.000,10.000,35.000,0.000:
1000
0001
0000
1000
0001
0000
0100
0000
0001
1000
0000
0001
1000
0000
0100
0000
,
0010
0001
0010
0001
1000
0001
1000
0001
1000
0010
1000
0010
0100
0001
0100
0001
,
1000
0100
1000
0100
0010
0100
0010
0100
0010
0001
0010
0001
1000
0001
1000
0001
,
1000
0100
1000
0100
0010
0001
0010
0001
1000
0010
1000
0010
0100
0001
0100
0001
,
1000
0001
1000
0001
0010
0100
0010
0100
1000
0100
1000
0100
0010
0001
0010
0001
,
1000
0010
1000
0010
0100
0001
0100
0001
1000
0001
1000
0001
1000
0100
1000
0100
,
0010
0001
0010
0001
0100
0001
0100
0001
1000
0010
1000
0010
1000
0001
1000
0001
,
0100
0001
0100
0001
1000
0100
1000
0100
0010
0001
0010
0001
1000
0001
1000
0001
,
1000
0100
1000
0100
0010
0001
0010
0001
0000
0000
0100
0010
0000
0000
0010
0100
,
0001
0010
0001
0010
0100
1000
0100
1000
0001
0100
0001
0100
0010
1000
0010
1000
,
0001
1000
0001
1000
0001
0010
0001
0010
0100
0010
0100
0010
0100
1000
0100
1000
,
0001
1000
0001
1000
0010
0100
0010
0100
0001
0100
0001
0100
0010
1000
0010
1000
,
0001
1000
0001
1000
0001
0010
0001
0010
0100
1000
0100
1000
0001
0100
0001
0100
,
0010
1000
0010
1000
0001
1000
0001
1000
0100
0010
0100
0010
0001
0010
0001
0010
,
0100
1000
0100
1000
0001
0100
0001
0100
0010
1000
0010
1000
0100
1000
0100
1000
,
0001
0010
0001
0010
0100
1000
0100
1000
0001
0100
0001
0100
0010
1000
0010
1000
,
0001
0001
0001
0001
0000
0000
1000
0000
,
1000
0100
0010
0001
1000
0100
0010
0001
1000
0100
0010
0001
1000
0100
0010
0001
,
1000
0010
0100
0001
1000
0010
0100
0001
1000
0010
0100
0001
1000
0010
0100
0001
,
1000
0100
0010
0001
1000
0100
0010
0001
1000
0010
0100
0001
1000
0010
0100
0001
,
1000
0100
0010
0001
1000
0100
0010
0001
1000
0010
0100
0001
1000
0010
0100
0001
,
1000
0100
0010
0001
1000
0010
0100
0001
1000
0100
0010
0001
1000
0010
0100
0001
,
1000
0100
0010
0001
1000
0010
0100
0001
1000
0100
0010
0001
1000
0010
0100
0001
,
1000
0100
0010
0001
1000
0010
0100
0001
1000
0100
0010
0001
1000
0010
0100
0001
,
1000
0100
0010
0001
1000
0010
0100
0001
1000
0100
0010
0001
1000
0010
0100
0001
,
1000
0100
0010
0100
1000
0000
0001
0100
,
0010
1000
0001
1000
0100
0000
0010
0001
1000
0001
0100
0001
1000
0000
0100
1000
,
0001
1000
0010
1000
0100
0000
0010
0001
1000
0001
0100
0001
1000
0000
0001
0010
,
0001
0100
0001
1000
0001
0000
1000
0010
1000
0001
1000
0100
1000
0000
0010
1000
,
0001
1000
0100
1000
0001
0000
1000
0001
0010
0001
1000
0001
0100
0000
0001
1000
,
0001
0100
0001
1000
0001
0000
1000
0100
1000
0001
1000
0010
1000
0000
0100
1000
,
0001
1000
0010
1000
0001
0000
0010
0001
0100
0001
1000
0001
1000
0000
0001
0100
,
0001
0010
0001
1000
0001
0000
1000
0100
1000
0010
1000
0001
1000
0000
0000
0000
,
0001
1000
0001
1000
0001
1000
0001
0000
,
1000
0100
0010
0100
1000
0000
0001
0100
0001
0100
0010
0100
0001
0000
1000
0001
,
1000
0001
0010
0001
1000
0000
0001
1000
0001
1000
0100
1000
0001
0000
1000
0010
,
1000
0010
0100
0010
1000
0000
0010
0100
0010
0100
0001
0100
0010
0000
1000
0001
,
1000
0001
0010
0001
1000
0000
0100
1000
0100
1000
0001
1000
0010
0000
0100
0001
,
0100
0001
1000
0001
0010
0000
0100
1000
0100
1000
0001
1000
0010
0000
1000
0001
,
1000
0001
0010
0001
1000
0000
0100
1000
0100
1000
0001
1000
0010
0000
0000
0000
,
1000
0001
1000
0001
1000
0001
1000
0001
,
1000
0000
0100
0000
0010
0000
0001
0000
0010
0001
0000
1000
0001
0000
0100
0000
,
0010
1000
0010
1000
0010
0000
0100
0001
0100
0001
0100
0001
0100
0000
0001
0010
,
0001
0010
0001
0010
0001
0000
1000
0100
1000
0100
1000
0100
1000
0000
0010
1000
,
0010
1000
0010
1000
0010
0000
1000
0001
1000
0001
1000
0001
1000
0000
0001
0100
,
0001
0100
0001
0100
0001
0000
1000
0100
1000
0100
1000
0100
1000
0000
0001
1000
,
0001
1000
0001
1000
0001
0000
0100
0010
0100
0010
0100
0010
0100
0000
0010
1000
,
0010
1000
0010
1000
0010
0000
0100
0001
0100
0001
0100
0001
0100
0000
0001
1000
,
0001
1000
0001
1000
0001
0000
0010
0001
0010
0001
0010
0001
0010
0000
0000
0000
,
0001
0010
0100
1000
0001
0010
0100
0000
,
1000
0100
1000
0100
1000
0000
0001
1000
0001
1000
0001
1000
0001
0000
0100
0001
,
0100
0001
0100
0001
0100
0000
0010
1000
0010
1000
0010
1000
0010
0000
1000
0001
,
1000
0001
1000
0001
1000
0000
0001
0010
0001
0010
0001
0010
0001
0000
1000
0100
,
1000
0100
1000
0100
1000
0000
0010
1000
0010
1000
0010
1000
0010
0000
1000
0001
,
1000
0001
1000
0001
1000
0000
0010
0100
0010
0100
0010
0100
0010
0000
0100
0001
,
0100
0001
0100
0001
0100
0000
0001
0010
0001
0010
0001
0010
0001
0000
0000
0000
,
1000
0100
0010
0001
1000
0100
0010
0001
,
0100
0010
0100
0010
0100
0000
0010
1000
,
0100
0000
0010
0001
0010
0000
0100
1000
0100
0000
1000
0001
1000
0000
0001
0100
,
0001
0000
1000
0010
1000
0000
0001
1000
0001
0000
0010
0001
0010
0000
0100
1000
,
0100
0000
1000
0001
1000
0000
0001
0100
0001
0000
0100
0010
0100
0000
0010
1000
,
0010
0000
1000
0001
1000
0000
0100
1000
0100
0000
0010
0001
0010
0000
0001
1000
,
0001
0000
0100
0001
0100
0000
0001
1000
0001
0000
1000
0010
1000
0000
0001
0100
,
0001
0000
1000
0100
1000
0000
0001
0010
0001
0000
0100
0010
0100
0000
0010
1000
,
0010
0000
1000
0001
1000
0000
0001
0010
0001
0000
1000
0100
1000
0000
0001
0100
,
0001
0000
1000
0001
1000
0000
0010
0100
0010
0000
0000
0000
1000
0000
0000
0000
,
0001
0010
0001
0010
0000
0000
0001
0000
0100
0010
0100
0010
0000
0000
0100
0000
,
0010
1000
0010
1000
0000
0000
0010
0000
1000
0001
1000
0001
0000
0000
1000
0000
,
0001
0010
0001
0010
0000
0000
0001
0000
1000
0001
1000
0001
0000
0000
1000
0000
,
0001
0100
0001
0100
0000
0000
0001
0000
1000
0010
1000
0010
0000
0000
1000
0000
,
0001
0010
0001
0010
0000
0000
0001
0000
1000
0001
1000
0001
0000
0000
1000
0000
,
0001
1000
0001
1000
0000
0000
0001
0000
1000
0010
1000
0010
0000
0000
1000
0000
,
0001
0100
0001
0100
0000
0000
0001
0000
0010
0001
0010
0001
0000
0000
0010
0000
,
0100
1000
0000
0100
1000
0000
0010
0000
0100
0001
0000
0100
0001
1000
0001
1000
,
0001
0100
0010
1000
0001
0100
0001
0000
1000
0100
0010
0001
0010
0100
1000
0000
,
0001
1000
0001
1000
0010
1000
0001
0000
0100
0001
1000
0001
0100
0010
1000
0000
,
0001
0010
0001
0010
0100
1000
0100
0000
1000
0001
1000
0001
0100
0010
1000
0000
,
0001
0100
0001
1000
0001
0010
0100
0000
1000
0100
0010
0001
0010
0001
1000
0000
,
0001
1000
0010
0100
0001
1000
0010
0000
0100
0001
1000
0100
0010
0001
0010
0000
,
0100
1000
0100
0010
0001
1000
0001
0000
1000
0001
0100
0001
1000
0010
1000
0000
,
0100
0010
0000
0001
1000
0000
0010
0000
,
0100
0001
1000
0100
0000
0010
0001
0000
,
1000
0100
1000
0001
1000
0010
1000
0001
0100
0001
1000
0001
0010
0001
1000
0001
,
0100
0010
0100
0010
1000
0010
1000
0001
1000
0100
0010
0001
0010
0100
1000
0100
,
1000
0001
1000
0010
1000
0001
0100
0001
1000
0010
0100
0001
1000
0001
1000
0100
,
0010
0001
0010
0100
1000
0001
0100
0001
1000
0010
0100
0001
0100
0010
1000
0001
,
1000
0100
1000
0100
0010
0001
1000
0001
0100
0001
0100
0010
1000
0010
0100
0001
,
0010
0001
1000
0100
0010
0001
0010
0100
1000
0001
0100
0001
1000
0010
0100
0001
,
1000
0010
0100
0001
0010
0100
1000
0010
0100
0001
0010
0100
1000
0010
0100
0001
,
1000
0100
0010
0001
0100
0010
1000
0100
0010
0001
0100
0010
1000
0000
0000
0000
,
1001
0000
0000
0000
,
0001
0010
0000
0001
0100
0010
1000
0100
0010
0000
0100
1000
0000
0100
1000
0001
,
1000
0100
0010
0001
0100
0000
0000
0010
0100
0001
1000
0100
0010
0001
0000
1000
,
0100
1000
0010
0000
0100
0001
0010
0001
0100
0010
0000
0100
0001
1000
0000
0100
,
0000
0000
0010
0000
0100
0100
0000
1000
0001
0000
0100
0001
0000
0100
0000
0010
,
1000
0100
1000
0001
0010
0000
0001
0100
0001
1000
0010
1000
0100
0010
0000
0100
,
1000
0001
0100
0000
0010
0100
0001
1000
0100
0010
0001
1000
0010
0100
0001
0100
,
0010
1000
0100
0000
1000
0001
0100
0001
0010
0000
0100
1000
0000
0100
0010
0000
,
0001
1000
0001
0100
0010
0000
0100
0001
0100
0010
1000
0100
0010
0001
0000
0100
,
0010
1000
0001
0100
0001
1000
0100
0010
0100
1000
0010
0100
0000
0001
1000
0000
,
0100
0010
0100
1000
0001
0100
0001
1000
0010
1000
0001
0010
0001
0100
0000
0010
,
1000
0001
0010
0001
0100
0010
0000
0100
0001
1000
0100
0010
0000
0100
1000
0000
,
0001
0100
0001
1000
0100
0010
0000
0100
1000
0000
0001
0100
0000
0010
0100
0001
,
1000
0010
0100
0001
1000
0001
0010
0100
1000
0100
0010
0001
0000
0001
0100
0000
,
0001
0100
0010
1000
0100
1000
0010
0100
0001
1000
0100
0010
0000
0010
0001
0000
,
0100
0001
1000
0100
1000
0010
0100
0001
1000
0100
0010
0100
0000
0100
1000
0000
,
0001
0100
0010
1000
0100
1000
0010
0100
0001
1000
0100
0010
0000
0010
0001
0000
,
1000
0100
1000
0001
0100
0001
1000
0000
0001
0010
0001
1000
0001
1000
0010
0000
0100
0001
0100
0010
1000
0010
0100
0000
0001
0100
0001
1000
0100
1000
0001
0000
,
1000
0100
0010
0001
0010
0100
1000
0000
0001
0100
0001
1000
0100
1000
0010
0000
1000
0001
0100
0001
0100
0010
1000
0000
0001
0100
0001
1000
0100
0010
0001
0000
,
1000
0001
0100
0010
1000
0010
0100
0000
0001
1000
0001
0010
0100
0010
0001
0000
0100
0001
1000
0010
1000
0100
0010
0000
0100
1000
0100
0010
0001
1000
0001
0000
,
0100
0001
0100
0010
1000
0010
0100
0000
0001
1000
0100
1000
0001
0010
0001
0000
0100
0010
1000
0010
0100
0001
1000
0000
0100
0010
0100
1000
0100
0010
0001
0000
,
1000
0100
1000
0100
0010
0001
0010
0001
1000
0001
1000
0001
0100
0001
0100
0001
1000
0010
1000
0010
0100
0001
0100
0001
1000
0100
1000
0100
0010
0100
0010
0100
,
1000
0001
1000
0001
0100
0010
0100
0010
1000
0010
1000
0010
0100
0001
0100
0001
1000
0100
1000
0100
0010
0001
0010
0001
1000
0001
1000
0001
0100
0001
0100
0001
,
0100
0010
0100
0010
1000
0010
1000
0010
1000
0001
1000
0001
1000
0100
1000
0100
0010
0001
0010
0001
0100
0010
0100
0010
1000
0001
1000
0001
0100
0001
0100
0001
,
1000
0010
0100
0001
1000
0010
0100
0001
1000
0100
0010
0001
1000
0100
0010
0001
1000
0001
0100
0001
1000
0100
1000
0010
1000
0001
0010
0001
0100
0001
1000
0100
,
0020
0000
0030
0000
0100
1000
0100
0010
0001
0100
0001
1000
0100
1000
0000
0010
,
0100
0000
0001
0000
0000
0000
0100
0000
0001
0000
1000
0000
0100
0010
0100
0010
0001
1000
0001
1000
0010
0100
0001
1000
0100
0010
0001
0010
0100
1000
0001
1000
,
0001
0100
0010
1000
0001
0010
0100
1000
0001
0000
0100
0000
0010
0000
0000
0000
0010
0000
1000
0000
0100
0000
0000
0000
0100
0000
0010
0000
0001
0000
0000
0000
,
0001
1000
0010
0000
1000
0001
0100
0000
0100
0010
1000
0000
1000
0100
0010
0000
,
0010
0001
1000
0000
0001
0100
0010
0000
0010
0100
0001
0000
0001
1000
0100
0000
,
0100
0010
0001
0000
1000
0001
0100
0000
0100
0010
1000
0000
1000
0001
0010
0000
,
0010
0100
1000
0000
0100
0010
0001
0000
0001
0100
0010
0000
0010
1000
0001
0000
,
0001
0100
0010
0000
0100
0001
1000
0000
1000
0100
0010
0000
0010
0100
1000
0000
,
1000
0001
0100
0000
0010
1000
0001
0000
0010
0001
1000
0000
0010
0001
1000
0000
,
0010
1000
0001
0000
1000
0000
1000
0000
0001
0000
0001
0000
1000
0000
0001
0000
,
1000
0000
0000
0000
0001
0100
0010
0000
1000
0100
0010
0000
0001
0100
0010
0000
,
1000
0100
0010
0000
0001
1000
0010
0000
0100
0001
1000
0000
0100
0010
0001
0000
,
1000
0010
0100
0000
0001
1000
0010
0000
1000
0100
0010
0000
0100
1000
0001
0000
,
0100
0001
1000
0000
0010
0100
0001
0000
1000
0001
0010
0000
0001
0100
0010
0000
,
1000
0100
0010
0000
0100
1000
0001
0000
0010
0001
1000
0000
0001
0100
0010
0000
,
1000
0001
0100
0000
0010
1000
0001
0000
1000
0100
0010
0000
0001
0010
0100
0000
,
1000
0001
0100
0000
0010
0000
0010
0000
0100
0000
0100
0000
0010
0000
0100
0000
,
0010
0100
0001
0010
0001
0010
0001
0000
,
1000
0000
0000
0000
0100
1000
0001
0100
0001
1000
0100
1000
0001
0100
0001
1000
,
0100
1000
0001
0100
0001
0010
0001
1000
0010
1000
0001
0010
0001
1000
0010
1000
,
0001
0010
0001
1000
0100
1000
0001
0100
0001
1000
0100
1000
0001
0100
0001
1000
,
0100
1000
0001
0100
0001
0010
0001
1000
0010
1000
0001
0010
0001
1000
0010
1000
,
0001
0010
0001
1000
0010
1000
0001
0010
0001
1000
0100
1000
0001
0010
0100
1000
,
0001
0010
0001
1000
0100
0010
0100
1000
0001
1000
0010
0100
0001
0100
0010
1000
,
0001
0100
0001
1000
0010
0100
0001
1000
0001
1000
0010
0100
0001
1000
0100
0010
,
0001
1000
0001
1000
0010
0000
1000
0000
0001
0000
0010
0000
0001
0000
1000
0000
,
0010
0000
0000
0000
0100
0001
1000
0100
1000
0001
0100
0001
1000
0100
1000
0001
,
0100
0001
1000
0100
1000
0010
1000
0001
0010
0001
1000
0010
1000
0001
0010
0001
,
1000
0010
1000
0001
0100
0001
1000
0100
1000
0001
0100
0001
1000
0100
1000
0001
,
0100
0001
1000
0100
1000
0010
1000
0001
0010
0001
1000
0010
1000
0001
0010
0001
,
1000
0010
1000
0100
0010
0001
0010
0100
0010
0001
0010
0100
1000
0100
0010
0001
,
0010
0001
0010
0100
1000
0001
0100
0001
1000
0010
1000
0001
0100
0010
1000
0010
,
0100
0001
2000
0000
0000
0000
0000
0000
,
0000
0000
0000
0000
300M
00M0
0M00
0MM0
M00M
0MM0
M00M
0MM0
M00M
0MM0
0000
0000
,
0001
1000
2010
0000
3010
0000
0200
0000
,
0301
0000
0010
0001
0100
0001
1000
0010
,
1000
0000
0001
0000
0010
0100
0010
0100
0010
0100
0010
0100
1000
0100
1000
0100
,
1000
0000
0001
0100
0001
0100
0010
0100
,
0001
0010
0200
0000
0010
0000
2300
0000
,
3001
0000
0100
0001
1000
0010
1000
0100
,
0010
0000
0001
0000
1000
0010
1000
0010
1000
0010
1000
0010
0100
0001
0100
0001
,
0100
0000
0001
1000
0100
1000
0001
0010
,
0001
0100
0110
0MM0
0010
MMMM
0010
0MM0
,
0000
0000
1000
0001
1000
0100
0010
0001
,
0010
0000
0001
MMMM
0001
M00M
0001
MMMM
,
0000
0000
0010
0001
0100
0010
1000
0100
,
0010
0001
1000
0001
0000
0100
0000
0000
,
0000
0000
0010
0100
0001
1000
0000
0100
,
0010
0001
0000
0000
0000
0000
0000
0000
,
0000
0000
0000
0000
2000
0000
0200
0000
0000
0000
3300
0000
0100
1000
0100
1000
,
0001
0100
0001
0100
0110
0000
0000
0000
1000
0000
0001
0000
0011
0000
0000
0000
,
0001
1000
1010
0000
1000
0010
0110
0000
,
0001
1000
1100
0000
0010
0001
1001
0000
,
0001
0100
0110
0000
0100
0001
1001
0000
,
0001
0010
0110
1000
0101
0010
1001
0001
,
0011
1000
1100
0001
0101
0010
1010
1000
,
1001
0000
0110
0000
1001
0000
0000
0000
0110
0000
0000
0000
1001
0000
0001
0010
,
0001
0000
0100
0000
0010
0000
1000
0100
1000
0000
0001
0000
0010
0000
0001
1000
,
0010
0000
0100
0000
0001
0000
1000
0100
0010
0000
0001
0000
1000
0000
0010
0100
,
0001
0000
1000
0000
0100
0000
0010
0001
0100
0000
0010
0000
0100
0000
0001
1000
,
0100
0000
0010
0000
0100
0000
1000
0010
0100
0000
0001
0000
0100
0000
0000
0010
,
1000
0000
0010
0000
0100
0000
0000
0001
1000
0000
0100
0000
0010
0000
0000
0001
,
1000
0000
0100
0000
0010
0000
0000
0100
1000
0000
0010
0000
0100
0000
0000
0001
,
1000
0000
0010
0000
1000
0000
0000
0100
0010
0000
0001
0000
1000
0000
0000
0000
,
0000
0001
0100
0000
0010
0000
0202
0000
,
0303
0000
0000
0000
1001
0000
0000
0000
0001
0010
0001
0100
0010
0000
1000
0000
,
0100
0000
0000
0010
0000
0000
0100
0000
0000
0010
0000
0000
0100
0000
1000
0000
0100
0000
1000
0000
0100
0000
1000
0000
0001
0000
0000
0100
0000
0000
0001
0000
0000
1000
0000
0000
0010
0000
0000
0000
0000
0000
0100
0000
0000
0000
0000
0000
,
1001
0000
0001
0000
0100
0001
0010
0001
1000
0000
0100
0000
0010
0000
0001
0000
,
1000
0000
0010
0000
0100
0000
0001
0000
1000
0000
0100
0000
0010
0001
0010
0100
,
1000
0100
1000
0001
1000
0100
0010
0001
1000
0001
0010
0100
1000
0001
1000
0010
,
1000
0001
0100
0001
1000
0010
0100
0001
0100
0010
1000
0001
1000
0100
0010
0001
,
0010
0001
1000
0100
1000
0001
0010
0001
1000
0100
0010
0001
1000
0001
0100
0010
,
1000
0010
0100
0001
0100
0001
1000
0010
0100
0001
0100
0010
1000
0001
1000
0001
,
0100
0010
0100
0010
0100
0001
0100
0001
1000
0100
1000
0100
0010
0001
0010
0001
,
1000
0100
1000
0100
1000
0001
1000
0001
0100
0001
0100
0001
1000
0010
1000
0010
,
0100
0001
0100
0001
1000
0100
1000
0100
,
0010
0010
0001
0001
0100
0100
0010
1000
,
0001
0010
0001
0010
0100
1000
0100
0010
0001
0010
0100
0010
0001
1000
0100
0010
,
0001
1000
0001
0100
0010
0100
0001
1000
0010
0100
0001
0100
0010
1000
0001
1000
,
0001
0010
0100
1000
0100
0010
0100
1000
0001
0010
0100
1000
0001
0010
0001
1000
,
0001
0100
0001
1000
0010
0100
0001
0100
0010
1000
0001
0100
0001
1000
0010
0100
,
0001
1000
0100
1000
0100
0010
0001
0010
0100
1000
0001
0010
0001
1000
0100
0010
,
0001
1000
0001
0100
0010
1000
0010
0100
0001
1000
0001
0100
0110
0000
1000
0000
,
0001
0011
0100
1000
1001
0010
0100
0101
,
0010
0000
1000
0000
1001
0000
0000
0000
0110
0000
1001
0000
0010
0001
0100
0001
,
1000
0100
1000
0001
0010
0001
1000
0010
1000
0001
0100
0001
1000
0100
1000
0010
,
1000
0001
0010
0001
1000
0001
0100
0001
1000
0100
1000
0010
1000
0001
0100
0001
,
1000
0100
1000
0001
0010
0001
1000
0001
0100
0001
1000
0010
1000
0100
1000
0001
,
0100
0001
1000
0100
1000
0010
1000
0001
0010
0001
0100
0001
1000
0001
0010
0001
,
1000
0010
1000
0001
0100
0001
1000
0100
1000
0001
0010
0001
1000
0010
1000
0001
,
0100
0001
1000
0100
1000
0001
0010
0001
1000
0100
1000
0010
1000
0001
0100
0001
,
1000
0001
0100
0001
1000
0100
0010
0100
,
1000
0001
0100
0010
1000
0001
0101
0100
,
0001
0100
0001
1000
0100
1000
0001
0010
0001
1000
0010
1000
0001
0100
0001
0010
,
0001
1000
0100
1000
0010
1000
0001
0010
0001
0100
0001
1000
0100
1000
0001
0100
,
0001
1000
0010
1000
0001
0010
0001
1000
0100
1000
0001
0100
0001
1000
0010
1000
,
0100
1000
0001
0100
0001
0010
0001
0100
0001
1000
0100
1000
0010
1000
0001
1000
,
0001
0100
0001
1000
0010
1000
0001
0010
0001
1000
0100
1000
0001
0100
0001
1000
,
0010
1000
0001
0010
0001
1000
0001
1000
0010
0100
0010
0100
0110
0000
0001
0000
,
1000
0000
1100
0000
0010
0000
0001
0000
1001
0000
0000
0000
1000
0100
0010
0001
,
1000
0010
0100
0001
1000
0100
0010
0001
1000
0010
0100
0001
1000
0100
0010
0001
,
0010
0000
0100
1000
0001
0100
0010
1000
0001
0000
0100
0001
1000
0100
0010
0001
,
0010
0000
0100
1000
0001
1000
0001
0100
0010
0000
0100
0001
0100
0010
1000
0001
,
1000
0000
0100
0010
0001
0010
0100
1000
0100
0000
1000
0001
1000
0010
1000
0001
,
0100
0000
0001
1000
0010
0100
0001
1000
0100
0000
1000
0100
0010
0001
0010
0100
,
1000
0000
0001
0100
0010
1000
0010
0100
0001
0000
1000
0001
0100
0001
1000
0100
,
0010
0000
0100
1000
0001
0010
0001
1000
0010
0000
0100
0001
0100
0010
1000
0001
,
0100
0000
0001
1000
0001
0010
0100
1000
0001
0000
1000
0001
0010
0001
1000
0010
,
1000
0000
0001
0100
0001
1000
0010
1000
0001
0010
0001
1000
0100
0010
0001
0010
,
0100
0000
1000
0100
1000
0001
1000
0010
1000
0000
0001
0100
0001
1000
0001
0010
,
0001
0000
1000
0100
1000
0001
1000
0010
1000
0000
0001
0010
0001
1000
0001
0100
,
0001
0000
0100
0010
0100
0001
0100
0010
0100
0000
0001
1000
0001
0010
0001
1000
,
0001
0000
0010
0100
0010
0001
0010
0100
0010
0000
0100
1000
0100
0010
0100
1000
,
0100
0000
1000
0001
1000
0010
1000
0001
1000
0000
0010
0100
0010
1000
0010
0100
,
0010
0000
0100
0001
0100
0001
0100
0010
0100
0001
1000
0001
1000
0100
0010
0001
,
1000
0010
0100
0001
1000
0100
0010
0001
1000
0010
0100
0001
1000
0000
0001
0000
,
1000
0000
0001
0000
1000
0000
0000
0000
0001
0000
0000
0000
0100
0001
1000
0100
,
0010
0001
0010
0100
1000
0001
0100
0001
1000
0010
0100
0001
0100
0010
1000
0001
,
1000
0100
0010
0001
0010
0100
1000
0001
1000
0010
0100
0001
0100
0010
0100
0001
,
1000
0100
1000
0001
0010
0001
1000
0010
1000
0001
0100
0001
1000
0100
0010
0001
,
0010
0100
1000
0001
0100
0010
1000
0010
0100
0001
1000
0010
0100
0010
1000
0001
,
0010
0001
0100
0010
1000
0001
1000
0100
0010
0001
1000
0001
0100
0010
1000
0001
,
1000
0100
0010
0001
0010
0001
1000
0010
0100
0001
0100
0001
0100
0000
0010
1000
,
0010
0000
0100
0001
0100
0000
0001
1000
0001
0000
1000
0100
1000
0000
0001
0010
,
0001
0000
0100
0001
0100
0000
0010
1000
0010
0000
1000
0001
1001
0000
1000
0000
,
0100
0000
0010
0000
0000
0000
0001
0000
1000
0000
0010
0100
0000
0000
0001
0000
,
0010
0000
0100
0000
0000
0000
1000
0000
0001
0000
0100
0010
0000
0000
1000
0000
,
0010
0000
1000
0000
0000
0000
0001
0000
0010
0000
0100
1000
0000
0000
0001
0000
,
0100
0000
0010
0000
0000
0000
0100
0000
0001
0000
0010
0100
0000
0000
1000
0000
,
0001
0000
1000
0000
0000
0000
0001
0000
0100
0000
0010
1000
0000
0000
0001
0000
,
0010
0000
0001
0000
0000
0000
0100
0000
0010
0000
1000
0001
1000
0000
0000
0000
,
0000
0001
0000
0000
0100
0000
0000
0010
,
0000
0100
0010
1001
;
