#TITLE:Emerald Sword;
#SUBTITLE:;
#ARTIST:Rhapsody;
#TITLETRANSLIT:;
#SUBTITLETRANSLIT:;
#ARTISTTRANSLIT:;
#CREDIT:;
#BANNER:emeraldsword.png;
#BACKGROUND:emeraldsword-bg.png;
#LYRICSPATH:;
#CDTITLE:!skorTitle.png;
#MUSIC:Rhapsody - Emerald Sword.mp3;
#OFFSET:1.800;
#SAMPLESTART:33.293;
#SAMPLELENGTH:12.000;
#SELECTABLE:YES;
#BPMS:0.000=180.000,540.000=120.000,544.000=180.000;
#STOPS:231.000=0.320
;
#BGCHANGES:;
// cache tags:
#FIRSTBEAT:8.000;
#LASTBEAT:768.000;
#SONGFILENAME:Songs/Community Keyboard Megapack - Volume 1/(skorpion9x) Emerald Sword/emeraldsword.sm;
#HASMUSIC:1;
#HASBANNER:1;
#MUSICLENGTH:261.099;
// end cache tags

//---------------dance-single - ----------------
#NOTES:
     dance-single:
     :
     Hard:
     11:
     1.000,1.000,1.000,0.031,1.000,2108.000,269.000,8.000,0.000,0.000:  // measure 1
0000
0000
0000
0000
,  // measure 2
0000
0000
0000
0000
,  // measure 3
1001
0100
1000
0001
0011
0101
0000
0010
,  // measure 4
0110
0000
1100
0000
0000
0000
1000
0000
0001
0100
0001
0010
0100
0000
0000
0000
,  // measure 5
1001
0010
0110
1000
0101
0011
0000
0001
,  // measure 6
1100
1010
0000
1000
1001
0110
1001
0000
,  // measure 7
0110
0001
1001
0100
0110
1001
0000
1100
,  // measure 8
0110
0000
0011
0000
0000
0000
0101
0000
0010
1000
0001
1000
0100
0000
0000
0000
,  // measure 9
1010
0100
0011
0100
1001
0110
0000
0110
,  // measure 10
1001
0000
1100
0000
0000
0000
0110
0000
1001
0000
0101
0000
1001
0100
0010
0100
,  // measure 11
1000
0001
0100
0001
0010
0100
1000
0100
1000
0010
0100
0001
1000
0001
0100
0001
,  // measure 12
0010
0100
0010
0001
0100
0010
1000
0010
0100
0001
1000
0001
0100
0001
0010
0100
,  // measure 13
1000
0100
0010
0001
1000
0001
0100
0010
1000
0001
1000
0010
0100
0010
1000
0100
,  // measure 14
0010
0001
1000
0001
0100
0001
0010
0100
1000
0001
0100
0001
1000
0010
0100
0001
,  // measure 15
1000
0100
1000
0010
0100
0010
1000
0001
0100
0001
0010
0100
1000
0001
0100
0001
,  // measure 16
1000
0010
1000
0010
0100
0001
0010
0001
0010
0100
1000
0001
0100
0001
1000
0010
,  // measure 17
0100
0001
1000
0100
0010
0001
1000
0010
1000
0100
1000
0010
0100
0001
1000
0010
,  // measure 18
1000
0100
1000
0001
0100
0010
1000
0010
0100
0001
1000
0100
0010
0001
1000
0010
,  // measure 19
1000
0100
1000
0100
1000
0000
0010
0000
1001
0000
0110
0000
1001
0000
0000
0000
,  // measure 20
0001
0010
0001
0010
0001
0000
0000
0000
1010
0000
0000
0000
0101
0000
0000
0000
,  // measure 21
0010
0100
0010
0100
0010
0000
0001
0000
0011
0000
1100
0000
0011
0000
0000
0000
,  // measure 22
0001
0010
0100
0010
0001
0100
0010
0100
0001
0000
0000
0000
1000
0000
0100
0000
,  // measure 23
0010
0001
0010
0000
0001
0000
1000
0000
1010
0000
0101
0000
1010
0000
0000
0000
,  // measure 24
1000
0010
1000
0010
1000
0000
0000
0000
0110
0000
0000
0000
0001
0000
0000
0000
,  // measure 25
1000
0100
0010
0001
1000
0100
0010
0001
1000
0000
0010
0000
0100
0000
0001
0000
,  // measure 26
1000
0100
1000
0001
1000
0010
0100
0001
1000
0000
0000
0000
0001
0000
0000
0000
,  // measure 27
0010
0100
1000
0001
0100
0001
1000
0010
0100
0010
1000
0001
0100
0010
1000
0100
,  // measure 28
1000
0001
0010
0100
1000
0001
1000
0010
0100
0001
0010
0100
1000
0001
0100
0010
,  // measure 29
0100
0001
0010
0100
1000
0100
1000
0010
0100
0001
0010
0100
1000
0001
0100
0001
,  // measure 30
0101
0110
1010
1100
0110
0011
1001
0110
,  // measure 31
1001
0100
0001
1000
0001
0100
0001
0010
0100
1000
0010
0100
0001
1000
0001
0100
,  // measure 32
0001
0010
0100
1000
0010
0100
0010
1000
0100
1000
0010
1000
0001
0010
0001
0100
,  // measure 33
0001
1000
0100
1000
0001
0100
0001
0010
0001
0010
0100
1000
0010
1000
0010
0100
,  // measure 34
0001
0100
0010
1000
0100
0010
0001
1000
1001
0000
0000
0011
0000
0000
1100
0000
,  // measure 35
1001
0100
0010
0100
0001
0100
0010
0100
0001
0010
0100
1000
0001
1000
0100
1000
,  // measure 36
0010
1000
0100
0010
0001
0100
0010
1000
0010
0100
0001
0010
0100
1000
0100
0010
,  // measure 37
0001
1000
0001
1000
0010
1000
0100
1000
0001
0100
0001
0010
0001
0100
0010
1000
,  // measure 38
0110
1010
0101
0110
0011
1100
0110
1001
,  // measure 39
0110
1000
0100
0010
0100
1000
0001
1000
0100
0010
0100
1000
0001
0100
0010
1000
,  // measure 40
0001
1000
0100
1000
0001
1000
0100
1000
0001
0100
0010
0100
0001
0100
0010
0100
,  // measure 41
0010
1000
0001
0100
0010
0100
0001
0010
0100
0010
0001
1000
0010
0100
0001
0010
,  // measure 42
0100
1000
0001
1000
0100
1000
0010
0100
0001
0010
0100
1000
0010
0100
0010
0100
,  // measure 43
1001
0000
0000
0100
0110
0000
0001
1000
,  // measure 44
1001
0000
0000
0000
,  // measure 45
0011
0000
0100
0000
1000
0000
1010
0000
0100
0001
1000
0000
,  // measure 46
1001
0000
0000
0100
0110
0000
0000
0000
,  // measure 47
1010
0000
0100
0001
0011
0000
0100
1000
,  // measure 48
1001
0000
0000
0000
,  // measure 49
1010
0000
0100
0000
0001
0000
0011
0000
0100
0000
1000
0001
,  // measure 50
0110
0000
0010
0000
1000
0000
0001
1000
0001
1000
0001
1000
,  // measure 51
1001
0000
0000
0000
0000
0100
1000
0010
,  // measure 52
0110
0000
0000
0000
0000
0010
0001
0010
,  // measure 53
0010
0100
0100
1000
1000
0001
0001
0100
,  // measure 54
0100
0000
0000
0000
0000
0000
0000
0000
0001
0010
0100
1000
0001
0000
0000
0000
,  // measure 55
1001
0000
0000
0000
0000
0000
0000
0000
1000
0000
0001
0000
1000
0000
0000
0100
0000
0000
1001
0000
0000
0100
0000
0000
,  // measure 56
0110
0001
1000
0001
1000
0001
1000
0001
,  // measure 57
1001
0001
0010
0100
1001
0100
0010
0001
,  // measure 58
1001
0000
0000
0000
0100
0000
0010
0000
0001
1000
0001
1000
0001
0000
0000
0000
,  // measure 59
0010
0100
0001
0100
0010
1000
0100
0010
0001
0100
0001
1000
0100
1000
0010
0100
,  // measure 60
0001
1000
0100
1000
0010
0100
0001
0010
0001
0100
0001
0010
0100
1000
0010
0100
,  // measure 61
0010
1000
0010
0100
0010
1000
0001
0100
0010
1000
0100
0010
0001
0100
0001
0010
,  // measure 62
1001
1100
1001
1010
0101
0011
0110
1100
,  // measure 63
1001
0100
1000
0001
0100
0001
0010
0100
0010
0001
0100
0001
1000
0100
1000
0001
,  // measure 64
0100
0010
0100
0001
0010
0100
0010
0001
0010
0100
1000
0010
0100
0010
1000
0001
,  // measure 65
0100
0001
0010
0100
1000
0010
0100
0010
1000
0100
1000
0001
0010
0001
0100
0001
,  // measure 66
0010
0100
1000
0001
0010
0001
0100
0001
1010
0000
0000
0110
0000
0000
0101
0000
,  // measure 67
1001
0100
0010
0100
1000
0100
0010
0100
1000
0010
0100
0001
0100
0010
1000
0010
,  // measure 68
0100
0001
0010
0100
0010
0001
0100
0010
1000
0100
1000
0001
0100
0001
0010
0100
,  // measure 69
0010
0001
0100
0010
1000
0100
0010
0001
0100
0001
0010
0001
0100
0010
1000
0100
,  // measure 70
1001
1010
0110
0101
1001
0011
0110
1100
,  // measure 71
1001
0010
0001
0100
0001
0010
0001
0100
0010
1000
0100
1000
0010
1000
0100
1000
,  // measure 72
0001
0100
0010
0100
0001
0100
0010
0100
0001
0010
0100
0010
0001
0010
0100
0010
,  // measure 73
0001
0100
0010
1000
0001
0100
0001
0010
0100
1000
0001
0010
0001
0100
0010
0100
,  // measure 74
0001
1000
0100
1000
0010
0100
0010
0100
0001
0010
0100
0010
0001
0100
0010
1000
,  // measure 75
1001
0000
0000
0100
0110
0000
0001
0010
,  // measure 76
1100
0000
0000
0000
,  // measure 77
1010
0000
0100
0000
0001
0000
0011
0000
0100
1000
0001
1000
,  // measure 78
0110
0000
0000
0010
1010
0000
0000
0000
,  // measure 79
0011
0000
0100
1000
1001
0000
0100
0001
,  // measure 80
1001
0000
0000
0000
,  // measure 81
1010
0000
0101
0000
1001
0000
0011
0000
1100
0000
1001
0000
,  // measure 82
0110
0000
0000
1000
0110
0000
0000
0000
,  // measure 83
1001
0000
0000
0000
,  // measure 84
0001
0100
0001
1000
0100
1000
0010
0100
0010
1000
0001
0100
0010
0100
0001
0010
,  // measure 85
0100
1000
0001
0100
0010
1000
0001
0100
0001
1000
0100
1000
0010
0100
0001
1000
,  // measure 86
0100
0010
0001
1000
0100
1000
0001
0100
0001
0010
0100
0010
0001
0100
0010
1000
,  // measure 87
0100
0010
0100
1000
0010
0100
0001
0100
0001
0010
0100
0010
0100
1000
0100
0010
,  // measure 88
0001
0100
0001
0010
0001
0100
0010
1000
0100
0010
0001
0100
0010
1000
0100
1000
,  // measure 89
0010
0100
0010
0100
0001
0010
0100
1000
0100
1000
0010
0100
0001
0100
0001
0010
,  // measure 90
0100
1000
0100
1000
0010
0100
0001
0010
0100
0010
0001
0100
0010
1000
0100
0010
,  // measure 91
0001
0100
0001
1000
0010
0100
0001
0010
0100
1000
0010
0100
0001
0100
0001
0010
,  // measure 92
0100
1000
0100
1000
0001
0100
0001
0010
0100
1000
0010
0100
0010
1000
0001
0100
,  // measure 93
0001
0010
0100
1000
0100
0010
0001
0100
0001
0010
0001
0100
0010
1000
0100
1000
,  // measure 94
0010
0100
0010
1000
0100
0010
0001
0010
0100
0010
0001
0100
0010
0100
0001
0100
,  // measure 95
0010
1000
0100
0010
0001
0100
0001
0010
0100
1000
0010
0100
0010
1000
0100
0010
,  // measure 96
0001
0100
0010
0100
0001
0010
0100
1000
0100
0010
0001
1000
0010
0100
0001
1000
,  // measure 97
0100
0010
0001
0100
0001
0010
0100
0010
0001
1000
0100
1000
0001
0100
0001
0010
,  // measure 98
0100
0010
0100
1000
0001
0100
0001
1000
0100
0010
0001
0100
0001
1000
0100
0010
,  // measure 99
0100
1000
0001
0100
0010
1000
0001
0100
0010
1000
0100
0010
0001
1000
0100
0010
,  // measure 100
1001
0000
0100
0010
0100
0000
0001
0000
0010
0000
0100
0000
1000
0000
0000
0000
,  // measure 101
0110
0000
0001
1000
0001
0000
0100
0000
0010
0000
1000
0000
0001
0000
0000
0000
,  // measure 102
1100
0000
0010
0001
0100
0000
0001
0000
0010
0000
0000
0000
0100
0000
0000
0000
,  // measure 103
1000
0000
0010
0000
0100
0001
1000
0000
,  // measure 104
1010
0000
0100
0001
1000
0000
0100
0000
0010
0000
0001
0000
1000
0000
0000
0000
,  // measure 105
0011
0000
0100
1000
0001
0000
0100
0000
0010
0000
1000
0000
0001
0000
0000
0000
,  // measure 106
0110
0000
0001
1000
0100
0000
0010
0000
0001
0000
0000
0000
1000
0000
0000
0000
,  // measure 107
0100
0000
0010
0000
0001
1000
0100
0000
,  // measure 108
0010
0001
0010
0001
0010
0000
0100
0000
1010
0000
0110
0000
0101
0000
0001
0000
,  // measure 109
1000
0100
1000
0100
1000
0000
0001
0000
0110
0000
1100
0000
1001
0000
0001
0000
,  // measure 110
0010
0100
0010
0100
0010
0000
0001
0000
0110
0000
0010
0000
1010
0000
0010
0000
,  // measure 111
0110
0010
0011
0010
1001
0110
1001
0010
,  // measure 112
1000
0100
1000
0100
1000
0000
0010
0000
0101
0000
0110
0000
1010
0000
0100
0000
,  // measure 113
0010
0001
0010
0001
0010
0000
0100
0000
1100
0000
0110
0000
0011
0000
1000
0000
,  // measure 114
0010
0100
0010
0100
0010
0000
1000
0000
1100
0000
0100
0000
0101
0000
0100
0000
,  // measure 115
0011
0100
0110
0100
1100
0110
0101
0100
,  // measure 116
1001
0100
1000
0010
1001
1001
0100
0000
,  // measure 117
0110
0001
0010
0001
0110
0110
1000
0000
,  // measure 118
1001
0100
0001
0010
1001
1001
0100
0000
,  // measure 119
0110
1000
0001
1000
0110
0110
0001
0100
,  // measure 120
1001
0100
0010
0100
1001
1001
0010
0000
,  // measure 121
0110
1000
0100
1000
0110
0110
0001
0010
,  // measure 122
1001
0000
0000
0000
1000
0000
0010
0000
1001
0000
0001
1000
0001
0000
0100
0000
,  // measure 123
0010
0100
0010
0100
0010
0100
0010
0100
0010
0100
0010
0100
0010
0100
0010
0100
,  // measure 124
1010
1100
1001
1010
1000
1000
1100
1000
,  // measure 125
1010
1100
1001
1010
1001
1000
0100
0010
,  // measure 126
0011
0101
1001
0011
0001
0001
0101
0001
,  // measure 127
0011
0101
1001
0011
1001
0011
0110
1100
,  // measure 128
1010
1100
1001
0011
1000
0010
0101
0010
,  // measure 129
1100
1001
0011
0101
1001
0100
1010
1001
,  // measure 130
0101
0000
1000
0000
0011
0000
1001
0000
1100
0000
0010
0001
1000
0000
0001
0000
,  // measure 131
0010
0100
0010
0100
0010
0100
0010
0100
0010
0100
0010
0100
0010
0100
0010
0100
,  // measure 132
1001
0000
1000
0100
0011
0000
1000
0001
,  // measure 133
0110
1000
0100
0010
1001
0000
0100
0000
,  // measure 134
1001
0000
0010
0100
0110
0000
0001
0100
,  // measure 135
1010
0100
0001
0010
1100
0000
0000
0000
,  // measure 136
0220
0000
0000
0000
0000
0000
0000
0000
0000
0000
0000
0000
0000
0000
0000
0330
,  // measure 137
0001
0100
0001
1000
0100
1000
0010
0100
0001
0010
0100
1000
0010
0100
0010
1000
,  // measure 138
0001
0100
0001
0010
0100
0010
0001
0100
0001
1000
0100
1000
0010
0100
0010
1000
,  // measure 139
0001
0100
0010
1000
0100
0010
0001
0100
0001
0010
0100
1000
0010
0100
0001
0100
,  // measure 140
1001
1100
0011
0110
1001
0101
1010
0110
,  // measure 141
1001
0010
0100
1000
0001
0100
0010
1000
0100
0010
0001
1000
0010
0100
0001
0100
,  // measure 142
0001
1000
0100
0010
0001
0100
0010
0100
0001
0010
0100
0010
0100
1000
0010
1000
,  // measure 143
0100
0010
0001
0100
0001
0010
0100
1000
0001
0100
0001
0010
0100
1000
0010
0100
,  // measure 144
0001
0100
0001
1000
0100
0010
0100
1000
0110
0000
0000
1001
0000
0000
1100
0000
,  // measure 145
0101
0010
1000
0100
1000
0010
1000
0100
0010
0001
0100
0001
0010
0001
0100
0001
,  // measure 146
0010
0100
1000
0010
0100
0001
0010
0100
1000
0100
0010
0001
0100
0010
1000
0100
,  // measure 147
0010
0001
0100
0001
1000
0001
0100
0001
1000
0001
1000
0100
1000
0001
1000
0100
,  // measure 148
0011
1100
1001
0110
1010
0101
1001
0110
,  // measure 149
1001
0100
0010
1000
0100
0010
0001
0100
0010
1000
0100
0010
0001
0100
0001
0010
,  // measure 150
0100
0010
0001
0100
0010
0100
0001
0010
0100
0010
0001
0100
0010
0100
0001
1000
,  // measure 151
0100
1000
0001
1000
0010
1000
0100
0010
0001
0010
0100
0010
0001
0010
0001
0100
,  // measure 152
0010
1000
0010
0100
0001
0010
0100
1000
0010
0100
0001
0100
0001
0010
0100
1000
,  // measure 153
0110
0000
0000
0010
1001
0000
1000
0001
,  // measure 154
1100
0000
0000
0000
,  // measure 155
0011
0000
0000
0000
,  // measure 156
1100
0000
0000
0001
1001
0000
0000
0000
,  // measure 157
1010
0000
0100
0001
0011
0000
0100
1000
,  // measure 158
1001
0000
0000
0000
,  // measure 159
1010
0000
0000
0000
,  // measure 160
0101
0000
0000
0100
0110
0000
0000
0000
,  // measure 161
1001
0000
0000
0000
,  // measure 162
1000
0001
0100
0001
0010
0100
0010
0001
0100
0010
1000
0100
0010
0100
0010
0100
,  // measure 163
1000
0001
0100
0001
1000
0001
0100
0001
1000
0010
0100
0010
1000
0010
0100
0010
,  // measure 164
0100
0001
0010
0001
0100
0001
0010
0001
0100
0010
1000
0010
0100
0001
0010
0100
,  // measure 165
1000
0100
1000
0001
0100
0001
0010
0100
0010
0001
1000
0010
1000
0001
0100
0001
,  // measure 166
1000
0001
1000
0100
1000
0010
0100
0001
1000
0100
0010
0001
0100
0010
1000
0100
,  // measure 167
1000
0001
0100
0001
0100
0010
1000
0010
0100
0001
0010
0100
1000
0001
0010
0100
,  // measure 168
1000
0100
0010
0001
1000
0010
0100
0001
1000
0010
0100
0001
0010
0100
0010
0001
,  // measure 169
0100
0010
1000
0010
1000
0100
0010
0001
0100
0001
0100
0001
0010
0001
0100
0001
,  // measure 170
1000
0100
1000
0010
1000
0100
0010
0001
0100
0010
1000
0100
0010
0001
0100
0010
,  // measure 171
1000
0001
0100
0001
1000
0100
0010
0001
0100
0010
1000
0100
0010
0001
0100
0010
,  // measure 172
1000
0001
0010
0100
1000
0010
0100
0001
0010
0100
1000
0010
0100
0001
1000
0100
,  // measure 173
1000
0010
0100
0001
0010
0100
1000
0001
0100
0001
1000
0001
0100
0001
1000
0100
,  // measure 174
0010
0001
0010
0100
0010
0001
0010
0100
1000
0010
1000
0100
1000
0010
1000
0100
,  // measure 175
0010
0001
0100
0010
1000
0100
0010
0001
1000
0001
0100
0001
1000
0100
1000
0001
,  // measure 176
0100
0001
1000
0100
1000
0010
0100
0001
0010
0100
1000
0010
0100
0010
0100
0001
,  // measure 177
1000
1001
0000
0000
0100
0010
0001
0100
,  // measure 178
0001
0010
0100
1000
0010
0100
0010
1000
0100
0010
0001
0100
0010
0100
0001
0010
,  // measure 179
0100
1000
0010
0100
0010
1000
0100
0010
0001
0100
0010
0100
0001
1000
0100
1000
,  // measure 180
0010
1000
0100
1000
0001
0100
0001
1000
0001
0100
0001
1000
0010
0100
0010
1000
,  // measure 181
0010
0100
0010
1000
0100
0010
0100
1000
0100
0010
0100
1000
0001
0100
0001
0010
,  // measure 182
0100
1000
0010
0100
0010
0100
0001
1000
0100
1000
0010
0100
0001
0010
0100
1000
,  // measure 183
0010
0100
0001
0010
0100
1000
0001
0100
0010
1000
0001
0100
0010
0100
0001
1000
,  // measure 184
0001
0100
0001
1000
0100
1000
0010
0100
0001
0010
0100
1000
0010
0100
0001
0010
,  // measure 185
0100
1000
0100
1000
0001
0100
0001
0100
0010
1000
0010
1000
0100
0010
0100
0010
,  // measure 186
0001
0100
0010
1000
0100
0010
0001
0100
0001
1000
0100
1000
0010
0100
0001
0010
,  // measure 187
0100
0010
0001
0100
0010
1000
0100
0010
0100
1000
0010
0100
0001
0010
0100
0010
,  // measure 188
0001
0100
0010
1000
0100
0010
0001
0100
0010
1000
0100
0010
0001
0010
0100
1000
,  // measure 189
0010
0100
0001
0010
0100
1000
0010
0100
0001
0010
0100
1000
0010
0100
0001
0100
,  // measure 190
2020
0000
0000
0000
0000
0000
0000
3030
,  // measure 191
0202
0000
0000
0000
0000
0000
0000
0303
,  // measure 192
0220
0000
0000
0000
0000
0000
0000
0330
,  // measure 193
1001
0000
0000
0000
;
