#TITLE:Spectre;
#SUBTITLE:;
#ARTIST:Alan Walker;
#TITLETRANSLIT:;
#SUBTITLETRANSLIT:;
#ARTISTTRANSLIT:;
#CREDIT:owenviau1;
#BANNER:../owenviau1 Simfiles 6 (Science X Owen).png;
#BACKGROUND:BG.PNG;
#LYRICSPATH:;
#CDTITLE:;
#MUSIC:Alan Walker - Spectre.mp3;
#OFFSET:-0.016;
#SAMPLESTART:60.016;
#SAMPLELENGTH:29.999;
#SELECTABLE:YES;
#BPMS:0.000=127.999;
#STOPS:;
#BGCHANGES:;
// cache tags:
#FIRSTBEAT:0.000;
#LASTBEAT:481.167;
#SONGFILENAME:Songs/owenviau1 Simfiles 6/Spectre - [owenviau1] v1.0.7/Spectre.sm;
#HASMUSIC:1;
#HASBANNER:1;
#MUSICLENGTH:230.687;
// end cache tags

//---------------dance-single - 15- (owenviau1)----------------
#NOTES:
     dance-single:
     15- (owenviau1):
     Hard:
     15:
     1.000,1.000,0.763,0.451,1.000,1774.000,176.000,104.000,30.000,0.000:
1010
0000
0000
0100
0000
0000
0011
0000
0000
1000
0000
0010
0100
0000
0000
0001
0000
0000
1010
0000
0001
0100
0000
0010
,
1000
0000
0000
0001
0000
0000
0110
0000
0000
1000
0000
0000
0101
0000
0000
1000
0000
0000
0110
0000
0001
1000
0000
0010
,
0100
0000
0000
0001
0000
0000
1010
0000
0000
0100
0000
0000
0011
0000
0000
1000
0000
0000
0110
0000
0001
0010
0000
0100
,
1000
0001
0110
1000
0011
0100
1010
0001
,
0110
0000
0000
0100
0000
0000
1001
0000
0000
0010
0000
0100
0001
0000
0000
0010
0000
0000
1100
0000
0010
0100
0000
0001
,
1000
0000
0000
0001
0000
0000
1010
0000
0000
0100
0000
0000
0011
0000
0000
1000
0000
0000
0110
0000
0001
1000
0000
0010
,
0100
0000
0000
0001
0000
0000
1010
0000
0000
0100
0000
0000
0011
0000
0000
0100
0000
0000
1010
0000
0001
0100
0000
0100
,
0010
1000
0101
1000
0011
0100
1010
0001
,
0110
0000
0000
1000
0000
0000
0101
0000
0000
0010
0000
1000
0001
0000
0000
0010
0000
0000
1100
0000
0001
0100
0000
0010
,
1000
0000
0000
0001
0000
0000
1100
0000
0000
0001
0000
0000
0110
0000
0000
1000
0000
0000
0110
0000
0001
1000
0000
0010
,
0100
0000
0000
0001
0000
0000
1010
0000
0000
0100
0000
0000
0011
0000
0000
1000
0000
0000
0110
0000
0001
0010
0000
0100
,
1000
0001
0110
1000
0011
0100
1010
0001
,
0110
0000
0000
1000
0000
0000
0101
0000
0000
0010
0000
1000
0001
0000
0000
0010
0000
0000
1100
0000
0001
0100
0000
0010
,
1000
0000
0000
0001
0000
0000
0110
0000
0000
1000
0000
0000
0101
0000
0000
1000
0000
0000
0110
0000
0001
1000
0000
0010
,
0100
0000
0000
0001
0000
0000
1010
0000
0000
0100
0000
0000
0011
0000
0000
1000
0000
0000
0110
0000
0001
0010
0000
0100
,
1000
0001
0110
1000
0011
0100
1010
0001
,
M11M
0000
0000
1000
0000
0000
0101
0000
0000
0010
0000
0000
1001
0000
0000
0010
0000
0000
1100
0000
0001
0100
0000
0010
,
1000
0001
1100
0001
1010
0001
0110
1000
,
0101
0000
0000
0010
0000
0000
1001
0000
0000
0100
0000
0000
0011
0000
0000
1000
0000
0000
0110
0000
0001
0010
0000
0100
,
1000
0001
0110
1000
0011
0100
1010
0001
,
0110
0000
0000
1000
0000
0000
0101
0000
0000
0010
0000
0000
1001
0000
0000
0010
0000
0000
1100
0000
0001
0100
0000
0010
,
1000
0001
0110
1000
0101
0010
1001
0010
,
0101
0000
0000
0001
0000
0000
1010
0000
0000
0100
0000
0000
0011
0000
0000
1000
0000
0000
0110
0000
0001
0010
0000
0100
,
1000
0001
0110
1000
0011
0100
1010
0001
,
10MM
00MM
01MM
00MM
10M0
0000
0001
0000
0100
0000
0010
0000
1000
0000
0001
0000
0010
0000
0001
0000
1000
0000
0100
0000
0010
0000
0001
0000
0100
0000
0010
0000
,
1000
0001
0100
0001
1000
0100
0010
0001
0010
0100
1000
0010
0100
0010
1000
0001
,
0100
0001
1000
0010
0100
0001
1000
0100
0010
0001
0100
0010
1000
0001
0100
0001
,
1000
0000
0000
0010
0000
0000
0100
0000
0000
0010
0000
0000
1000
0000
0000
0100
0000
0000
0010
0000
0000
0001
0000
0000
0100
0000
0000
0010
0000
0000
1000
0000
0000
0001
0000
0000
0100
0000
0000
0001
0000
0000
1000
0000
0100
0000
0010
0000
,
0001
0000
0000
0100
0000
0000
0010
0000
0000
1000
0000
0000
0001
0000
0000
0010
0000
0000
0001
0000
0000
1000
0000
0000
0100
0000
0000
1000
0000
0000
0010
0000
0000
0100
0000
0000
0010
0000
0000
1000
0000
0000
0001
0000
0010
0000
0100
0000
,
1000
0001
0100
0001
1000
0010
0100
0001
1000
0100
0010
0001
1000
0100
1000
0001
,
0100
0010
1000
0100
1000
0001
0100
0010
1000
0001
0010
0001
1000
0100
0010
0001
0100
0010
1000
0001
0010
0100
1000
0001
,
0010
0000
0000
0000
0001
0000
0000
0000
1000
0000
0000
0000
0100
0000
0000
0000
0010
0000
0000
0000
0001
0000
0000
0000
0100
0000
0000
0000
0010
0000
0000
0000
1000
0000
0000
0000
0001
0000
0000
0000
0100
0000
0000
0000
0001
0000
0000
0000
2000
0000
0000
0000
0000
0000
0000
0000
0000
0000
0000
3000
0200
0000
0000
0000
0000
0000
0000
0000
0000
0000
0000
0300
0020
0000
0000
0000
0000
0000
0000
0000
0000
0000
0000
0030
0002
0000
0000
0000
0000
0000
0000
0000
0000
0000
0000
0003
,
1000
0010
0100
0001
1000
0100
1000
0001
0100
0010
1000
0001
0010
0001
1000
0100
0010
0001
0100
0010
1000
0001
0100
0001
,
1000
0010
0100
0010
1000
0100
0010
0001
1000
0100
1000
0010
0100
0010
1000
0001
0100
0001
1000
0100
0010
0001
0100
0010
,
1000
0001
0100
0001
1000
0010
0100
0010
1000
0100
0010
0001
1000
0100
1000
0010
0100
0001
0100
0010
1000
0100
0010
0001
,
1000
0100
1000
0001
0100
0010
1000
0001
0010
0001
1000
0100
0010
0001
0010
0100
1000
0001
0100
0001
1000
0010
0100
0001
,
1000
0010
0100
0010
1000
0001
0010
0001
1000
0100
0010
0001
0100
0010
0100
0001
1000
0001
0100
0010
1000
0100
0010
0001
,
1000
0100
1000
0001
0100
0010
1000
0010
0100
0001
1000
0100
0010
0001
1000
0010
1000
0100
0010
0001
0100
0001
1000
0010
,
0100
0010
1000
0001
0010
0001
0100
0010
1000
0100
1000
0001
0100
0010
1000
0100
0010
0001
0100
0010
1000
0010
0100
0001
,
1000
0000
0000
0000
0020
0000
0000
0000
0000
0000
0000
0030
0200
0000
0000
0000
0000
0000
0000
0000
0000
0000
0000
0000
0300
0000
0000
0000
0002
0000
0000
0000
0000
0000
0000
0003
2000
0000
0000
0000
0000
0000
0000
0000
0000
0000
0000
0000
3000
0000
0000
0000
0020
0000
0000
0000
0000
0000
0000
0030
2000
0000
0000
0000
0000
0000
0000
0000
0000
0000
0000
0000
3000
0000
0000
0000
0002
0000
0000
0000
0000
0000
0000
0003
0200
0000
0000
0000
0000
0000
0000
0000
0000
0000
0000
0300
,
0001
1000
0010
1000
0001
0100
0010
1000
0001
0010
0001
1000
0100
0010
0001
0100
0010
1000
0001
0100
0001
1000
0010
0100
,
0010
1000
0100
0010
0001
1000
0100
1000
0010
0100
0010
1000
0001
0100
0001
1000
0100
0010
0001
0100
0010
1000
0001
0100
,
0001
1000
0010
0100
0010
1000
0100
0010
0001
1000
0100
1000
0010
0100
0001
0100
0010
1000
0100
0010
0001
1000
0100
1000
,
0001
0100
0010
1000
0001
0010
0001
1000
0100
0010
0001
0010
0100
1000
0001
0100
0001
1000
0010
0100
0001
1000
0010
0100
,
0010
1000
0001
0010
0001
1000
0100
0010
0001
0100
0010
0100
0001
1000
0001
0100
0010
1000
0100
0010
0001
1000
0100
1000
,
0001
0100
0010
1000
0010
0100
0001
1000
0100
0010
0001
1000
0010
1000
0100
0010
0001
0100
0001
1000
0010
0100
0010
1000
,
0001
0010
0001
0100
0010
1000
0100
1000
0001
0100
0010
1000
0100
0010
0001
0100
0010
1000
0010
0100
0001
1000
0100
0010
,
0001
0000
0000
0000
2000
0000
0000
0000
0000
0000
0000
3000
0020
0000
0000
0000
0000
0000
0000
0000
0000
0000
0000
0000
0030
0000
0000
0000
0200
0000
0000
0000
0000
0000
0000
0300
0002
0000
0000
0000
0000
0000
0000
0000
0000
0000
0000
0000
0003
0000
0000
0000
2000
0000
0000
0000
0000
0000
0000
3000
0200
0000
0000
0000
0000
0000
0000
0000
0000
0000
0000
0000
0300
0000
0000
0000
0020
0000
0000
0000
0000
0000
0000
0030
0002
0000
0000
0000
0000
0000
0000
0000
0000
0000
0000
0003
,
1010
0000
0000
0100
0000
0000
0011
0000
0000
1000
0000
0010
0100
0000
0000
0001
0000
0000
1010
0000
0001
0100
0000
0010
,
1000
0000
0000
0001
0000
0000
0110
0000
0000
0001
0000
0000
0101
0000
0000
1000
0000
0000
0110
0000
0001
1000
0000
0010
,
0100
0000
0000
0001
0000
0000
1010
0000
0000
0100
0000
0000
0011
0000
0000
1000
0000
0000
0110
0000
0001
0010
0000
0100
,
1000
0001
0110
1000
0011
0100
1010
0001
,
0110
0000
0000
0100
0000
0000
1001
0000
0000
0010
0000
0100
0001
0000
0000
0010
0000
0000
1100
0000
0010
0100
0000
0001
,
1000
0000
0000
0001
0000
0000
1010
0000
0000
0100
0000
0000
0011
0000
0000
1000
0000
0000
0110
0000
0001
1000
0000
0010
,
0100
0000
0000
0001
0000
0000
1010
0000
0000
0100
0000
0000
0011
0000
0000
0100
0000
0000
1010
0000
0001
0100
0000
0100
,
0010
1000
0101
1000
0011
0100
1010
0001
,
0110
0000
0000
1000
0000
0000
0101
0000
0000
0010
0000
1000
0001
0000
0000
0010
0000
0000
1100
0000
0001
0100
0000
0010
,
1000
0000
0000
0001
0000
0000
1100
0000
0000
0001
0000
0000
0110
0000
0000
1000
0000
0000
0110
0000
0001
1000
0000
0010
,
0100
0000
0000
0001
0000
0000
1010
0000
0000
0100
0000
0000
0011
0000
0000
1000
0000
0000
0110
0000
0001
0010
0000
0100
,
1000
0001
0110
1000
0011
0100
1010
0001
,
0110
0000
0000
1000
0000
0000
0101
0000
0000
0010
0000
1000
0001
0000
0000
0010
0000
0000
1100
0000
0001
0100
0000
0010
,
1000
0000
0000
0001
0000
0000
0110
0000
0000
1000
0000
0000
0101
0000
0000
1000
0000
0000
0110
0000
0001
1000
0000
0010
,
0100
0000
0000
0001
0000
0000
1010
0000
0000
0100
0000
0000
0011
0000
0000
1000
0000
0000
0110
0000
0001
0010
0000
0100
,
1000
0001
0110
1000
0011
0100
1010
0001
,
0110
0000
0000
1000
0000
0000
0101
0000
0000
0010
0000
1000
0001
0000
0000
0010
0000
0000
1100
0000
0001
0100
0000
0010
,
1000
0000
0000
0001
0000
0000
1100
0000
0000
0001
0000
0000
1010
0000
0000
0001
0000
0000
1100
0000
0001
0100
0000
0010
,
1000
0000
0000
0001
0000
0000
1010
0000
0000
0100
0000
0000
0011
0000
0000
1000
0000
0000
0110
0000
0001
0010
0000
0100
,
1000
0001
0110
1000
0011
0100
1010
0001
,
0110
0000
0000
1000
0000
0000
0101
0000
0000
0010
0000
1000
0001
0000
0000
0010
0000
0000
1100
0000
0001
0100
0000
0010
,
1000
0000
0000
0001
0000
0000
0110
0000
0000
1000
0000
0000
0101
0000
0000
0010
0000
0000
1001
0000
1000
0010
0000
0100
,
0001
0000
0000
0100
0000
0000
1010
0000
0000
0100
0000
0000
0011
0000
0000
1000
0000
0000
0110
0000
0001
0010
0000
0100
,
1000
0001
0110
1000
0011
0100
1010
0001
,
M11M
0000
0000
1000
0000
0000
0101
0000
0000
0010
0000
0000
1001
0000
0000
0010
0000
0000
1100
0000
0001
0100
0000
0010
,
1000
0001
1100
0001
1010
0001
0110
1000
,
0101
0000
0000
0010
0000
0000
1001
0000
0000
0100
0000
0000
0011
0000
0000
1000
0000
0000
0110
0000
0001
0010
0000
0100
,
1000
0001
0110
1000
0011
0100
1010
0001
,
0110
0000
0000
1000
0000
0000
0101
0000
0000
0010
0000
0000
1001
0000
0000
0010
0000
0000
1100
0000
0001
0100
0000
0010
,
1000
0001
0110
1000
0101
0010
1001
0010
,
0101
0000
0000
0001
0000
0000
1010
0000
0000
0100
0000
0000
0011
0000
0000
1000
0000
0000
0110
0000
0001
0010
0000
0100
,
1000
0001
0110
1000
0011
0100
1010
0001
,
M1M0
M0M0
MMM1
0MM0
1MM0
0000
0001
0000
0100
0000
0010
0000
1000
0000
0001
0000
0010
0000
0001
0000
1000
0000
0100
0000
0010
0000
0001
0000
0100
0000
0010
0000
,
1000
0001
0100
0001
1000
0100
0010
0001
0010
0100
1000
0010
0100
0010
1000
0001
,
0100
0001
1000
0010
0100
0001
1000
0100
0010
0001
0100
0010
1000
0001
0100
0001
,
1000
0000
0000
0010
0000
0000
0100
0000
0000
0010
0000
0000
1000
0000
0000
0100
0000
0000
0010
0000
0000
0001
0000
0000
0100
0000
0000
0010
0000
0000
1000
0000
0000
0001
0000
0000
0100
0000
0000
0001
0000
0000
1000
0000
0100
0000
0010
0000
,
0001
0000
0000
0100
0000
0000
0010
0000
0000
1000
0000
0000
0001
0000
0000
0010
0000
0000
0001
0000
0000
1000
0000
0000
0100
0000
0000
1000
0000
0000
0010
0000
0000
0100
0000
0000
0010
0000
0000
1000
0000
0000
0001
0000
0010
0000
0100
0000
,
1000
0001
0100
0001
1000
0010
0100
0001
1000
0100
0010
0001
1000
0100
1000
0001
,
0100
0010
1000
0100
1000
0001
0100
0010
1000
0001
0010
0001
1000
0100
0010
0001
0100
0010
1000
0001
0010
0100
1000
0001
,
0010
0000
0000
0000
0001
0000
0000
0000
1000
0000
0000
0000
0100
0000
0000
0000
0010
0000
0000
0000
0001
0000
0000
0000
0100
0000
0000
0000
0010
0000
0000
0000
1000
0000
0000
0000
0001
0000
0000
0000
0100
0000
0000
0000
0001
0000
0000
0000
0020
0000
0000
0000
0000
0000
0000
0000
0000
0000
0000
0030
0200
0000
0000
0000
0000
0000
0000
0000
0000
0000
0000
0300
2000
0000
0000
0000
0000
0000
0000
0000
0000
0000
0000
3000
0002
0000
0000
0000
0000
0000
0000
0000
0000
0000
0000
0003
,
1000
0010
0100
0001
1000
0100
1000
0001
0100
0010
1000
0001
0010
0001
1000
0100
0010
0001
0100
0010
1000
0001
0100
0001
,
1000
0010
0100
0010
1000
0100
0010
0001
1000
0001
0100
0010
0100
0001
1000
0010
0100
0001
1000
0100
0010
0001
0100
0010
,
1000
0001
0100
0001
1000
0010
0100
0010
1000
0100
0010
0001
1000
0100
1000
0010
0100
0001
0100
0010
1000
0100
0010
0001
,
1000
0100
1000
0001
0100
0010
1000
0001
0010
0001
1000
0100
0010
0001
0010
0100
1000
0001
0100
0001
1000
0010
0100
0001
,
1000
0010
0100
0010
1000
0001
0010
0001
1000
0100
0010
0001
0100
0010
0100
0001
1000
0001
0100
0010
1000
0100
0010
0001
,
1000
0100
1000
0001
0100
0010
1000
0010
0100
0001
1000
0100
0010
0001
1000
0010
1000
0100
0010
0001
0100
0001
1000
0010
,
0100
0010
1000
0001
0010
0001
0100
0010
1000
0100
1000
0001
0100
0010
1000
0100
0010
0001
0100
0010
1000
0010
0100
0001
,
1000
0000
0000
0000
0020
0000
0000
0000
0000
0000
0000
0030
0200
0000
0000
0000
0000
0000
0000
0000
0000
0000
0000
0000
0300
0000
0000
0000
0002
0000
0000
0000
0000
0000
0000
0003
2000
0000
0000
0000
0000
0000
0000
0000
0000
0000
0000
0000
3000
0000
0000
0000
0020
0000
0000
0000
0000
0000
0000
0030
2000
0000
0000
0000
0000
0000
0000
0000
0000
0000
0000
0000
3000
0000
0000
0000
0002
0000
0000
0000
0000
0000
0000
0003
0200
0000
0000
0000
0000
0000
0000
0000
0000
0000
0000
0300
,
0001
1000
0010
1000
0001
0100
0010
1000
0001
0010
0001
1000
0100
0010
0001
0100
0010
1000
0001
0100
0001
1000
0010
0100
,
0010
1000
0100
0010
0001
1000
0100
1000
0010
0100
0010
1000
0001
0100
0001
1000
0100
0010
0001
0100
0010
1000
0001
0100
,
0001
1000
0010
0100
0010
1000
0100
0010
0001
1000
0100
1000
0010
0100
0001
0100
0010
1000
0100
0010
0001
1000
0100
1000
,
0001
0100
0010
1000
0001
0010
0001
1000
0100
0010
0001
0010
0100
1000
0001
0100
0001
1000
0010
0100
0001
1000
0010
0100
,
0010
1000
0001
0010
0001
1000
0100
0010
0001
0100
0010
0100
0001
1000
0001
0100
0010
1000
0100
0010
0001
1000
0100
1000
,
0001
0100
0010
1000
0010
0100
0001
1000
0100
0010
0001
1000
0010
1000
0100
0010
0001
0100
0001
1000
0010
0100
0010
1000
,
0001
0010
0001
0100
0010
1000
0100
1000
0001
0100
0010
1000
0100
0010
0001
0100
0010
1000
0010
0100
0001
1000
0100
0010
,
0001
1000
0010
1000
0001
0100
0010
1000
0001
0010
0001
1000
0100
0010
0001
0100
0010
1000
0001
0100
0001
1000
0010
0100
,
0010
1000
0100
0010
0001
1000
0100
1000
0010
0100
0010
1000
0001
0100
0001
1000
0100
0010
0001
0100
0010
1000
0001
0100
,
0001
1000
0010
0100
0010
1000
0100
0010
0001
1000
0100
1000
0010
0100
0001
0100
0010
1000
0100
0010
0001
1000
0100
1000
,
0001
0100
0010
1000
0001
0010
0001
1000
0100
0010
0001
0010
0100
1000
0001
0100
0001
1000
0010
0100
0001
1000
0010
0100
,
0010
1000
0001
0010
0001
1000
0100
0010
0001
0100
0010
0100
0001
1000
0001
0100
0010
1000
0100
0010
0001
1000
0100
1000
,
0001
0100
0010
1000
0010
0100
0001
1000
0100
0010
0001
1000
0010
1000
0100
0010
0001
0100
0001
1000
0010
0100
0010
1000
,
0001
0010
0001
0100
0010
1000
0100
1000
0001
0100
0010
1000
0100
0010
0001
0100
0010
1000
0010
0100
0001
1000
0100
0010
,
0001
0100
0010
1000
0100
0010
0001
1000
0100
1000
0001
0100
0010
1000
0001
0010
0001
1000
0100
0010
0001
0100
0010
1000
,
0001
0000
0000
0000
0200
0000
0000
0000
0000
0000
0000
0300
0020
0000
0000
0000
0000
0000
0000
0000
0000
0000
0000
0000
0030
0000
0000
0000
2000
0000
0000
0000
0000
0000
0000
3000
0020
0000
0000
0000
0000
0000
0000
0000
0000
0000
0000
0000
0030
0000
0000
0000
0200
0000
0000
0000
0000
0000
0000
0300
0002
0000
0000
0000
0000
0000
0000
0000
0000
0000
0000
0000
0003
0000
0000
0000
2000
0000
0000
0000
0000
0000
0000
3000
0200
0000
0000
0000
0000
0000
0000
0000
0000
0000
0000
0000
,
0300
0000
0000
0000
0020
0000
0000
0000
0000
0000
0000
0030
0002
0000
0000
0000
0000
0000
0000
0000
0000
0000
0000
0000
0003
0000
0000
0000
2000
0000
0000
0000
0000
0000
0000
3000
0020
0000
0000
0000
0000
0000
0000
0030
0200
0000
0000
0000
0300
0000
0000
0000
0002
0000
0000
0000
0000
0000
0000
0003
2000
0000
0000
0000
0000
0000
0000
0000
0000
0000
0000
0000
3000
0000
0000
0000
0020
0000
0000
0030
0200
0000
0000
0000
0302
0000
0000
0000
0000
0000
0000
0000
2000
0000
0000
0000
,
3003
0000
0000
0000
0020
0000
0000
0000
0000
0000
0000
0030
0200
0000
0000
0000
0000
0000
0000
0000
0000
0000
0000
0000
0300
0000
0000
0000
0002
0000
0000
0000
0000
0000
0000
0003
2000
0000
0000
0000
0000
0000
0000
0000
0000
0000
0000
0000
3000
0000
0000
0000
0002
0000
0000
0000
0000
0000
0000
0003
0200
0000
0000
0000
0000
0000
0000
0000
0000
0000
0000
0000
0300
0000
0000
0000
0020
0000
0000
0030
2000
0000
0000
0000
3002
0000
0000
0000
0000
0000
0000
0003
0200
0000
0000
0000
,
0300
0000
0000
0000
0020
0000
0000
0000
0000
0000
0000
0030
2000
0000
0000
0000
0000
0000
0000
0000
0000
0000
0000
0000
3000
0000
0000
0000
0002
0000
0000
0000
0000
0000
0000
0003
0200
0000
0000
0000
0000
0000
0000
0000
0000
0000
0000
0000
0300
0000
0000
0000
0020
0000
0000
0000
0000
0000
0000
0030
2000
0000
0000
0000
0000
0000
0000
0000
0000
0000
0000
0000
3000
0000
0000
0000
0002
0000
0000
0003
0020
0000
0000
0000
0230
0000
0000
0000
0000
0000
0000
0300
2000
0000
0000
0000
,
3000
0000
0000
0000
0002
0000
0000
0000
0000
0000
0000
0003
0020
0000
0000
0000
0000
0000
0000
0000
0000
0000
0000
0000
0030
0000
0000
0000
0002
0000
0000
0000
0000
0000
0000
0003
2000
0000
0000
0000
0000
0000
0000
0000
0000
0000
0000
0000
3000
0000
0000
0000
0020
0000
0000
0000
0000
0000
0000
0030
2000
0000
0000
0000
0000
0000
0000
0000
0000
0000
0000
0000
3000
0000
0000
0000
0002
0000
0000
0000
0000
0000
0000
0003
0020
0000
0000
0000
0000
0000
0000
0000
0000
0000
0000
0000
,
0030
0000
0000
0000
0020
0000
0000
0000
0000
0000
0000
0030
0200
0000
0000
0000
0000
0000
0000
0000
0000
0000
0000
0000
0300
0000
0000
0000
2000
0000
0000
0000
0000
0000
0000
3000
0020
0000
0000
0000
0000
0000
0000
0030
0200
0000
0000
0000
0300
0000
0000
0000
0004
0000
0000
0000
0000
0000
0000
0003
2000
0000
0000
0000
0000
0000
0000
0000
0000
0000
0000
0000
3000
0000
0000
0000
0040
0000
0000
0030
0200
0000
0000
0000
0302
0000
0000
0000
0000
0000
0000
0000
2000
0000
0000
0000
,
3003
0000
0000
0000
0040
0000
0000
0000
0000
0000
0000
0030
0200
0000
0000
0000
0000
0000
0000
0000
0000
0000
0000
0000
0300
0000
0000
0000
0004
0000
0000
0000
0000
0000
0000
0003
2000
0000
0000
0000
0000
0000
0000
0000
0000
0000
0000
0000
3000
0000
0000
0000
0004
0000
0000
0000
0000
0000
0000
0003
0200
0000
0000
0000
0000
0000
0000
0000
0000
0000
0000
0000
0300
0000
0000
0000
0040
0000
0000
0030
2000
0000
0000
0000
3002
0000
0000
0000
0000
0000
0000
0003
0200
0000
0000
0000
,
0300
0000
0000
0000
0040
0000
0000
0000
0000
0000
0000
0030
2000
0000
0000
0000
0000
0000
0000
0000
0000
0000
0000
0000
3000
0000
0000
0000
0004
0000
0000
0000
0000
0000
0000
0003
0200
0000
0000
0000
0000
0000
0000
0000
0000
0000
0000
0000
0300
0000
0000
0000
0040
0000
0000
0000
0000
0000
0000
0030
2000
0000
0000
0000
0000
0000
0000
0000
0000
0000
0000
0000
3000
0000
0000
0000
0004
0000
0000
0003
0020
0000
0000
0000
0230
0000
0000
0000
0000
0000
0000
0300
2000
0000
0000
0000
,
3000
0000
0000
0000
0004
0000
0000
0000
0000
0000
0000
0003
0020
0000
0000
0000
0000
0000
0000
0000
0000
0000
0000
0000
0030
0000
0000
0000
0004
0000
0000
0000
0000
0000
0000
0003
2000
0000
0000
0000
0000
0000
0000
0000
0000
0000
0000
0000
3000
0000
0000
0000
0040
0000
0000
0000
0000
0000
0000
0030
2000
0000
0000
0000
0000
0000
0000
0000
0000
0000
0000
0000
3000
0000
0000
0000
0004
0000
0000
0000
0000
0000
0000
0003
0200
0000
0000
0000
0000
0000
0000
0000
0000
0000
0000
0000
,
0300
M00M
0000
0000
0000
0000
0000
MMMM
0000
0000
0000
0000
0000
0000
0000
0000
0000
0000
0000
0000
0000
0000
0000
0000
,
0000
0000
0000
0000
,
0000
0000
0000
0000
,
0000
0000
0000
0000
;

//---------------dance-single - 22+ (owenviau1)----------------
#NOTES:
     dance-single:
     22+ (owenviau1):
     Challenge:
     22:
     1.000,1.000,0.763,0.451,1.000,2086.000,176.000,104.000,30.000,0.000:
1010
0000
0000
0100
0000
0000
0011
0000
0000
1000
0000
0010
0100
0000
0000
0001
0000
0000
1010
0000
0001
0100
0000
0010
,
1000
0000
0000
0001
0000
0000
0110
0000
0000
1000
0000
0000
0101
0000
0000
1000
0000
0000
0110
0000
0001
1000
0000
0010
,
0100
0000
0000
0001
0000
0000
1010
0000
0000
0100
0000
0000
0011
0000
0000
1000
0000
0000
0110
0000
0001
0010
0000
0100
,
1000
0001
0110
1000
0011
0100
1010
0001
,
0110
0000
0000
0100
0000
0000
1001
0000
0000
0010
0000
0100
0001
0000
0000
0010
0000
0000
1100
0000
0010
0100
0000
0001
,
1000
0000
0000
0001
0000
0000
1010
0000
0000
0100
0000
0000
0011
0000
0000
1000
0000
0000
0110
0000
0001
1000
0000
0010
,
0100
0000
0000
0001
0000
0000
1010
0000
0000
0100
0000
0000
0011
0000
0000
0100
0000
0000
1010
0000
0001
0100
0000
0100
,
0010
1000
0101
1000
0011
0100
1010
0001
,
0110
0000
0000
1000
0000
0000
0101
0000
0000
0010
0000
1000
0001
0000
0000
0010
0000
0000
1100
0000
0001
0100
0000
0010
,
1000
0000
0000
0001
0000
0000
1100
0000
0000
0001
0000
0000
0110
0000
0000
1000
0000
0000
0110
0000
0001
1000
0000
0010
,
0100
0000
0000
0001
0000
0000
1010
0000
0000
0100
0000
0000
0011
0000
0000
1000
0000
0000
0110
0000
0001
0010
0000
0100
,
1000
0001
0110
1000
0011
0100
1010
0001
,
0110
0000
0000
1000
0000
0000
0101
0000
0000
0010
0000
1000
0001
0000
0000
0010
0000
0000
1100
0000
0001
0100
0000
0010
,
1000
0000
0000
0001
0000
0000
0110
0000
0000
1000
0000
0000
0101
0000
0000
1000
0000
0000
0110
0000
0001
1000
0000
0010
,
0100
0000
0000
0001
0000
0000
1010
0000
0000
0100
0000
0000
0011
0000
0000
1000
0000
0000
0110
0000
0001
0010
0000
0100
,
1000
0001
0110
1000
0011
0100
1010
0001
,
M11M
0000
0000
1000
0000
0000
0101
0000
0000
0010
0000
0000
1001
0000
0000
0010
0000
0000
1100
0000
0001
0100
0000
0010
,
1000
0001
1100
0001
1010
0001
0110
1000
,
0101
0000
0000
0010
0000
0000
1001
0000
0000
0100
0000
0000
0011
0000
0000
1000
0000
0000
0110
0000
0001
0010
0000
0100
,
1000
0001
0110
1000
0011
0100
1010
0001
,
0110
0000
0000
1000
0000
0000
0101
0000
0000
0010
0000
0000
1001
0000
0000
0010
0000
0000
1100
0000
0001
0100
0000
0010
,
1000
0001
0110
1000
0101
0010
1001
0010
,
0101
0000
0000
0001
0000
0000
1010
0000
0000
0100
0000
0000
0011
0000
0000
1000
0000
0000
0110
0000
0001
0010
0000
0100
,
1000
0001
0110
1000
0011
0100
1010
0001
,
10MM
00MM
01MM
00MM
10M0
0000
0001
0000
0100
0000
0010
0000
1000
0000
0001
0000
0010
0000
0001
0000
1000
0000
0100
0000
0010
0000
0001
0000
0100
0000
0010
0000
,
1000
0001
0100
0001
1000
0100
0010
0001
0010
0100
1000
0010
0100
0010
1000
0001
,
0100
0001
1000
0010
0100
0001
1000
0100
0010
0001
0100
0010
1000
0001
0100
0001
,
1000
0000
0000
0010
0000
0000
0100
0000
0000
0010
0000
0000
1000
0000
0000
0100
0000
0000
0010
0000
0000
0001
0000
0000
0100
0000
0000
0010
0000
0000
1000
0000
0000
0001
0000
0000
0100
0000
0000
0001
0000
0000
1000
0000
0100
0000
0010
0000
,
0001
0000
0000
0100
0000
0000
0010
0000
0000
1000
0000
0000
0001
0000
0000
0010
0000
0000
0001
0000
0000
1000
0000
0000
0100
0000
0000
1000
0000
0000
0010
0000
0000
0100
0000
0000
0010
0000
0000
1000
0000
0000
0001
0000
0010
0000
0100
0000
,
1000
0001
0100
0001
1000
0010
0100
0001
1000
0100
0010
0001
1000
0100
1000
0001
,
0100
0010
1000
0100
0010
0001
1000
0100
1000
0010
0100
0001
1000
0100
0010
0001
0100
0010
1000
0001
0010
0001
1000
0100
0010
0001
0100
0001
1000
0010
0100
0001
,
1000
0000
0000
0100
0000
0000
0010
0000
0000
0001
0000
0000
0100
0000
0000
0010
0000
0000
1000
0000
0000
0010
0000
0000
0100
0000
0000
0001
0000
0000
1000
0000
0000
0100
0000
0000
0010
0000
0000
0001
0000
0000
0100
0000
0000
0010
0000
0000
2000
0000
0000
0000
0000
0000
0000
0000
0000
0000
0000
3000
0200
0000
0000
0000
0000
0000
0000
0000
0000
0000
0000
0300
0020
0000
0000
0000
0000
0000
0000
0000
0000
0000
0000
0030
0002
0000
0000
0000
0000
0000
0000
0000
0000
0000
0000
0003
,
1000
0010
0100
0001
1000
0100
0010
0001
1000
0100
1000
0001
0100
0001
1000
0010
0100
0001
1000
0100
0010
0001
1000
0001
0010
0100
1000
0010
0100
0010
1000
0001
,
0100
0010
0100
0001
1000
0001
0100
0010
1000
0100
0010
0001
1000
0100
1000
0010
0100
0001
0010
0001
1000
0010
1000
0100
0010
0001
0100
0001
1000
0010
0100
0001
,
1000
0100
0010
0001
0010
0100
1000
0010
0100
0010
1000
0001
0100
0010
1000
0100
0010
0001
0100
0010
1000
0001
0010
0100
1000
0001
0010
0001
0100
0010
1000
0100
,
0010
0001
1000
0100
1000
0010
0100
0001
0100
0010
1000
0100
0010
0001
1000
0010
1000
0001
0100
0001
1000
0100
1000
0001
0010
0001
0100
0010
1000
0100
0010
0001
,
0100
0010
1000
0001
0100
0001
1000
0010
0100
0001
0100
0010
1000
0100
0010
0001
1000
0100
1000
0010
0100
0001
1000
0100
0010
0001
0100
0010
1000
0001
0010
0001
,
0100
0010
1000
0100
0010
0001
1000
0100
1000
0010
0100
0001
0100
0010
1000
0100
0010
0001
1000
0100
1000
0010
0100
0001
0100
0010
1000
0100
0010
0001
0100
0010
,
1000
0001
0010
0100
1000
0001
1000
0100
0010
0001
0100
0010
1000
0001
0010
0001
1000
0100
1000
0010
0100
0001
1000
0100
0010
0001
0100
0001
1000
0010
0100
0001
,
1000
0000
0000
0000
0020
0000
0000
0000
0000
0000
0000
0030
0200
0000
0000
0000
0000
0000
0000
0000
0000
0000
0000
0000
0300
0000
0000
0000
0002
0000
0000
0000
0000
0000
0000
0003
2000
0000
0000
0000
0000
0000
0000
0000
0000
0000
0000
0000
3000
0000
0000
0000
0020
0000
0000
0000
0000
0000
0000
0030
2000
0000
0000
0000
0000
0000
0000
0000
0000
0000
0000
0000
3000
0000
0000
0000
0002
0000
0000
0000
0000
0000
0000
0003
0200
0000
0000
0000
0000
0000
0000
0000
0000
0000
0000
0300
,
0001
1000
0100
0010
0001
1000
0100
1000
0001
0100
0001
1000
0010
0100
0001
1000
0100
0010
0001
1000
0001
0010
0100
1000
0010
0100
0010
1000
0001
0100
0010
0100
,
0001
1000
0001
0100
0010
1000
0100
0010
0001
1000
0100
1000
0010
0100
0001
0010
0001
1000
0010
1000
0100
0010
0001
0100
0001
1000
0010
0100
0001
1000
0100
0010
,
0001
0010
0100
1000
0010
0100
0010
1000
0001
0100
0010
1000
0100
0010
0001
0100
0010
1000
0001
0010
0100
1000
0001
0010
0001
0100
0010
1000
0100
0010
0001
1000
,
0100
1000
0010
0100
0001
0100
0010
1000
0100
0010
0001
1000
0010
1000
0001
0100
0001
1000
0100
1000
0001
0010
0001
0100
0010
1000
0100
0010
0001
0100
0010
1000
,
0001
0100
0001
1000
0010
0100
0001
0100
0010
1000
0100
0010
0001
1000
0100
1000
0010
0100
0001
1000
0100
0010
0001
0100
0010
1000
0001
0010
0001
0100
0010
1000
,
0100
0010
0001
1000
0100
1000
0010
0100
0001
0100
0010
1000
0100
0010
0001
1000
0100
1000
0010
0100
0001
0100
0010
1000
0100
0010
0001
0100
0010
1000
0001
0010
,
0100
1000
0001
1000
0100
0010
0001
0100
0010
1000
0001
0010
0001
1000
0100
1000
0010
0100
0001
1000
0100
0010
0001
0100
0001
1000
0010
0100
0001
1000
0100
0010
,
0001
0000
0000
0000
2000
0000
0000
0000
0000
0000
0000
3000
0020
0000
0000
0000
0000
0000
0000
0000
0000
0000
0000
0000
0030
0000
0000
0000
0200
0000
0000
0000
0000
0000
0000
0300
0002
0000
0000
0000
0000
0000
0000
0000
0000
0000
0000
0000
0003
0000
0000
0000
2000
0000
0000
0000
0000
0000
0000
3000
0200
0000
0000
0000
0000
0000
0000
0000
0000
0000
0000
0000
0300
0000
0000
0000
0020
0000
0000
0000
0000
0000
0000
0030
0002
0000
0000
0000
0000
0000
0000
0000
0000
0000
0000
0003
,
1010
0000
0000
0100
0000
0000
0011
0000
0000
1000
0000
0010
0100
0000
0000
0001
0000
0000
1010
0000
0001
0100
0000
0010
,
1000
0000
0000
0001
0000
0000
0110
0000
0000
0001
0000
0000
0101
0000
0000
1000
0000
0000
0110
0000
0001
1000
0000
0010
,
0100
0000
0000
0001
0000
0000
1010
0000
0000
0100
0000
0000
0011
0000
0000
1000
0000
0000
0110
0000
0001
0010
0000
0100
,
1000
0001
0110
1000
0011
0100
1010
0001
,
0110
0000
0000
0100
0000
0000
1001
0000
0000
0010
0000
0100
0001
0000
0000
0010
0000
0000
1100
0000
0010
0100
0000
0001
,
1000
0000
0000
0001
0000
0000
1010
0000
0000
0100
0000
0000
0011
0000
0000
1000
0000
0000
0110
0000
0001
1000
0000
0010
,
0100
0000
0000
0001
0000
0000
1010
0000
0000
0100
0000
0000
0011
0000
0000
0100
0000
0000
1010
0000
0001
0100
0000
0100
,
0010
1000
0101
1000
0011
0100
1010
0001
,
0110
0000
0000
1000
0000
0000
0101
0000
0000
0010
0000
1000
0001
0000
0000
0010
0000
0000
1100
0000
0001
0100
0000
0010
,
1000
0000
0000
0001
0000
0000
1100
0000
0000
0001
0000
0000
0110
0000
0000
1000
0000
0000
0110
0000
0001
1000
0000
0010
,
0100
0000
0000
0001
0000
0000
1010
0000
0000
0100
0000
0000
0011
0000
0000
1000
0000
0000
0110
0000
0001
0010
0000
0100
,
1000
0001
0110
1000
0011
0100
1010
0001
,
0110
0000
0000
1000
0000
0000
0101
0000
0000
0010
0000
1000
0001
0000
0000
0010
0000
0000
1100
0000
0001
0100
0000
0010
,
1000
0000
0000
0001
0000
0000
0110
0000
0000
1000
0000
0000
0101
0000
0000
1000
0000
0000
0110
0000
0001
1000
0000
0010
,
0100
0000
0000
0001
0000
0000
1010
0000
0000
0100
0000
0000
0011
0000
0000
1000
0000
0000
0110
0000
0001
0010
0000
0100
,
1000
0001
0110
1000
0011
0100
1010
0001
,
0110
0000
0000
1000
0000
0000
0101
0000
0000
0010
0000
1000
0001
0000
0000
0010
0000
0000
1100
0000
0001
0100
0000
0010
,
1000
0000
0000
0001
0000
0000
1100
0000
0000
0001
0000
0000
1010
0000
0000
0001
0000
0000
1100
0000
0001
0100
0000
0010
,
1000
0000
0000
0001
0000
0000
1010
0000
0000
0100
0000
0000
0011
0000
0000
1000
0000
0000
0110
0000
0001
0010
0000
0100
,
1000
0001
0110
1000
0011
0100
1010
0001
,
0110
0000
0000
1000
0000
0000
0101
0000
0000
0010
0000
1000
0001
0000
0000
0010
0000
0000
1100
0000
0001
0100
0000
0010
,
1000
0000
0000
0001
0000
0000
0110
0000
0000
1000
0000
0000
0101
0000
0000
0010
0000
0000
1001
0000
1000
0010
0000
0100
,
0001
0000
0000
0100
0000
0000
1010
0000
0000
0100
0000
0000
0011
0000
0000
1000
0000
0000
0110
0000
0001
0010
0000
0100
,
1000
0001
0110
1000
0011
0100
1010
0001
,
M11M
0000
0000
1000
0000
0000
0101
0000
0000
0010
0000
0000
1001
0000
0000
0010
0000
0000
1100
0000
0001
0100
0000
0010
,
1000
0001
1100
0001
1010
0001
0110
1000
,
0101
0000
0000
0010
0000
0000
1001
0000
0000
0100
0000
0000
0011
0000
0000
1000
0000
0000
0110
0000
0001
0010
0000
0100
,
1000
0001
0110
1000
0011
0100
1010
0001
,
0110
0000
0000
1000
0000
0000
0101
0000
0000
0010
0000
0000
1001
0000
0000
0010
0000
0000
1100
0000
0001
0100
0000
0010
,
1000
0001
0110
1000
0101
0010
1001
0010
,
0101
0000
0000
0001
0000
0000
1010
0000
0000
0100
0000
0000
0011
0000
0000
1000
0000
0000
0110
0000
0001
0010
0000
0100
,
1000
0001
0110
1000
0011
0100
1010
0001
,
M1M0
M0M0
MMM1
0MM0
1MM0
0000
0001
0000
0100
0000
0010
0000
1000
0000
0001
0000
0010
0000
0001
0000
1000
0000
0100
0000
0010
0000
0001
0000
0100
0000
0010
0000
,
1000
0001
0100
0001
1000
0100
0010
0001
0010
0100
1000
0010
0100
0010
1000
0001
,
0100
0001
1000
0010
0100
0001
1000
0100
0010
0001
0100
0010
1000
0001
0100
0001
,
1000
0000
0000
0010
0000
0000
0100
0000
0000
0010
0000
0000
1000
0000
0000
0100
0000
0000
0010
0000
0000
0001
0000
0000
0100
0000
0000
0010
0000
0000
1000
0000
0000
0001
0000
0000
0100
0000
0000
0001
0000
0000
1000
0000
0100
0000
0010
0000
,
0001
0000
0000
0100
0000
0000
0010
0000
0000
1000
0000
0000
0001
0000
0000
0010
0000
0000
0001
0000
0000
1000
0000
0000
0100
0000
0000
1000
0000
0000
0010
0000
0000
0100
0000
0000
0010
0000
0000
1000
0000
0000
0001
0000
0010
0000
0100
0000
,
1000
0001
0100
0001
1000
0010
0100
0001
1000
0100
0010
0001
1000
0100
1000
0001
,
0100
0010
1000
0100
0010
0001
1000
0100
1000
0010
0100
0001
1000
0100
0010
0001
0100
0010
1000
0001
0010
0001
1000
0100
0010
0001
0100
0001
1000
0010
0100
0001
,
1000
0000
0000
0100
0000
0000
0010
0000
0000
0001
0000
0000
0100
0000
0000
0010
0000
0000
1000
0000
0000
0010
0000
0000
0100
0000
0000
0001
0000
0000
1000
0000
0000
0100
0000
0000
0010
0000
0000
0001
0000
0000
0100
0000
0000
0010
0000
0000
0020
0000
0000
0000
0000
0000
0000
0000
0000
0000
0000
0030
0200
0000
0000
0000
0000
0000
0000
0000
0000
0000
0000
0300
2000
0000
0000
0000
0000
0000
0000
0000
0000
0000
0000
3000
0002
0000
0000
0000
0000
0000
0000
0000
0000
0000
0000
0003
,
1000
0100
0010
0001
1000
0010
0100
0001
1000
0100
1000
0001
0100
0001
1000
0010
0100
0001
1000
0100
0010
0001
1000
0001
0010
0100
1000
0010
0100
0010
1000
0001
,
0100
0010
0100
0001
1000
0001
0100
0010
1000
0100
0010
0001
1000
0100
1000
0010
0100
0001
0010
0001
1000
0010
1000
0100
0010
0001
0100
0001
1000
0010
0100
0001
,
1000
0100
0010
0001
0010
0100
1000
0010
0100
0010
1000
0001
0100
0010
1000
0100
0010
0001
0100
0010
1000
0001
0010
0100
1000
0001
0010
0001
0100
0010
1000
0100
,
0010
0001
1000
0100
1000
0010
0100
0001
0100
0010
1000
0100
0010
0001
1000
0010
1000
0001
0100
0001
1000
0100
1000
0001
0010
0001
0100
0010
1000
0100
0010
0001
,
0100
0010
1000
0001
0100
0001
1000
0010
0100
0001
0100
0010
1000
0100
0010
0001
1000
0100
1000
0010
0100
0001
1000
0100
0010
0001
0100
0010
1000
0001
0010
0001
,
0100
0010
1000
0100
0010
0001
1000
0100
1000
0010
0100
0001
0100
0010
1000
0100
0010
0001
1000
0100
1000
0010
0100
0001
0100
0010
1000
0100
0010
0001
0100
0010
,
1000
0001
0010
0100
1000
0001
1000
0100
0010
0001
0100
0010
1000
0001
0010
0001
1000
0100
1000
0010
0100
0001
1000
0100
0010
0001
0100
0001
1000
0010
0100
0001
,
1000
0000
0000
0000
0020
0000
0000
0000
0000
0000
0000
0030
0200
0000
0000
0000
0000
0000
0000
0000
0000
0000
0000
0000
0300
0000
0000
0000
0002
0000
0000
0000
0000
0000
0000
0003
2000
0000
0000
0000
0000
0000
0000
0000
0000
0000
0000
0000
3000
0000
0000
0000
0020
0000
0000
0000
0000
0000
0000
0030
2000
0000
0000
0000
0000
0000
0000
0000
0000
0000
0000
0000
3000
0000
0000
0000
0002
0000
0000
0000
0000
0000
0000
0003
0200
0000
0000
0000
0000
0000
0000
0000
0000
0000
0000
0300
,
0001
0010
0100
1000
0001
0100
0010
1000
0001
0100
0001
1000
0010
0100
0001
1000
0100
0010
0001
1000
0001
0010
0100
1000
0010
0100
0010
1000
0001
0100
0010
0100
,
0001
1000
0001
0100
0010
1000
0100
0010
0001
1000
0100
1000
0010
0100
0001
0010
0001
1000
0010
1000
0100
0010
0001
0100
0001
1000
0010
0100
0001
1000
0100
0010
,
0001
0010
0100
1000
0010
0100
0010
1000
0001
0100
0010
1000
0100
0010
0001
0100
0010
1000
0001
0010
0100
1000
0001
0010
0001
0100
0010
1000
0100
0010
0001
1000
,
0100
1000
0010
0100
0001
0100
0010
1000
0100
0010
0001
1000
0010
1000
0001
0100
0001
1000
0100
1000
0001
0010
0001
0100
0010
1000
0100
0010
0001
0100
0010
1000
,
0001
0100
0001
1000
0010
0100
0001
0100
0010
1000
0100
0010
0001
1000
0100
1000
0010
0100
0001
1000
0100
0010
0001
0100
0010
1000
0001
0010
0001
0100
0010
1000
,
0100
0010
0001
1000
0100
1000
0010
0100
0001
0100
0010
1000
0100
0010
0001
1000
0100
1000
0010
0100
0001
0100
0010
1000
0100
0010
0001
0100
0010
1000
0001
0010
,
0100
1000
0001
1000
0100
0010
0001
0100
0010
1000
0001
0010
0001
1000
0100
1000
0010
0100
0001
1000
0100
0010
0001
0100
0001
1000
0010
0100
0001
1000
0100
0010
,
0001
1000
0010
0100
0001
1000
0100
1000
0001
0100
0001
1000
0010
0100
0001
1000
0100
0010
0001
1000
0001
0010
0100
1000
0010
0100
0010
1000
0001
0100
0010
0100
,
0001
1000
0001
0100
0010
1000
0100
0010
0001
1000
0100
1000
0010
0100
0001
0010
0001
1000
0010
1000
0100
0010
0001
0100
0001
1000
0010
0100
0001
1000
0100
0010
,
0001
0010
0100
1000
0010
0100
0010
1000
0001
0100
0010
1000
0100
0010
0001
0100
0010
1000
0001
0010
0100
1000
0001
0010
0001
0100
0010
1000
0100
0010
0001
1000
,
0100
1000
0010
0100
0001
0100
0010
1000
0100
0010
0001
0100
0010
1000
0001
0100
0001
1000
0100
1000
0001
0010
0001
0100
0010
1000
0100
0010
0001
0100
0010
1000
,
0001
0100
0001
1000
0010
0100
0001
0100
0010
1000
0100
0010
0001
1000
0100
1000
0010
0100
0001
1000
0100
0010
0001
0100
0010
1000
0001
0010
0001
0100
0010
1000
,
0100
0010
0001
1000
0100
1000
0010
0100
0001
0100
0010
1000
0100
0010
0001
1000
0100
1000
0010
0100
0001
0100
0010
1000
0100
0010
0001
0100
0010
1000
0001
0010
,
0100
1000
0001
1000
0100
0010
0001
0100
0010
1000
0001
0010
0001
1000
0100
1000
0010
0100
0001
1000
0100
0010
0001
0100
0001
1000
0010
0100
0001
1000
0100
0010
,
0001
0100
0010
1000
0100
0010
0001
1000
0010
1000
0001
0100
0001
1000
0100
1000
0001
0010
0001
1000
0100
0010
0001
0100
0010
1000
0001
0010
0001
0100
0010
1000
,
0001
0000
0000
0000
0200
0000
0000
0000
0000
0000
0000
0300
0020
0000
0000
0000
0000
0000
0000
0000
0000
0000
0000
0000
0030
0000
0000
0000
2000
0000
0000
0000
0000
0000
0000
3000
0020
0000
0000
0000
0000
0000
0000
0000
0000
0000
0000
0000
0030
0000
0000
0000
0200
0000
0000
0000
0000
0000
0000
0300
0002
0000
0000
0000
0000
0000
0000
0000
0000
0000
0000
0000
0003
0000
0000
0000
2000
0000
0000
0000
0000
0000
0000
3000
0200
0000
0000
0000
0000
0000
0000
0000
0000
0000
0000
0000
,
0300
0000
0000
0000
0020
0000
0000
0000
0000
0000
0000
0030
0002
0000
0000
0000
0000
0000
0000
0000
0000
0000
0000
0000
0003
0000
0000
0000
2000
0000
0000
0000
0000
0000
0000
3000
0020
0000
0000
0000
0000
0000
0000
0030
0200
0000
0000
0000
0300
0000
0000
0000
0002
0000
0000
0000
0000
0000
0000
0003
2000
0000
0000
0000
0000
0000
0000
0000
0000
0000
0000
0000
3000
0000
0000
0000
0020
0000
0000
0030
0200
0000
0000
0000
0302
0000
0000
0000
0000
0000
0000
0000
2000
0000
0000
0000
,
3003
0000
0000
0000
0020
0000
0000
0000
0000
0000
0000
0030
0200
0000
0000
0000
0000
0000
0000
0000
0000
0000
0000
0000
0300
0000
0000
0000
0002
0000
0000
0000
0000
0000
0000
0003
2000
0000
0000
0000
0000
0000
0000
0000
0000
0000
0000
0000
3000
0000
0000
0000
0002
0000
0000
0000
0000
0000
0000
0003
0200
0000
0000
0000
0000
0000
0000
0000
0000
0000
0000
0000
0300
0000
0000
0000
0020
0000
0000
0030
2000
0000
0000
0000
3002
0000
0000
0000
0000
0000
0000
0003
0200
0000
0000
0000
,
0300
0000
0000
0000
0020
0000
0000
0000
0000
0000
0000
0030
2000
0000
0000
0000
0000
0000
0000
0000
0000
0000
0000
0000
3000
0000
0000
0000
0002
0000
0000
0000
0000
0000
0000
0003
0200
0000
0000
0000
0000
0000
0000
0000
0000
0000
0000
0000
0300
0000
0000
0000
0020
0000
0000
0000
0000
0000
0000
0030
2000
0000
0000
0000
0000
0000
0000
0000
0000
0000
0000
0000
3000
0000
0000
0000
0002
0000
0000
0003
0020
0000
0000
0000
0230
0000
0000
0000
0000
0000
0000
0300
2000
0000
0000
0000
,
3000
0000
0000
0000
0002
0000
0000
0000
0000
0000
0000
0003
0020
0000
0000
0000
0000
0000
0000
0000
0000
0000
0000
0000
0030
0000
0000
0000
0002
0000
0000
0000
0000
0000
0000
0003
2000
0000
0000
0000
0000
0000
0000
0000
0000
0000
0000
0000
3000
0000
0000
0000
0020
0000
0000
0000
0000
0000
0000
0030
2000
0000
0000
0000
0000
0000
0000
0000
0000
0000
0000
0000
3000
0000
0000
0000
0002
0000
0000
0000
0000
0000
0000
0003
0020
0000
0000
0000
0000
0000
0000
0000
0000
0000
0000
0000
,
0030
0000
0000
0000
0020
0000
0000
0000
0000
0000
0000
0030
0200
0000
0000
0000
0000
0000
0000
0000
0000
0000
0000
0000
0300
0000
0000
0000
2000
0000
0000
0000
0000
0000
0000
3000
0020
0000
0000
0000
0000
0000
0000
0030
0200
0000
0000
0000
0300
0000
0000
0000
0004
0000
0000
0000
0000
0000
0000
0003
2000
0000
0000
0000
0000
0000
0000
0000
0000
0000
0000
0000
3000
0000
0000
0000
0040
0000
0000
0030
0200
0000
0000
0000
0302
0000
0000
0000
0000
0000
0000
0000
2000
0000
0000
0000
,
3003
0000
0000
0000
0040
0000
0000
0000
0000
0000
0000
0030
0200
0000
0000
0000
0000
0000
0000
0000
0000
0000
0000
0000
0300
0000
0000
0000
0004
0000
0000
0000
0000
0000
0000
0003
2000
0000
0000
0000
0000
0000
0000
0000
0000
0000
0000
0000
3000
0000
0000
0000
0004
0000
0000
0000
0000
0000
0000
0003
0200
0000
0000
0000
0000
0000
0000
0000
0000
0000
0000
0000
0300
0000
0000
0000
0040
0000
0000
0030
2000
0000
0000
0000
3002
0000
0000
0000
0000
0000
0000
0003
0200
0000
0000
0000
,
0300
0000
0000
0000
0040
0000
0000
0000
0000
0000
0000
0030
2000
0000
0000
0000
0000
0000
0000
0000
0000
0000
0000
0000
3000
0000
0000
0000
0004
0000
0000
0000
0000
0000
0000
0003
0200
0000
0000
0000
0000
0000
0000
0000
0000
0000
0000
0000
0300
0000
0000
0000
0040
0000
0000
0000
0000
0000
0000
0030
2000
0000
0000
0000
0000
0000
0000
0000
0000
0000
0000
0000
3000
0000
0000
0000
0004
0000
0000
0003
0020
0000
0000
0000
0230
0000
0000
0000
0000
0000
0000
0300
2000
0000
0000
0000
,
3000
0000
0000
0000
0004
0000
0000
0000
0000
0000
0000
0003
0020
0000
0000
0000
0000
0000
0000
0000
0000
0000
0000
0000
0030
0000
0000
0000
0004
0000
0000
0000
0000
0000
0000
0003
2000
0000
0000
0000
0000
0000
0000
0000
0000
0000
0000
0000
3000
0000
0000
0000
0040
0000
0000
0000
0000
0000
0000
0030
2000
0000
0000
0000
0000
0000
0000
0000
0000
0000
0000
0000
3000
0000
0000
0000
0004
0000
0000
0000
0000
0000
0000
0003
0200
0000
0000
0000
0000
0000
0000
0000
0000
0000
0000
0000
,
0300
M00M
0000
0000
0000
0000
0000
MMMM
0000
0000
0000
0000
0000
0000
0000
0000
0000
0000
0000
0000
0000
0000
0000
0000
,
0000
0000
0000
0000
,
0000
0000
0000
0000
,
0000
0000
0000
0000
;
