#TITLE:GENOCIDE;
#SUBTITLE:;
#ARTIST:DJ Killer;
#TITLETRANSLIT:;
#SUBTITLETRANSLIT:;
#ARTISTTRANSLIT:;
#CREDIT:;
#BANNER:GENOCIDE-banner.png;
#BACKGROUND:GENOCIDE-bg.png;
#LYRICSPATH:;
#CDTITLE:joepcdtitle.png;
#MUSIC:GENOCIDE.mp3;
#OFFSET:-0.420;
#SAMPLESTART:33.271;
#SAMPLELENGTH:12.000;
#SELECTABLE:YES;
#BPMS:0.000=175.040;
#STOPS:;
#BGCHANGES:;
// cache tags:
#FIRSTBEAT:32.000;
#LASTBEAT:275.000;
#SONGFILENAME:Songs/toune 2/Genocide/GENOCIDE.sm;
#HASMUSIC:1;
#HASBANNER:1;
#MUSICLENGTH:99.186;
// end cache tags

//---------------dance-single - ----------------
#NOTES:
     dance-single:
     :
     Hard:
     9:
     0.696,0.762,0.262,0.192,0.227,438.000,26.000,19.000,0.000,0.000:
0000
0000
0000
0000
,
0000
0000
0000
0000
,
0000
0000
0000
0000
,
0000
0000
0000
0000
,
0000
0000
0000
0000
,
0000
0000
0000
0000
,
0000
0000
0000
0000
,
0000
0000
0000
0000
,
1000
0100
0010
0000
0001
0100
0010
0100
,
0001
0010
0100
0000
1000
0010
0100
0010
,
1000
0100
0010
0000
0001
0100
0010
0100
,
0010
1000
0100
0000
1000
0100
1000
0100
,
0010
0100
0000
0000
0010
0000
0000
0000
1000
0000
0100
0000
0010
0000
0001
0000
,
0100
0010
0000
0000
0100
0000
0000
0000
0010
0000
1000
0000
0100
0000
0010
0000
,
0100
1000
0000
0000
1000
0000
0000
0000
0010
0000
0100
0000
0001
0000
0010
0000
,
0100
1000
0000
1000
0100
0000
0000
0000
0010
0100
0010
0000
0100
0000
0010
0000
,
1000
0000
0100
0000
0010
0000
0101
0000
0000
0101
0000
0000
0101
0000
0000
0000
,
0001
0000
0010
0000
0100
0000
1010
0000
0000
1010
0000
0000
1010
0000
0000
0000
,
0010
0000
0100
0000
0001
0000
0011
0000
0000
0110
0000
0000
1100
0000
0000
0000
,
0100
0000
0010
0000
0001
0000
0101
0000
0000
0110
0000
0000
1010
0000
0000
0000
,
1000
0000
0100
0000
0010
0000
0100
0000
0000
0110
0000
0000
0101
0000
0000
0000
,
1000
0000
0010
0000
0100
0000
0001
0000
0000
0110
0000
0000
0110
0000
0000
0000
,
0010
1000
0100
0010
0100
1000
0010
0100
,
0001
0010
0100
1000
0001
0100
1001
0000
,
0001
0000
0100
0000
0001
0000
1000
0000
0100
0010
0000
0010
0100
0000
1000
0000
,
0100
0000
0010
0000
0001
0000
0100
0000
0001
1000
0000
1000
0001
0000
0100
0000
,
0010
0000
1000
0000
0100
0000
0010
0000
0001
0100
0000
0100
0001
0000
1000
0000
,
0100
0000
0010
0000
0001
0000
0100
0000
0010
1000
0000
1000
0010
0000
0100
0000
,
0001
0000
0100
0000
0010
0000
0100
0000
0001
0100
0000
0100
0010
0000
1000
0000
,
0100
0000
0010
0000
0001
0000
0100
0000
0010
1000
0000
1000
0100
0000
0010
0000
,
0001
0000
0100
0000
0010
0000
0100
0000
0001
0010
0000
0010
0100
0000
1000
0000
,
0100
0000
0010
0000
0100
0000
1000
0000
0001
0100
0000
0100
0010
0000
1000
0000
,
1100
0000
0000
1000
0100
0000
0000
1000
0100
0000
0000
1000
0100
0000
0000
0000
,
0101
0000
0000
0001
0100
0000
0000
0001
0100
0000
0000
0001
0100
0000
0000
0000
,
1001
0000
0000
0010
0100
0000
0000
0100
0001
0000
0000
0001
1000
0000
0000
0000
,
1100
0000
0000
0010
0100
0000
0000
0100
0001
0000
0000
0001
0010
0000
0000
0000
,
1000
0100
0001
0100
1000
0010
0001
0010
,
1000
0100
0001
0100
1000
0010
0001
0010
,
1000
0100
1000
0100
1000
0001
1000
0001
,
0010
0100
0001
0100
1000
0100
0010
0100
,
0110
0000
0010
0000
0000
0100
0000
0000
,
1000
2000
3000
0000
0001
0002
0003
0000
,
0100
0200
0000
0000
0300
0010
0000
0000
,
1000
2000
3000
0000
0001
0002
0003
0000
,
0100
0010
1000
0010
0100
0001
0010
0100
,
1000
1000
0100
0010
0001
0001
0100
0010
,
0100
0100
0010
0100
0001
0010
0100
1000
,
0001
0001
0100
0010
1000
1000
0100
0010
,
0100
0100
1000
0010
0100
0001
0010
0100
,
0010
0010
0001
0100
0001
0001
0100
0010
,
1000
1000
0100
0010
0100
0010
0001
0010
,
0100
0100
0010
0010
0001
0001
1000
1000
,
0110
0000
0001
0100
0020
0000
0130
1000
,
0002
0000
0103
0010
2000
0000
3100
0010
,
0002
0000
0103
0010
2000
0000
3100
0010
,
0002
0000
0000
0000
0103
0000
0010
1000
0010
0000
0100
0000
0001
0000
0010
0000
,
0200
0000
1300
0001
0020
0000
0130
1000
,
0002
0000
0103
0010
2000
0000
3100
0010
,
0002
0103
2000
3100
,
0110
0100
0010
0001
0010
0001
0010
0001
,
0100
0010
0100
0001
0010
0100
0010
0001
,
0100
0010
1000
0100
0010
0100
0010
0100
,
1000
0010
0100
0001
0010
0100
0010
0001
,
0100
0010
1000
0100
0010
0001
0100
0010
,
1001
0100
0010
1000
0010
0100
0001
0010
,
0100
1000
0100
0010
0001
0100
0010
0100
,
0010
1000
0100
0010
0001
0100
0010
0100
,
0001
0100
0001
0000
1000
0010
1000
0000
0001
0010
0001
0000
1000
0100
1000
0000
,
0220
0000
0000
0330
;

//---------------dance-single - ----------------
#NOTES:
     dance-single:
     :
     Challenge:
     13:
     1.000,1.000,0.998,0.060,1.000,704.000,99.000,6.000,0.000,8.000:
0000
0000
0000
0000
,
0000
0000
0000
0000
,
0000
0000
0000
0000
,
0000
0000
0000
0000
,
0000
0000
0000
0000
,
0000
0000
0000
0000
,
0000
0000
0000
0000
,
0000
0000
0000
0000
,
1001
0000
0100
0000
0010
0000
0000
0001
0100
0000
0010
0000
0010
0100
0000
0100
,
0001
0000
0100
0000
0010
0000
0000
1000
0000
1000
0010
0000
0110
0000
0000
0000
,
0001
0000
0100
0000
0010
0000
0000
1000
0001
0000
0100
0000
1000
0001
0000
0001
,
1000
0000
0100
0000
0010
0000
0000
0001
0000
0001
0100
0000
0010
0000
0001
0000
,
0010
0000
0100
0000
0001
0000
0000
0001
0100
0000
0010
0000
0010
1000
0000
1000
,
0100
0000
0010
0000
0001
0000
0000
0100
0000
0100
0010
0000
1000
0000
0100
0000
,
1000
0000
0010
0000
0100
0000
0000
0100
0010
0000
1000
0000
0100
0010
0000
0010
,
0001
0100
0000
0100
0010
0000
0100
0000
0010
0100
0010
0100
0010
0100
0010
0100
,
0110
0000
0100
0000
1010
0000
1000
0000
1100
0000
0100
0000
0011
0000
0001
1000
,
0001
0000
0100
0000
0110
0000
1000
0000
1100
0000
0100
0000
0110
0000
0010
0001
,
0010
0000
0001
0000
0101
0000
0100
0000
0110
0000
0010
0000
1010
0000
0010
1000
,
0100
0000
0010
0000
0101
0000
0010
0000
1100
0000
0010
0000
0101
0000
0010
0100
,
1000
0000
0001
0000
0101
0000
0010
0000
0110
0000
0100
0000
1010
0000
0010
0100
,
0001
0000
0010
0000
1010
0000
0100
0000
0101
0000
0100
0000
0011
0000
0100
0010
,
1000
0001
1100
0010
0101
0100
0110
0100
,
0101
0000
0110
0000
0010
1010
0000
1000
0100
0010
0001
0100
0010
1000
0100
0010
,
0001
0000
0100
0000
0001
0100
0001
0001
0100
0001
0100
0100
0010
0100
0001
0000
,
1000
0000
0100
0000
1000
0100
1000
1000
0010
1000
1000
0010
0100
0001
0010
0000
,
0100
0000
0010
0000
0100
0010
0001
0001
0100
0010
1000
0100
0010
0001
0100
0000
,
0010
0000
1000
0000
0100
0010
0100
0100
1000
0010
0100
0001
0010
0100
0010
0000
,
1001
0000
1000
0100
0010
0001
0100
0010
1000
0100
0010
0100
1000
0000
0100
0000
,
0110
0000
0001
0100
0010
1000
0100
0010
0100
1000
0001
0100
0010
0000
0100
0000
,
1001
0000
0100
0010
0001
0100
0010
0100
0001
0010
0100
1000
0100
0000
0010
0000
,
0110
0000
1000
0100
1000
0010
0100
0001
0010
0100
1000
0010
0100
0001
0010
0100
,
0110
0000
0010
0001
0100
0010
0100
0010
1000
0100
0010
0100
1000
0000
0010
0000
,
0110
0000
0100
0010
0100
0001
0010
0100
1000
0010
0100
0010
0100
0000
0010
0000
,
1100
0000
0100
0010
0001
0100
0010
1000
0100
0010
0001
0100
0010
1000
0100
0010
,
0001
0100
0001
0000
0010
1000
0010
0000
0001
0100
0010
1000
0100
0010
0100
1000
,
1001
0000
1000
0100
0010
0001
0100
0010
0100
0001
0010
0100
1000
0000
0100
0000
,
0110
0000
0001
0100
0010
0100
0001
0010
0100
1000
0010
0100
0001
0000
0010
0000
,
1010
0000
1000
0100
0010
0001
0100
0010
0100
0001
0010
0100
1000
0010
0100
0001
,
0010
0100
1000
0100
0010
0100
1000
0010
0100
0001
0100
0010
0100
0010
0100
0001
,
1001
0000
1001
0000
0100
0000
0000
0010
1001
0000
1001
0000
0100
0000
0000
0010
,
2002
0010
0000
0000
0010
0010
0000
0000
,
0100
0000
3103
0000
1000
0000
0000
0100
0010
0000
0001
0000
0100
0000
0000
0010
,
2200
0010
0000
0000
0001
3301
0000
0000
,
1000
0100
0010
0001
1000
0100
0010
0001
0100
0010
1000
0001
0100
0010
1000
0001
,
0100
0010
0100
0001
0010
0100
1000
0010
0100
0010
0100
0010
0100
0001
0010
0100
,
1000
0010
0100
0010
0001
0010
0100
0010
1000
0100
0010
0100
0001
0100
0010
0100
,
1000
0010
0100
0001
0010
0100
1000
0100
0010
0100
0010
0001
0100
0010
1000
0010
,
0100
0001
0010
0100
1000
0010
0100
0001
0010
0100
0010
0001
0100
0010
1000
0100
,
0010
0100
1000
0010
0100
0001
0010
0100
0001
0100
1000
0010
0100
0001
0010
0100
,
1100
0010
1100
0010
1100
0010
1100
0010
,
1000
0100
1000
0000
0001
0100
0010
0100
0001
0010
0100
1000
0010
0100
0001
0010
,
0110
0000
1000
0000
1100
0010
0001
0100
0110
0000
0010
0000
1100
0100
0010
0001
,
0110
0000
0001
0000
0011
0010
0100
1000
1010
0000
0100
0000
0110
0000
0010
0000
,
0101
0000
0010
0000
0110
0010
1000
0100
0011
0000
0100
0000
0011
0100
0010
1000
,
0110
0000
1000
0000
1100
0010
0001
0100
0010
0000
0010
0100
0001
0000
0010
0100
,
1000
0000
1100
0000
0101
0100
0010
1000
1100
0000
0100
0000
0011
0100
0010
1000
,
1100
0000
0100
0000
0011
0100
0010
1000
1100
0000
0100
0000
1100
0000
0010
0000
,
1100
0010
0101
0010
0101
0010
1001
0010
,
1001
0010
1001
0100
0101
0110
1001
0000
,
1000
0100
1000
0100
0010
0001
0010
0001
0100
0010
0100
0010
1000
0100
1000
0100
,
0010
0001
0100
0010
1000
0100
0010
0001
0100
0010
1000
0100
0010
0100
1000
0001
,
0100
0010
1000
0100
0010
0001
0100
0010
1000
0100
0010
0001
0100
0010
1000
0100
,
0010
0001
0100
0010
0100
0001
0010
0100
1000
0100
0010
0001
0100
0010
0100
0010
,
1100
0110
0011
0001
0110
1010
1100
0100
,
0011
0101
0110
0010
1010
1100
0110
0001
,
0101
1001
1010
1100
0110
0101
1001
0101
,
1000
0000
0100
0000
0010
0000
0001
0000
0100
0000
0010
0000
1000
0000
0100
0000
0010
0001
0010
0001
0010
0001
0010
0001
1000
0001
1000
0001
1000
0001
1000
0001
,
2002
0000
3003
0000
;
