#TITLE:GhostGhost [V2];
#SUBTITLE:;
#ARTIST:DJ Sharpnel;
#TITLETRANSLIT:;
#SUBTITLETRANSLIT:;
#ARTISTTRANSLIT:;
#CREDIT:Steps by DeTaiL;
#BANNER:GhostGhost.jpg;
#BACKGROUND:GhostGhost-bg.jpg;
#LYRICSPATH:;
#CDTITLE:detail - icon.png;
#MUSIC:GhostGhost.mp3;
#OFFSET:-1.700;
#SAMPLESTART:53.740;
#SAMPLELENGTH:12.000;
#SELECTABLE:YES;
#BPMS:0.000=190.000;
#STOPS:;
#BGCHANGES:;
// cache tags:
#FIRSTBEAT:0.000;
#LASTBEAT:360.000;
#SONGFILENAME:Songs/cedric step/(DeTaiL) GhostGhost (V2)/GhostGhost.sm;
#HASMUSIC:1;
#HASBANNER:1;
#MUSICLENGTH:115.957;
// end cache tags

//---------------dance-single - DeTaiL-Heavy-12----------------
#NOTES:
     dance-single:
     DeTaiL-Heavy-12:
     Hard:
     12:
     1.000,1.000,1.000,0.276,1.000,858.000,121.000,32.000,0.000,0.000:
1001
0100
0010
0001
0010
0100
1000
0100
,
0010
0001
0010
0100
0010
0100
1000
0000
,
0000
1000
0100
0010
0001
0010
0100
0000
,
0000
0000
0001
0000
0010
0000
0100
0000
1000
0000
0100
0000
0001
0010
0100
1000
,
0110
0001
1000
0010
1000
0001
0100
0001
,
1000
0010
1000
0001
1000
0001
0100
0000
,
0000
0100
0001
1000
0010
1000
0001
0000
,
0000
0000
0010
0000
1000
0000
0001
0000
0100
0000
0001
0000
0010
1000
0001
0100
,
1001
0010
0100
1000
0100
0010
0001
0010
,
0100
1000
0100
0010
0100
0010
0001
0000
,
0000
0001
0010
0100
1000
0100
0010
0000
,
0000
0000
1000
0000
0100
0000
0010
0000
0001
0000
0010
0000
1000
0100
0010
0001
,
0110
1000
0001
0100
0001
1000
0010
1000
,
0001
0100
0001
1000
0001
1000
0010
0000
,
0000
0010
1000
0001
0100
0001
1000
0000
,
0000
0000
0100
0000
0001
0000
1000
0000
0010
0000
1000
0000
0100
0001
1000
0100
,
1010
1010
0011
0011
,
1100
1100
0101
0101
,
1100
0011
0110
1001
,
1100
0011
1001
0110
,
1100
0010
0101
0010
1100
0010
0101
1000
,
0011
0100
0011
1000
0101
0010
1001
0000
,
0110
1000
0110
0001
0110
1000
0110
0000
,
0000
1001
0100
1001
0010
1001
0110
0000
,
1010
0001
1100
0001
1010
0001
1100
0010
,
0101
1000
0101
0010
1100
0001
0110
0000
,
1001
0010
1001
0100
1001
0010
1001
0000
,
0000
0110
1000
0110
0001
0110
1001
0000
,
1100
0010
1001
0100
0011
0100
1001
0010
,
0101
0010
1100
0001
1010
0100
0011
0000
,
1010
0010
0101
0001
1100
0100
0011
0010
,
1001
0000
0001
0000
0110
0000
1000
0000
0110
0001
0010
0100
0010
0001
0010
0100
,
2002
0000
0000
0000
,
0000
0000
0000
0000
,
0000
0000
0000
0000
,
0000
0000
0000
0000
0000
0000
0000
0000
0000
0000
0000
0000
0000
0000
0000
0000
0000
0000
0000
0000
0000
0000
0000
0000
0000
0000
0000
0000
0000
0000
0000
0000
0000
0000
0000
0000
0000
0000
0000
0000
0000
0000
0000
0000
0000
0000
0000
0000
0000
0000
0000
0000
0000
0000
0000
0000
0000
0000
0000
0000
0000
0000
0000
3003
,
0110
0001
0010
0100
,
1000
0000
0100
0000
0010
0100
0001
0100
,
0010
0000
0010
0000
0100
0010
1000
0010
,
0100
0000
0001
0000
0010
0100
1000
0010
,
2200
0000
0000
0000
0000
0000
3300
0000
0020
0032
0023
0032
0023
0032
0023
0032
,
0103
0010
0001
0000
0001
0010
1000
0100
1000
0010
0001
0000
0001
0010
0100
0000
,
1000
0001
0100
0000
0100
0001
0010
1000
0010
0001
0100
0000
0100
0001
1000
0000
,
0100
0010
0001
0000
0001
0010
1000
0100
1000
0010
0001
0000
0001
0010
0100
0000
,
0001
1000
0010
0000
0010
1000
0100
0001
0100
1000
0010
0000
0010
1000
0001
0000
,
0001
1000
0010
0000
0010
1000
0100
0001
0100
1000
0010
0000
0010
1000
0001
0000
,
0100
0010
0001
0000
0001
0010
1000
0100
1000
0010
0001
0000
0001
0010
0100
0000
,
0010
0100
1000
0000
1000
0100
0001
0010
0001
0100
1000
0000
1000
0100
0010
0000
,
1000
0100
0010
0001
0100
0010
0001
1000
0010
0001
1000
0100
0001
1000
0100
1000
,
0100
0010
0001
0000
0001
0010
0100
0001
0100
1000
0100
0000
0100
0010
0001
0000
,
1010
0001
0100
0000
0100
0001
1000
0100
1000
0010
1000
0000
1000
0001
0100
0000
,
1100
0010
0001
0000
0001
0010
0100
0001
0100
1000
0100
0000
0100
0010
0001
0000
,
0101
1000
0010
0000
0010
1000
0001
0010
0001
0100
0001
0000
0001
1000
0010
0000
,
1100
0010
0001
0000
0001
0010
0100
0001
0100
1000
0100
0000
0100
0010
0001
0000
,
1010
0001
0100
0000
0100
0001
1000
0100
1000
0010
1000
0000
1000
0001
0100
0000
,
0011
0100
1000
0000
1010
0100
0010
1000
0110
0001
0010
0000
0011
0100
1000
0000
,
0220
0000
0000
0000
0000
0000
0000
0000
0000
0000
0000
0000
0000
0000
0000
0330
,
1000
0100
0010
0001
0100
0010
0100
0001
1000
0001
0010
0100
1000
0001
0100
0010
,
1000
0100
0010
0001
0100
0010
0100
0001
1000
0001
0010
0100
1000
0001
0100
0010
,
0001
0010
0100
1000
0010
0100
0010
1000
0001
1000
0100
0010
0001
1000
0010
0100
,
0001
0010
0100
1000
0010
0100
0010
1000
0001
1000
0100
0010
0001
1000
0010
0100
,
1000
0100
0010
0100
0010
0001
0010
0001
0010
0100
1000
0100
1000
0100
0010
0100
,
0001
0010
0100
0010
0100
1000
0100
1000
0100
0010
0001
0010
0001
0010
0100
0010
,
1000
0100
0010
0100
0010
0001
0010
0001
0010
0100
1000
0100
1000
0100
0010
0100
,
0001
0010
0100
0010
0100
1000
0100
1000
0100
0010
0001
0010
0001
0010
0100
0010
,
1000
0100
0010
0001
0010
0100
1000
0001
0010
0100
1000
0100
0010
0001
0010
0100
,
1000
0100
0010
0001
0010
0100
1000
0001
0010
0100
1000
0100
0010
0001
0010
0100
,
0001
0010
0100
1000
0100
0010
0001
1000
0100
0010
0001
0010
0100
1000
0100
0010
,
0001
0010
0100
1000
0100
0010
0001
1000
0100
0010
0001
0010
0100
1000
0100
0010
,
0100
0001
1000
0010
1000
0001
0100
0010
1000
0001
0100
0001
1000
0010
1000
0001
,
0010
1000
0001
0100
0001
1000
0010
0100
0001
1000
0010
1000
0001
0100
0001
1000
,
0100
0010
0001
0100
0010
0001
0010
0100
1000
0010
0100
1000
0100
0010
0001
0100
,
2000
0000
0000
0000
3200
0000
0000
0000
0320
0000
0000
0000
0032
0000
0000
0000
0003
0000
0000
0000
0200
0000
0000
0000
2300
0000
0000
0000
3002
0000
0000
0000
0023
0000
0000
0000
0230
0000
0000
0000
2300
0000
0000
0000
3020
0000
0000
0000
0032
0000
0000
0000
2003
0000
0000
0000
3200
0000
0000
0000
0320
0000
0000
0030
,
2200
0000
0300
0010
0000
0000
0001
0000
0010
0000
0001
0000
0010
0000
0001
3000
,
0001
0010
0100
0000
0010
0000
0001
0000
0010
0000
0001
0010
0000
0000
0100
1000
,
0001
0010
0100
0000
0010
0000
0001
0000
0010
0000
0001
0010
0000
0000
0100
1000
,
1000
0100
0010
0000
0100
0000
1000
0000
0100
0000
1000
0100
0000
0000
0010
0001
,
1000
0100
0010
0000
0100
0000
1000
0000
0100
0000
0000
0000
0100
0000
0000
0000
,
0010
1000
0001
0000
1000
0000
0010
0000
1000
0000
0010
1000
0000
0000
0001
0100
,
0010
1000
0001
0000
1000
0000
0010
0000
1000
0000
0010
1000
0000
0000
0001
0100
,
0100
0001
1000
0000
0001
0000
0100
0000
0001
0000
0100
0001
0000
0000
1000
0100
,
0010
0001
0001
0010
0010
0100
0100
1000
,
0110
0100
1001
1000
0110
0010
1001
0001
,
0110
0010
1100
0100
0011
0001
1100
1000
,
0011
0010
1100
0100
0011
0100
0110
0001
,
0110
0001
1100
1000
0110
0010
0110
0010
,
0011
1100
1010
1100
1010
0110
1010
0101
,
1010
0110
1001
0101
1010
0110
1001
1100
,
0011
0011
1001
1100
0011
0110
1001
0110
,
1000
1000
0100
0100
0010
0010
0002
0000
,
0003
0000
0000
0000
;

//---------------dance-single - Detail-oni-13----------------
#NOTES:
     dance-single:
     Detail-oni-13:
     Challenge:
     13:
     1.000,1.000,1.000,0.060,1.000,898.000,121.000,7.000,0.000,0.000:
1001
0100
0010
0001
0010
0100
1000
0100
,
0010
0001
0010
0100
0010
0100
1000
0000
,
0000
1000
0100
0010
0001
0010
0100
0000
,
0000
0000
0001
0000
0010
0000
0100
0000
1000
0000
0100
0000
0001
0010
0100
1000
,
0110
0001
1000
0010
1000
0001
0100
0001
,
1000
0010
1000
0001
1000
0001
0100
0000
,
0000
0100
0001
1000
0010
1000
0001
0000
,
0000
0000
0010
0000
1000
0000
0001
0000
0100
0000
0001
0000
0010
1000
0001
0100
,
1001
0010
0100
1000
0100
0010
0001
0010
,
0100
1000
0100
0010
0100
0010
0001
0000
,
0000
0001
0010
0100
1000
0100
0010
0000
,
0000
0000
1000
0000
0100
0000
0010
0000
0001
0000
0010
0000
1000
0100
0010
0001
,
0110
1000
0001
0100
0001
1000
0010
1000
,
0001
0100
0001
1000
0001
1000
0010
0000
,
0000
0010
1000
0001
0100
0001
1000
0000
,
0000
0000
0100
0000
0001
0000
1000
0000
0010
0000
1000
0000
0100
0001
1000
0100
,
1010
1010
0011
0011
,
1100
1100
0101
0101
,
1100
0011
0110
1001
,
1100
0011
1001
0110
,
1100
0010
0101
0010
1100
0010
0101
1000
,
0011
0100
0011
1000
0101
0010
1001
0000
,
0110
1000
0110
0001
0110
1000
0110
0000
,
0000
1001
0100
1001
0010
1001
0110
0000
,
1010
0001
1100
0001
1010
0001
1100
0010
,
0101
1000
0101
0010
1100
0001
0110
0000
,
1001
0010
1001
0100
1001
0010
1001
0000
,
0000
0110
1000
0110
0001
0110
1001
0000
,
1100
0010
1001
0100
0011
0100
1001
0010
,
0101
0010
1100
0001
1010
0100
0011
0000
,
1010
0010
0101
0001
1100
0100
0011
0010
,
1001
0000
0000
0001
0000
0000
0110
0000
0000
0001
0000
0000
0010
0001
1000
0100
0010
0001
1000
0100
0010
0001
1000
0100
,
2002
0000
0000
0000
,
0000
0000
0000
0000
,
0000
0000
0000
0000
,
0000
0000
0000
0000
0000
0000
0000
0000
0000
0000
0000
0000
0000
0000
0000
0000
0000
0000
0000
0000
0000
0000
0000
0000
0000
0000
0000
0000
0000
0000
0000
0000
0000
0000
0000
0000
0000
0000
0000
0000
0000
0000
0000
0000
0000
0000
0000
0000
0000
0000
0000
0000
0000
0000
0000
0000
0000
0000
0000
0000
0000
0000
0000
3003
,
0110
0001
0010
0100
,
1000
0000
0100
0000
0010
0100
0001
0100
,
0010
0000
0010
0000
0100
0010
1000
0010
,
0100
0000
0001
0000
0010
0100
1000
0010
,
2200
0000
0000
0000
0000
0000
0000
0000
0000
3300
0000
0000
0010
0001
0010
0001
0010
0001
0010
0001
0010
0001
0010
0001
,
1100
0010
0001
0000
0001
0010
1000
0100
1000
0010
0001
0000
0001
0010
0100
0000
,
1000
0001
0100
0000
0100
0001
0010
1000
0010
0001
0100
0000
0100
0001
1000
0000
,
0100
0010
0001
0000
0001
0010
1000
0100
1000
0010
0001
0000
0001
0010
0100
0000
,
0001
1000
0010
0000
0010
1000
0100
0001
0100
1000
0010
0000
0010
1000
0001
0000
,
0001
1000
0010
0000
0010
1000
0100
0001
0100
1000
0010
0000
0010
1000
0001
0000
,
0100
0010
0001
0000
0001
0010
1000
0100
1000
0010
0001
0000
0001
0010
0100
0000
,
0010
0100
1000
0000
1000
0100
0001
0010
0001
0100
1000
0000
1000
0100
0010
0000
,
1000
0100
0010
0001
0100
0010
0001
1000
0010
0001
1000
0100
0001
1000
0100
1000
,
0100
0010
0001
0000
0001
0010
0100
0001
0100
1000
0100
0000
0100
0010
0001
0000
,
1010
0001
0100
0000
0100
0001
1000
0100
1000
0010
1000
0000
1000
0001
0100
0000
,
1100
0010
0001
0000
0001
0010
0100
0001
0100
1000
0100
0000
0100
0010
0001
0000
,
0101
1000
0010
0000
0010
1000
0001
0010
0001
0100
0001
0000
0001
1000
0010
0000
,
1100
0010
0001
0000
0001
0010
0100
0001
0100
1000
0100
0000
0100
0010
0001
0000
,
1010
0001
0100
0000
0100
0001
1000
0100
1000
0010
1000
0000
1000
0001
0100
0000
,
0011
0100
1000
0000
1010
0100
0010
1000
0110
0001
0010
0000
0011
0100
1000
0000
,
1000
0100
0010
0100
0010
0001
0010
0001
1000
0001
1000
0100
1000
0100
0010
0100
0010
0001
0010
0001
1000
0001
1000
0100
,
0011
0100
0010
0001
0100
0010
0100
0001
1000
0001
0010
0100
1000
0001
0100
0010
,
1000
0100
0010
0001
0100
0010
0100
0001
1000
0001
0010
0100
1000
0001
0100
0010
,
0001
0010
0100
1000
0010
0100
0010
1000
0001
1000
0100
0010
0001
1000
0010
0100
,
0001
0010
0100
1000
0010
0100
0010
1000
0001
1000
0100
0010
0001
1000
0010
0100
,
1000
0100
0010
0100
0010
0001
0010
0001
0010
0100
1000
0100
1000
0100
0010
0100
,
0001
0010
0100
0010
0100
1000
0100
1000
0100
0010
0001
0010
0001
0010
0100
0010
,
1000
0100
0010
0100
0010
0001
0010
0001
0010
0100
1000
0100
1000
0100
0010
0100
,
0001
0010
0100
0010
0100
1000
0100
1000
0100
0010
0001
0010
0001
0010
0100
0010
,
1000
0100
0010
0001
0010
0100
1000
0001
0010
0100
1000
0100
0010
0001
0010
0100
,
1000
0100
0010
0001
0010
0100
1000
0001
0010
0100
1000
0100
0010
0001
0010
0100
,
0001
0010
0100
1000
0100
0010
0001
1000
0100
0010
0001
0010
0100
1000
0100
0010
,
0001
0010
0100
1000
0100
0010
0001
1000
0100
0010
0001
0010
0100
1000
0100
0010
,
0100
0001
1000
0010
1000
0001
0100
0010
1000
0001
0100
0001
1000
0010
1000
0001
,
0010
1000
0001
0100
0001
1000
0010
0100
0001
1000
0010
1000
0001
0100
0001
1000
,
0100
0010
0001
0100
0010
0001
0010
0100
1000
0010
0100
1000
0100
0010
0001
0100
,
1000
0100
0010
0001
0010
0100
1000
0100
0010
0001
0010
0100
1000
0100
0010
0001
0010
0100
1000
0100
0010
0001
0010
0001
,
2200
0000
0300
0010
0000
0000
0001
0000
0010
0000
0001
0000
0010
0000
0001
3000
,
0001
0010
0100
0000
0010
0000
0001
0000
0010
0000
0001
0010
0000
0000
0100
1000
,
0001
0010
0100
0000
0010
0000
0001
0000
0010
0000
0001
0010
0000
0000
0100
1000
,
1000
0100
0010
0000
0100
0000
1000
0000
0100
0000
1000
0100
0000
0000
0010
0001
,
1000
0100
0010
0000
0100
0000
1000
0000
0100
0000
0000
0000
0100
0000
0000
0000
,
0010
1000
0001
0000
1000
0000
0010
0000
1000
0000
0010
1000
0000
0000
0001
0100
,
0010
1000
0001
0000
1000
0000
0010
0000
1000
0000
0010
1000
0000
0000
0001
0100
,
0100
0001
1000
0000
0001
0000
0100
0000
0001
0000
0100
0001
0000
0000
1000
0100
,
0010
0001
0001
0010
0010
0100
0100
1000
,
0110
0100
1001
1000
0110
0010
1001
0001
,
0110
0010
1100
0100
0011
0001
1100
1000
,
0011
0010
1100
0100
0011
0100
0110
0001
,
0110
0001
1100
1000
0110
0010
0110
0010
,
0011
1100
1010
1100
1010
0110
1010
0101
,
1010
0110
1001
0101
1010
0110
1001
1100
,
0011
0011
1001
1100
0011
0110
1001
0110
,
1000
1000
0100
0100
0010
0010
0002
0000
,
0003
0000
0000
0000
;
