#TITLE:Let's Sing the ''Manic Song'';
#SUBTITLE:;
#ARTIST:t+pazolite;
#TITLETRANSLIT:;
#SUBTITLETRANSLIT:;
#ARTISTTRANSLIT:;
#CREDIT:Owem;
#BANNER:../banner.png;
#BACKGROUND:../bg.png;
#LYRICSPATH:;
#CDTITLE:../cdtitleowem.png;
#MUSIC:t+pazolite - Let's Sing the ''Manic Song''.ogg;
#OFFSET:-0.348;
#SAMPLESTART:41.490;
#SAMPLELENGTH:29.999;
#SELECTABLE:YES;
#DISPLAYBPM:*;
#BPMS:0.000=70.000,32.000=140.000,61.000=280.000,63.000=140.000,192.000=70.000,224.000=140.000,320.000=280.000,348.000=140.000,350.000=280.000,378.000=140.000,380.000=280.000,408.000=140.000,410.000=280.000,434.000=140.000,436.000=560.000,444.000=140.000,572.000=70.000;
#STOPS:61.000=0.053
,61.250=0.053
,61.500=0.054
,61.750=0.053
,62.000=0.054
,62.250=0.053
,62.500=0.054
,62.750=0.054
;
#BGCHANGES:;
// cache tags:
#FIRSTBEAT:0.000;
#LASTBEAT:581.000;
#SONGFILENAME:Songs/Owem's Simfiles 08 - 1.2/Let's Sing the ''Manic Song'' - [Owem] v1.0.4/Let's Sing the ''Manic Song''.sm;
#HASMUSIC:1;
#HASBANNER:1;
#MUSICLENGTH:260.493;
// end cache tags

//---------------dance-single - 16+ (Owem)----------------
#NOTES:
     dance-single:
     16+ (Owem):
     Hard:
     16:
     1.000,1.000,0.127,1.000,1.000,1718.000,33.000,305.000,233.000,4.000:
1MM2
0000
1003
0100
0010
0001
1000
0001
0200
0000
00M0
0000
0000
0000
0000
0300
,
0002
0000
1003
0010
1000
0100
0010
0001
2000
0000
0000
0000
0000
0000
0000
3000
,
0020
0000
0130
0001
1000
0001
0010
0100
2000
0000
0000
0000
0000
0000
0000
3000
,
0020
0000
0130
0001
1000
0100
0010
0001
0200
0000
0000
0000
0000
0000
0000
0300
,
002M
000M
000M
000M
103M
0000
0100
0000
1000
0000
0010
0000
1000
0000
0001
0000
0200
0000
0000
0000
0000
0000
0000
0000
0000
0000
0000
0000
0000
0000
0300
0000
,
0020
0000
1030
0001
1000
0010
0100
0001
2000
0000
0000
0000
0000
0000
0000
3000
,
0200
0000
0310
0001
1000
0010
1000
0001
0020
0000
0000
0000
0000
0000
0000
0030
,
0200
0000
1300
0001
1000
0100
0010
0001
0200
0000
0000
0000
0320
0000
2030
0000
,
3001
0000
0000
0100
0000
0000
0010
0000
0100
0000
0001
0000
1000
0000
0000
0010
0000
0000
0100
0000
0000
0010
0000
0000
1000
0000
0000
0001
0000
0000
1000
0000
0000
0100
0000
0000
0010
0000
0000
0000
0000
0000
0001
0000
0000
0000
0000
0000
,
1000
0000
0000
0010
0000
0000
0100
0000
0001
0000
1000
0000
0001
0000
0000
0010
0000
0000
0100
0000
0000
1000
0000
0000
0001
0000
0000
0100
0000
0000
0010
0000
0000
1000
0000
0000
0010
0000
0000
0000
0000
0000
0100
0000
0000
0001
0000
0000
,
1000
0000
0000
0100
0000
0000
0010
0000
0001
0000
1000
0000
0001
0000
0000
0100
0000
0000
0010
0000
0000
0100
0000
0000
0001
0000
0000
1000
0000
0000
0010
0000
0000
1000
0000
0000
0100
0000
0000
0000
0000
0000
0010
0000
0000
0000
0000
0000
,
0001
0000
0000
1000
0000
0000
0001
0000
0100
0000
0010
0000
1000
0000
0000
0010
0000
0000
0100
0000
0000
0001
0000
0000
1000
0000
0000
0100
0000
0000
0010
0000
0000
0100
0000
0000
1000
0000
0000
0000
0000
0000
0001
0000
0000
0100
0000
0000
,
0002
0003
1000
0010
0200
0300
0002
0003
2000
3000
0100
0010
0002
0003
2000
3000
,
0020
0030
0100
0001
0200
0300
0020
0030
2000
3000
0001
0010
0200
0300
2000
3000
,
0001
0010
0100
1000
0001
1000
0010
0100
0010
1000
0001
1000
0100
0010
0100
1000
,
0002
0000
0000
0000
0000
0000
0000
0000
0000
0000
0000
0000
0000
0000
0000
0000
0203
0000
0300
0000
0200
0000
0300
0000
0020
0000
0030
0000
0020
0000
0030
0000
2000
0000
3000
0000
4000
0000
3000
0000
0004
0000
0003
0000
0004
0000
0003
0000
0200
0300
0000
0000
0000
0000
0000
0000
0000
0000
0000
0000
0000
0000
0000
0000
,
0010
0000
0000
1000
0000
0000
0010
0000
0000
0100
0000
0000
0002
0000
0000
0000
0000
0000
1003
0000
0100
0000
0010
0000
0001
0000
1000
0000
0001
0000
0100
0000
0010
0000
1000
0000
0020
0000
0000
0030
0000
0000
0100
0000
0000
0000
0000
0000
,
0001
0000
0000
1000
0000
0000
0010
0000
0000
1000
0000
0000
0200
0000
0000
0000
0000
0000
0310
0000
0001
0000
1000
0000
0001
0000
0100
0000
0010
0000
1000
0000
0010
0000
0100
0000
0002
0000
0000
0000
0000
0000
2003
0000
0000
0000
0000
0000
,
3100
0000
0000
0010
0000
0000
0001
0000
0000
1000
0000
0000
0002
0000
0000
0000
0000
0000
0103
0000
0010
0000
1000
0000
0001
0000
1000
0000
0100
0000
0010
0000
0001
0000
1000
0000
0020
0000
0000
0030
0000
0000
0100
0000
0000
0000
0000
0000
,
0001
0000
0000
1000
0000
0000
0100
0000
0000
1000
0000
0000
0020
0000
0000
0000
0000
0000
0130
0000
0001
0000
1000
0000
0100
0000
1000
0000
0001
0000
0010
0000
0100
0000
0010
0000
0001
0000
0000
1000
0000
0000
0001
0000
0000
1000
0000
0000
,
0010
0000
0000
0100
0000
0000
0010
0000
0000
1000
0000
0000
0002
0000
0000
0000
0000
0000
0013
0000
0100
0000
1000
0000
0001
0000
1000
0000
0010
0000
0100
0000
0001
0000
0100
0000
0020
0000
0000
0030
0000
0000
1000
0000
0000
0000
0000
0000
,
0001
0000
0000
1000
0000
0000
0010
0000
0000
1000
0000
0000
0200
0000
0000
0000
0000
0000
0310
0000
0001
0000
1000
0000
0001
0000
0100
0000
0010
0000
1000
0000
0010
0000
0100
0000
0001
0000
0000
0010
0000
0000
0001
0000
0000
0010
0000
0000
,
0100
0000
0000
1000
0000
0000
0001
0000
0100
0000
0001
0000
0200
0000
0000
0000
0000
0000
0320
0000
0000
0000
0000
0000
1030
0000
0000
0001
0000
0000
1000
0000
0000
0100
0000
0000
0010
0000
0000
0001
0000
0000
2000
0000
0000
3000
0000
0000
,
0010
0100
0001
1000
0010
0100
0001
1000
0001
0010
0100
1000
0001
0010
0100
1000
,
0010
0000
0000
0100
0000
0000
0001
0000
0000
1000
0000
0000
0002
0000
0000
0000
0000
0000
0013
0000
0100
0000
1000
0000
0001
0000
1000
0000
0010
0000
0100
0000
0001
0000
1000
0000
0200
0000
0000
0300
0000
0000
0010
0000
0000
0000
0000
0000
,
0001
0000
0000
1000
0000
0000
0001
0000
0000
0100
0000
0000
0020
0000
0000
0000
0000
0000
1030
0000
0100
0000
1000
0000
0001
0000
0010
0000
0001
0000
1000
0000
0010
0000
0100
0000
0020
0000
0000
0000
0000
0000
2030
0000
0000
0000
0000
0000
,
3001
0000
0000
0100
0000
0000
0010
0000
0000
1000
0000
0000
0020
0000
0000
0000
0000
0000
0130
0000
0001
0000
1000
0000
0100
0000
1000
0000
0010
0000
0100
0000
0010
0000
1000
0000
0002
0000
0000
0003
0000
0000
0010
0000
0000
0000
0000
0000
,
0100
0000
0000
1000
0000
0000
0001
0000
0000
1000
0000
0000
0020
0000
0000
0000
0000
0000
0130
0000
0001
0000
1000
0000
0010
0000
1000
0000
0001
0000
0010
0000
0001
0000
0100
0000
0010
0000
0000
1000
0000
0000
0010
0000
0000
1000
0000
0000
,
0001
0000
0000
0010
0000
0000
0100
0000
0000
1000
0000
0000
0002
0000
0000
0000
0000
0000
0103
0000
0010
0000
1000
0000
0010
0000
0100
0000
0001
0000
0010
0000
0100
0000
1000
0000
0002
0000
0000
0003
0000
0000
0100
0000
0000
0000
0000
0000
,
0010
0000
0000
1000
0000
0000
0010
0000
0000
0100
0000
0000
0002
0000
0000
0000
0000
0000
1003
0000
0100
0000
1000
0000
0010
0000
0100
0000
0010
0000
1000
0000
0001
0000
0100
0000
0010
0000
0000
0100
0000
0000
0010
0000
0000
0100
0000
0000
,
0001
0000
0000
0010
0000
0000
0001
0000
1000
0000
0001
0000
2000
0000
0000
0000
3000
0000
0010
0000
0000
0100
0000
0000
0001
0000
1000
0000
0100
0000
0010
0000
0001
0000
1000
0000
0020
0000
0000
0130
0000
0000
0002
0000
0000
0003
0000
0000
,
1000
0000
0100
0000
0010
0000
0001
0000
1000
0000
0100
0000
0010
0000
0001
0000
1000
0000
0010
0000
0100
0001
0100
0001
1000
0000
0010
0000
0100
0000
0001
0000
,
2000
0000
3010
0100
0002
0000
1003
0000
0200
0000
0310
0001
2000
0000
3010
0000
,
0200
0000
0301
1000
0002
0000
0103
0000
0020
0000
1030
0001
2000
0000
3100
0000
,
0020
0000
0031
1000
0020
0000
0130
0000
0002
0000
1003
0100
2000
0000
3010
0000
,
0200
0000
0000
0000
0000
0000
0301
0000
0000
1000
0000
0000
0010
0000
0000
0000
0100
0000
0000
0000
0010
0000
0000
0000
2000
0000
0000
3000
0000
0000
0001
0000
0000
0100
0000
0000
0010
0000
0000
0000
0000
0000
2000
0000
0000
0000
0000
0000
,
3002
0000
0013
0100
2000
0000
3010
0000
0200
0000
0301
1000
0002
0000
0013
0000
,
0200
0000
1300
0010
0200
0000
0301
0000
0020
0000
0130
1000
0002
0000
0203
0000
,
0320
0000
0000
0000
0000
0000
1030
0000
0000
0001
0000
0000
2000
0000
0000
0000
0000
0000
3100
0000
0000
0000
0000
0000
0010
0000
0000
0000
0001
0000
0000
0000
1000
0000
0000
0000
0001
0000
0000
0000
0100
0000
0000
0000
0010
0000
0000
0000
,
2000
0000
3001
0100
0010
0000
1000
0001
1000
0000
0100
0010
0001
0000
2000
0000
,
3020
0000
0130
0001
2000
0000
3100
0010
0002
0000
1003
0010
0200
0000
0301
1000
,
0002
0000
0013
0100
2000
0000
3010
0100
0002
0000
1003
0010
0200
0000
0302
0000
,
2003
0000
3100
0010
0002
0000
0103
0010
0200
0000
0301
1000
0020
0000
0130
0010
,
2000
0000
0000
0000
0000
0000
3001
0000
0000
0100
0000
0000
0001
0000
0000
0000
1000
0000
0000
0000
0010
0000
0000
0000
0400
0000
0000
0000
0000
0000
0301
0000
0000
1000
0000
0000
0010
0000
0000
0000
0000
0000
0200
0000
0000
0000
0000
0000
,
0302
0000
1003
0010
2000
0000
3001
0100
0020
0000
1030
0100
2000
0000
3001
0100
,
0020
0000
0130
0001
2000
0000
3100
0010
0002
0000
1003
0100
2000
0000
3020
0000
,
0230
0000
0000
0000
0000
0000
0301
0000
0000
1000
0000
0000
0002
0000
0000
0000
0000
0000
0013
0000
0000
0100
0000
0000
1000
0000
0000
0000
0100
0000
0000
0000
0010
0000
0000
0000
0001
0000
0000
0000
0010
0000
0000
0000
0100
0000
0000
0000
,
2000
0000
3010
0100
0001
0000
2000
0000
3100
0000
0020
0000
0031
0100
0010
1000
,
0M02
0M00
0M00
0M00
0M00
0M00
0M00
0M00
1M03
0000
0000
0000
0010
0000
0000
0000
0100
0000
0000
0000
0010
0000
0000
0000
1000
0000
0000
0000
0001
0000
0000
0000
0200
0000
0000
0000
0000
0000
0000
0000
M000
0000
0000
0000
0000
0000
0000
0000
0000
0000
0000
0000
0000
0000
0000
0000
0000
0000
0000
0000
0300
0000
0000
0000
,
0020
0000
0130
0001
1000
0010
0100
0001
2000
0000
0000
0000
0000
0000
0000
3000
,
0020
0000
0130
0001
1000
0001
0010
0100
2000
0000
0000
0000
0000
0000
0000
3000
,
0020
0000
0130
0001
1000
0100
0010
0001
0200
0000
0000
0000
0000
0000
0000
0300
,
0020
0000
1030
0100
1000
0010
1000
0001
0200
0000
0000
0000
0000
0000
0000
0300
,
0020
0000
1030
0001
1000
0010
0100
0001
2000
0000
0000
0000
0000
0000
0000
3000
,
0200
0000
0310
0001
1000
0010
1000
0001
0020
0000
0000
0000
0000
0000
0000
0030
,
0200
0000
1300
0001
1000
0100
0010
0001
0200
0000
0000
0000
0320
0000
2030
0000
,
32M4
0000
0303
M4M2
0000
0303
0020
0000
1030
0000
4MM2
0000
3103
0000
0010
1000
,
0M2M
0000
0030
0000
0100
0001
0100
0001
1000
0000
0100
0000
0020
0030
0000
0000
,
MM42
0000
0033
MM42
0000
0033
2000
3000
0010
0000
M24M
0000
1330
0000
0001
1000
,
02MM
0000
0300
0000
0010
0001
0010
0001
1000
0000
0010
0000
0200
0300
0000
0000
,
2MM4
0000
3003
4MM2
0000
3003
0200
0300
0010
0000
2M2M
0000
3031
0000
0100
0010
,
2M0M
0000
3000
0000
0100
0010
0001
0010
0100
0000
1000
0000
0002
0003
0000
0000
,
M2M2
0000
0303
M4M4
0000
0303
0010
0000
1000
0000
2MM2
0000
3103
0000
0010
0001
,
M2M0
0000
0300
0000
0010
1000
0001
1000
0100
0000
0010
0000
0002
0003
0000
0000
,
4MM4
0000
3003
4MM4
0000
3003
1000
0000
0010
0000
M22M
0330
0100
00M2
1000
0013
,
1000
0000
0000
0001
0000
0000
0100
0000
0010
0000
0100
0000
0010
0000
0000
1000
0000
0000
0001
0000
0000
1000
0000
0000
0100
0000
0000
0010
0000
0000
0001
0000
0000
1000
0000
0000
0010
0000
0000
0000
0000
0000
0100
0000
0000
0000
0000
0000
,
M4M2
0000
0303
M2M2
0000
0303
0020
0030
1000
0000
2MM2
0000
3103
0000
0010
0001
,
1M00
0000
0000
0010
0000
0000
0100
0000
0001
0000
0100
0000
0001
0000
0000
1000
0000
0000
0010
0000
0000
1000
0000
0000
0100
0000
0000
0010
0000
0000
0001
0000
0000
1000
0000
0000
0001
0000
0000
0100
0000
0000
0010
0000
0000
1000
0000
0000
,
2MM2
0000
3003
2MM2
0000
3003
0001
0000
M2M1
0000
0320
0000
2030
3000
0001
0100
,
M22M
0000
0330
M2M2
0000
0303
0001
0000
2MM2
3003
2MM1
0000
3020
0000
0000
0000
,
M232
M3M3
M22M
M33M
2M2M
3M3M
2MM2
3MM3
,
M2M2
M3M3
M22M
M33M
2M2M
3M3M
2MM2
3MM3
22MM
33MM
M22M
M33M
MM22
MM33
M2M2
M3M3
,
0100
0000
0000
0010
0000
0000
1000
0000
0001
0000
1000
0000
0001
0000
0000
0010
0000
0000
0100
0000
0000
1000
0000
0000
0010
0000
0000
1000
0000
0000
0001
0000
0000
0100
0000
0000
0010
0000
0000
0000
0000
0000
0100
0000
0000
0000
0000
0000
,
0001
0000
0000
1000
0000
0000
0010
0000
0100
0000
0010
0000
1000
0000
0000
0001
0000
0000
0100
0000
0000
0010
0000
0000
1000
0000
0000
0001
0000
0000
0010
0000
0000
0100
0000
0000
1000
0000
0000
0000
0000
0000
0001
0000
0000
0000
0000
0000
,
1000
0000
0000
0100
0000
0000
0010
0000
0001
0000
1000
0000
0001
0000
0000
0100
0000
0000
0010
0000
0000
1000
0000
0000
0010
0000
0000
0100
0000
0000
0001
0000
0000
1000
0000
0000
0100
0000
0000
0000
0000
0000
0010
0000
0000
0000
0000
0000
,
0001
0000
0000
1000
0000
0000
0010
0000
0100
0000
0001
0000
0100
0000
0000
0010
0000
0000
1000
0000
0000
0001
0000
0000
0010
0000
0000
0001
0000
0000
0100
0000
0000
0010
0000
0000
2000
0000
0000
0000
0000
0000
0000
0000
0000
0000
0000
0000
,
3002
0000
0100
0000
0100
0000
0100
0000
0103
000M
0010
0000
1000
0000
0001
0000
,
1000
0100
0010
0001
1000
0010
0100
0001
,
1000
0100
0010
0001
1000
0100
1000
0010
0100
0001
1000
0001
0010
0100
1000
0001
,
0100
0000
0010
0000
0100
0000
0001
0000
1000
0000
0010
0000
1000
0000
0100
0000
0010
0000
0001
0000
1000
0000
0001
0000
0100
0000
0000
0000
0000
0000
0010
0000
0000
1000
0000
0000
0000
0000
0000
0001
0000
0000
2000
0000
0000
0000
0000
0000
,
3001
0000
0100
0010
1000
0000
0001
0000
1000
0000
0100
0000
0010
0000
0001
0000
,
1000
0000
0010
0100
0001
0000
1000
0000
0001
0100
0010
0000
1000
0010
0100
0001
,
1000
0000
0100
0010
0001
0000
1000
0000
0010
0000
0100
0000
0010
0000
1000
0000
,
0001
0000
0000
1000
0100
1000
0100
0000
0000
0100
0010
0100
0010
0000
0000
0010
0001
0010
0001
0000
0000
0001
1000
0001
,
1000
0000
0010
0100
0001
0000
1000
0000
0100
0000
1000
0000
0010
0000
0100
0000
,
0001
0000
1000
0010
0100
0000
0001
0000
0010
0100
1000
0000
0010
0100
0001
1000
,
0001
0000
0100
0010
1000
0000
0001
0000
1000
0000
0100
0000
0010
0000
0001
0000
,
1000
0010
0100
0001
1000
0010
1000
0001
0100
0000
0010
1000
0001
0000
0010
0000
,
0100
0000
1000
0000
0001
0000
1000
0000
0010
0000
0100
0001
1000
0000
0100
0000
,
0010
0001
1000
0000
0001
0100
0010
1000
0010
0000
0100
0001
1000
0000
0100
0000
,
0010
0000
0000
0001
0000
0000
1000
0000
0000
0010
0000
0000
0100
0000
0000
0001
0010
0100
1000
0000
0000
0001
0100
0010
,
1000
0000
0000
0000
0000
0000
0001
0000
0010
0000
0100
0000
1000
0000
0000
0000
0000
0000
0001
0000
0100
0000
0010
0000
1000
0000
0000
0000
0000
0000
0010
0000
0000
0100
0000
0000
0001
0000
0000
0000
0000
0000
1000
0000
0000
0000
0000
0000
,
0001
0000
0010
0000
0100
0000
1000
0000
0010
0000
0100
0001
1000
0000
0001
0000
,
0100
0010
1000
0000
0001
1000
0001
0010
0100
0000
1000
0010
0100
0000
0001
0000
,
1000
0000
0001
0000
0100
0000
0010
0000
1000
0001
0100
0001
1000
0010
1000
0001
,
0010
0100
1000
0001
1000
0000
0100
0010
0001
1000
0001
0000
0100
0000
0010
1000
,
0010
0000
0100
0001
1000
0000
0100
0000
0010
0001
1000
0000
0001
0100
0001
1000
,
0010
0000
0100
0001
1000
0000
0100
0000
0010
0001
1000
0010
1000
0000
0001
0100
,
0010
0000
0000
1000
0100
0010
0001
0000
0000
1000
0010
0100
0001
0000
0000
1000
0100
0010
0001
0000
0000
1000
0010
0100
,
0001
0100
0001
1000
0010
0000
0100
0001
1000
0100
1000
0000
0010
0000
0100
0001
,
1000
0000
0010
1000
0010
0000
0100
0000
0001
1000
0001
0000
0010
0100
1000
0001
,
1000
0000
0010
0100
0001
0000
1000
0000
0010
0100
0001
1000
0001
0000
0100
0010
,
1000
1000
0100
0100
0010
0010
0001
1000
0010
0100
0001
1000
0100
0000
0010
0001
,
1000
0010
1000
0000
0001
0000
0100
0010
0100
0000
0001
1000
0010
0000
0100
0000
,
0001
1000
0100
0000
0010
0001
1000
0001
0100
0000
0010
1000
0010
0000
0100
0000
,
0001
0000
0000
0000
0000
0000
1000
0000
0000
0000
0000
0000
0100
0000
0000
0010
0000
0000
0001
0000
0000
0000
0000
0000
1000
0000
0000
0000
0000
0000
0000
0000
0000
0000
0000
0000
0010
0000
0000
0000
0000
0000
0100
0000
0000
0000
0000
0000
0010
0000
0000
0000
0000
0000
0000
0000
0000
0000
0000
0000
1000
0000
0000
0000
0001
0000
0000
0000
1000
0000
0000
0000
0010
0000
0000
0000
0000
0000
0000
0000
0000
0000
0000
0000
0100
0000
0000
0000
0001
0000
0000
0000
1000
0000
0000
0000
,
0001
0000
0000
0000
0000
0000
0100
0000
0010
0000
0100
0000
0001
0000
0000
0000
0000
0000
1000
0000
0010
0000
1000
0000
0010
0000
0000
0100
0000
0000
0001
0000
0000
1000
0000
0000
0001
0000
0000
0000
0000
0000
0010
0000
0000
0100
0000
0000
,
1000
0010
1000
0000
0001
0000
0100
0010
1000
0001
0010
0100
1000
0001
0100
0010
,
0100
0000
0000
0000
0000
0000
0000
0000
0000
0000
0001
0000
0000
0000
0000
0000
0000
0000
0000
1000
0000
0000
0000
0000
0000
0000
0000
0000
0000
0010
0000
0000
0000
0000
0000
0000
0000
0000
0100
0000
0000
0000
0000
0000
0000
0000
0000
0000
0001
0000
0000
0000
0000
0000
0000
0000
0000
0000
1000
0000
0000
0000
0000
0000
0000
0000
0000
0100
0000
0000
0000
0000
0000
0000
0000
0000
0000
0010
0000
0000
0000
0000
0000
0000
0000
0000
0001
0000
0000
0000
0000
0000
0000
0000
0000
0000
0200
0000
0000
0000
0000
0000
0000
0000
0000
0000
0000
0000
0000
0000
0000
0000
0000
0000
0000
0000
0000
0000
0000
0000
0001
0000
0000
0000
0000
0000
0000
0000
0000
0000
0000
0000
0000
0000
0000
0000
0000
0000
0000
0000
0000
0000
0000
0000
0301
0000
0000
0000
0000
0000
0000
0000
0000
0000
0000
0000
0000
0000
0000
0000
0000
0000
0000
0000
0000
0000
0000
0000
0001
0000
0000
0000
0000
0000
0000
0000
0000
0000
0000
0000
0000
0000
0000
0000
0000
0000
0000
0000
0000
0000
0000
0000
,
2000
0000
0000
0000
,
0001
0000
0000
0000
,
3001
0000
0000
1000
0000
0000
0010
0000
0000
0100
0000
0000
0020
0000
0000
0000
0000
0000
1030
0000
0001
0000
0100
0000
0010
0000
1000
0000
0001
0000
0010
0000
0100
0000
1000
0000
0002
0000
0000
0003
0000
0000
0100
0000
0000
0000
0000
0000
,
0001
0000
0000
1000
0000
0000
0010
0000
0000
1000
0000
0000
0200
0000
0000
0000
0000
0000
0310
0000
0001
0000
1000
0000
0001
0000
0100
0000
0010
0000
1000
0000
0010
0000
0100
0000
0002
0000
0000
0000
0000
0000
2003
0000
0000
0000
0000
0000
,
3100
0000
0000
0010
0000
0000
0001
0000
0000
1000
0000
0000
0002
0000
0000
0000
0000
0000
0103
0000
0010
0000
1000
0000
0001
0000
1000
0000
0100
0000
0010
0000
0001
0000
1000
0000
0020
0000
0000
0030
0000
0000
0100
0000
0000
0000
0000
0000
,
0001
0000
0000
1000
0000
0000
0100
0000
0000
1000
0000
0000
0020
0000
0000
0000
0000
0000
0130
0000
0001
0000
1000
0000
0100
0000
1000
0000
0001
0000
0010
0000
0100
0000
0010
0000
0001
0000
0000
0100
0000
0000
0001
0000
0000
0100
0000
0000
,
0010
0000
0000
1000
0000
0000
0100
0000
0000
1000
0000
0000
0002
0000
0000
0000
0000
0000
0013
0000
0100
0000
1000
0000
0001
0000
1000
0000
0010
0000
0100
0000
0001
0000
0100
0000
0020
0000
0000
0030
0000
0000
1000
0000
0000
0000
0000
0000
,
0001
0000
0000
1000
0000
0000
0010
0000
0000
1000
0000
0000
0200
0000
0000
0000
0000
0000
0310
0000
0001
0000
1000
0000
0001
0000
0100
0000
0010
0000
1000
0000
0010
0000
0100
0000
0001
0000
0000
1000
0000
0000
0001
0000
0000
0100
0000
0000
,
0010
0000
0000
1000
0000
0000
0001
0000
0100
0000
0001
0000
0200
0000
0000
0000
0000
0000
0320
0000
0000
0000
0000
0000
1030
0000
0000
0001
0000
0000
1000
0000
0000
0100
0000
0000
0010
0000
0000
0001
0000
0000
2000
0000
0000
3000
0000
0000
,
0010
0100
0001
1000
0010
0100
0001
1000
0001
0010
0100
1000
0001
0010
0100
1000
,
0010
0000
0000
0100
0000
0000
0001
0000
0000
1000
0000
0000
0002
0000
0000
0000
0000
0000
0013
0000
0100
0000
1000
0000
0001
0000
1000
0000
0010
0000
0100
0000
0001
0000
1000
0000
0200
0000
0000
0300
0000
0000
0010
0000
0000
0000
0000
0000
,
0001
0000
0000
1000
0000
0000
0001
0000
0000
0100
0000
0000
0020
0000
0000
0000
0000
0000
1030
0000
0100
0000
1000
0000
0001
0000
0010
0000
0001
0000
1000
0000
0010
0000
0100
0000
0020
0000
0000
0000
0000
0000
2030
0000
0000
0000
0000
0000
,
3001
0000
0000
0100
0000
0000
0010
0000
0000
1000
0000
0000
0020
0000
0000
0000
0000
0000
0130
0000
0001
0000
1000
0000
0100
0000
1000
0000
0010
0000
0100
0000
0010
0000
1000
0000
0002
0000
0000
0003
0000
0000
0010
0000
0000
0000
0000
0000
,
0100
0000
0000
1000
0000
0000
0001
0000
0000
1000
0000
0000
0020
0000
0000
0000
0000
0000
0130
0000
0001
0000
1000
0000
0010
0000
1000
0000
0001
0000
0010
0000
0001
0000
0100
0000
0010
0000
0000
1000
0000
0000
0010
0000
0000
1000
0000
0000
,
0001
0000
0000
0010
0000
0000
0100
0000
0000
1000
0000
0000
0002
0000
0000
0000
0000
0000
0103
0000
0010
0000
1000
0000
0010
0000
0100
0000
0001
0000
0010
0000
0100
0000
1000
0000
0002
0000
0000
0003
0000
0000
0100
0000
0000
0000
0000
0000
,
0010
0000
0000
1000
0000
0000
0010
0000
0000
0100
0000
0000
0002
0000
0000
0000
0000
0000
1003
0000
0100
0000
1000
0000
0010
0000
0100
0000
0010
0000
1000
0000
0001
0000
0100
0000
0010
0000
0000
0100
0000
0000
0010
0000
0000
0100
0000
0000
,
0001
0000
0000
0010
0000
0000
0001
0000
1000
0000
0001
0000
2000
0000
0000
0000
3000
0000
0010
0000
0000
0100
0000
0000
0001
0000
1000
0000
0100
0000
0010
0000
0001
0000
1000
0000
0020
0000
0000
0130
0000
0000
0002
0000
0000
0003
0000
0000
,
1000
0000
0100
0000
0010
0000
0001
0000
1000
0000
0100
0000
0010
0000
0001
0000
1000
0000
0010
0000
0100
0001
0100
0001
1000
0000
0010
0000
0100
0000
0001
0000
,
2000
0000
3010
0100
0002
0000
1003
0000
0200
0000
0310
0001
2000
0000
3010
0000
,
0200
0000
0301
1000
0002
0000
0103
0000
0020
0000
1030
0001
2000
0000
3100
0000
,
0020
0000
0031
1000
0020
0000
0130
0000
0002
0000
1003
0100
2000
0000
3010
0000
,
0200
0000
0000
0000
0000
0000
0301
0000
0000
1000
0000
0000
0010
0000
0000
0000
0100
0000
0000
0000
0010
0000
0000
0000
2000
0000
0000
3000
0000
0000
0001
0000
0000
0100
0000
0000
0010
0000
0000
0000
0000
0000
2000
0000
0000
0000
0000
0000
,
3002
0000
0013
0100
2000
0000
3010
0000
0200
0000
0301
1000
0002
0000
0013
0000
,
0200
0000
1300
0010
0200
0000
0301
0000
0020
0000
0130
1000
0002
0000
0203
0000
,
0320
0000
0000
0000
0000
0000
1030
0000
0000
0001
0000
0000
2000
0000
0000
0000
0000
0000
3100
0000
0000
0000
0000
0000
0010
0000
0000
0000
0001
0000
0000
0000
1000
0000
0000
0000
0001
0000
0000
0000
0100
0000
0000
0000
0010
0000
0000
0000
,
2000
0000
3001
0100
0010
0000
1000
0001
1000
0000
0100
0010
0001
0000
2000
0000
,
3020
0000
0130
0001
2000
0000
3100
0010
0002
0000
1003
0010
0200
0000
0301
1000
,
0002
0000
0013
0100
2000
0000
3010
0100
0002
0000
1003
0010
0200
0000
0302
0000
,
2003
0000
3100
0010
0002
0000
0103
0010
0200
0000
0301
1000
0020
0000
0130
0010
,
2000
0000
0000
0000
0000
0000
3001
0000
0000
0100
0000
0000
0001
0000
0000
0000
1000
0000
0000
0000
0010
0000
0000
0000
0400
0000
0000
0000
0000
0000
0301
0000
0000
1000
0000
0000
0010
0000
0000
0000
0000
0000
0200
0000
0000
0000
0000
0000
,
0302
0000
1003
0010
2000
0000
3001
0100
0020
0000
1030
0100
2000
0000
3001
0100
,
0020
0000
0130
0001
2000
0000
3100
0010
0002
0000
1003
0100
2000
0000
3020
0000
,
0230
0000
0000
0000
0000
0000
0301
0000
0000
1000
0000
0000
0002
0000
0000
0000
0000
0000
0013
0000
0000
0100
0000
0000
1000
0000
0000
0000
0100
0000
0000
0000
0010
0000
0000
0000
0001
0000
0000
0000
0010
0000
0000
0000
0100
0000
0000
0000
,
2000
0000
3010
0100
0001
0000
2000
0000
3100
0000
0020
0000
0031
0100
0010
1000
,
0MM2
0MM0
0MM0
0MM0
0MM0
0MM0
0MM0
0MM0
0MM0
0MM0
0MM0
0MM0
0MM0
0MM0
0MM0
0MM0
0MM0
0MM0
0MM0
0MM0
0MM0
0MM0
0MM0
0MM0
0MM0
0000
0000
0000
0000
M000
0000
0000
0000
0000
0000
0000
M000
0000
0000
0000
0000
0000
0000
0000
0M00
0000
0000
0000
0000
0000
0000
0000
00M0
0000
0000
0000
0000
0000
0000
0000
M000
0000
0000
0000
0000
0000
0000
0000
00M0
0000
0000
0000
0000
0000
0000
0000
0M00
0000
0000
0000
0000
0000
0000
0000
00M0
0000
0000
0000
0000
0000
0000
0000
0000
0000
0000
0000
0M03
0000
0000
0000
0000
0000
0000
0000
0000
0000
0000
0000
2000
0000
0000
0000
0000
0000
0000
0000
0000
0000
0000
0000
0000
0000
0000
0000
0000
0000
0000
0000
0000
0000
0000
0000
000M
0000
0000
0000
000M
0000
0000
0000
000M
0000
0000
0000
000M
0000
0000
0000
000M
0000
0000
0000
000M
0000
0000
0000
000M
0000
0000
0000
0000
0000
0000
0000
0000
0000
0000
0000
0000
0000
0000
0000
0000
0000
0000
0000
0000
0000
0000
0000
0000
0000
0000
0000
0000
0000
0000
0000
0000
0000
0000
0000
,
0000
0000
0000
0000
00M0
0000
00M0
0000
00M0
0000
00M0
0000
00M0
0000
00M0
0000
0000
0000
0000
0000
0000
0000
0000
0000
0000
0000
0000
0000
0000
0000
0000
0000
0000
0000
0000
0000
0000
0000
0000
0000
0000
0000
3000
0000
0000
0000
0000
0000
MMMM
0000
0000
MMMM
0000
0000
MMMM
0000
0000
MMMM
0000
0000
MMMM
0000
0000
MMMM
0000
0000
MMMM
0000
0000
MMMM
0000
0000
MMMM
0000
0000
0000
0000
0000
0000
0000
0000
0000
0000
0000
0000
0000
0000
0000
0000
0000
0000
0000
0000
0000
0000
0000
;

//---------------dance-single - 18 (Owem)----------------
#NOTES:
     dance-single:
     18 (Owem):
     Challenge:
     18:
     1.000,1.000,0.127,1.000,1.000,1780.000,33.000,305.000,264.000,4.000:
1MM2
0000
1003
0100
0010
0001
1000
0001
0200
0000
00M0
0000
0000
0000
0000
0300
,
0002
0000
1003
0010
1000
0100
0010
0001
2000
0000
0000
0000
0000
0000
0000
3000
,
0020
0000
0130
0001
1000
0001
0010
0100
2000
0000
0000
0000
0000
0000
0000
3000
,
0020
0000
0130
0001
1000
0100
0010
0001
0200
0000
0000
0000
0000
0000
0000
0300
,
002M
000M
000M
000M
103M
0000
0100
0000
1000
0000
0010
0000
1000
0000
0001
0000
0200
0000
0000
0000
0000
0000
0000
0000
0000
0000
0000
0000
0000
0000
0300
0000
,
0020
0000
1030
0001
1000
0010
0100
0001
2000
0000
0000
0000
0000
0000
0000
3000
,
0200
0000
0310
0001
1000
0010
1000
0001
0020
0000
0000
0000
0000
0000
0000
0030
,
0200
0000
1300
0001
1000
0100
0010
0001
0200
0000
0000
0000
0320
0000
2030
0000
,
3001
0000
0000
0100
0000
0000
0010
0000
0100
0000
0001
0000
1000
0000
0000
0010
0000
0000
0100
0000
0000
0010
0000
0000
1000
0000
0000
0001
0000
0000
1000
0000
0000
0100
0000
0000
0010
0000
0000
0000
0000
0000
0001
0000
0000
0000
0000
0000
,
1000
0000
0000
0010
0000
0000
0100
0000
0001
0000
1000
0000
0001
0000
0000
0010
0000
0000
0100
0000
0000
1000
0000
0000
0001
0000
0000
0100
0000
0000
0010
0000
0000
1000
0000
0000
0010
0000
0000
0000
0000
0000
0100
0000
0000
0001
0000
0000
,
1000
0000
0000
0100
0000
0000
0010
0000
0001
0000
1000
0000
0001
0000
0000
0100
0000
0000
0010
0000
0000
0100
0000
0000
0001
0000
0000
1000
0000
0000
0010
0000
0000
1000
0000
0000
0100
0000
0000
0000
0000
0000
0010
0000
0000
0000
0000
0000
,
0001
0000
0000
1000
0000
0000
0001
0000
0100
0000
0010
0000
1000
0000
0000
0010
0000
0000
0100
0000
0000
0001
0000
0000
1000
0000
0000
0100
0000
0000
0010
0000
0000
0100
0000
0000
1000
0000
0000
0000
0000
0000
0001
0000
0000
0100
0000
0000
,
0002
0003
1000
0010
0200
0300
0002
0003
2000
3000
0100
0010
0002
0003
2000
3000
,
0020
0030
0100
0001
0200
0300
0020
0030
2000
3000
0001
0010
0200
0300
2000
3000
,
0001
0010
0100
1000
0001
1000
0010
0100
0010
1000
0001
1000
0100
0010
0100
1000
,
0002
0000
0000
0000
0000
0000
0000
0000
0000
0000
0000
0000
0000
0000
0000
0000
0203
0000
0300
0000
0200
0000
0300
0000
0020
0000
0030
0000
0020
0000
0030
0000
2000
0000
3000
0000
4000
0000
3000
0000
0004
0000
0003
0000
0004
0000
0003
0000
0200
0300
0000
0000
0000
0000
0000
0000
0000
0000
0000
0000
0000
0000
0000
0000
,
0010
0000
1000
0000
0010
0000
0100
0000
0002
0000
0000
0000
1003
0100
0010
0001
1000
0001
0100
0010
1000
0010
0100
0001
0020
0000
0030
0000
0001
0000
0000
0000
,
1000
0000
0010
0000
1000
0000
0001
0000
0200
0000
0000
0000
0310
1000
0001
0100
0001
1000
0100
0010
0001
1000
0010
0100
0002
0000
0000
0000
2003
0000
0000
0000
,
3100
0000
0010
0000
0001
0000
1000
0000
0002
0000
0000
0000
0103
0010
1000
0010
0100
0001
1000
0100
1000
0001
0100
0010
0200
0000
0300
0000
0001
0000
0000
0000
,
1000
0000
0010
0000
0100
0000
0010
0000
2000
0000
0000
0000
3100
0010
0001
1000
0001
0100
0010
1000
0010
0100
0001
1000
0001
0000
0100
0000
0001
0000
1000
0000
,
0010
0000
0100
0000
0010
0000
1000
0000
0002
0000
0000
0000
0013
0100
1000
0001
1000
0010
0100
0010
1000
0001
0100
0001
0020
0000
0030
0000
0100
0000
0000
0000
,
1000
0000
0010
0000
1000
0000
0001
0000
0200
0000
0000
0000
0310
1000
0010
0100
0001
1000
0100
1000
0010
0100
0001
1000
0001
0000
0100
0000
0001
0000
0010
0000
,
0100
0000
0000
1000
0000
0000
0001
0000
0100
0000
0001
0000
0200
0000
0000
0000
0000
0000
0320
0000
0000
0000
0000
0000
1030
0000
0000
0001
0000
0000
1000
0000
0000
0100
0000
0000
0010
0000
0000
0001
0000
0000
2000
0000
0000
3000
0000
0000
,
0010
0100
0001
1000
0010
0100
0001
1000
0001
0010
0100
1000
0001
0010
0100
1000
,
0010
0000
0100
0000
0001
0000
1000
0000
0002
0000
0000
0000
0013
0100
1000
0001
1000
0010
0100
0010
1000
0001
0100
0010
0200
0000
0300
0000
0010
0000
0000
0000
,
1000
0000
0001
0000
1000
0000
0010
0000
0200
0000
0000
0000
0301
1000
0001
0100
0010
1000
0001
0100
0001
0010
0100
1000
0020
0000
0000
0000
2030
0000
0000
0000
,
3001
0000
0100
0000
0010
0000
1000
0000
0020
0000
0000
0000
0130
0001
1000
0010
1000
0001
0100
0010
1000
0001
1000
0010
0200
0000
0300
0000
0010
0000
0000
0000
,
1000
0000
0001
0000
1000
0000
0010
0000
0200
0000
0000
0000
0310
1000
0001
0010
0001
0100
0010
1000
0001
0100
0010
0100
0001
0000
1000
0000
0010
0000
1000
0000
,
0001
0000
0010
0000
0100
0000
1000
0000
0002
0000
0000
0000
0103
0010
1000
0010
0100
0001
1000
0001
0010
0100
1000
0001
0200
0000
0300
0000
0010
0000
0000
0000
,
1000
0000
0001
0000
1000
0000
0010
0000
0200
0000
0000
0000
0301
1000
0001
0010
0100
1000
0010
1000
0001
0100
0001
1000
0010
0000
0100
0000
0010
0000
0100
0000
,
0001
0000
0000
1000
0000
0000
0010
0000
0100
0000
0010
0000
2000
0000
0000
0000
0000
0000
3100
0000
0000
0010
0000
0000
0001
0000
0000
1000
0000
0000
0001
0000
0000
1000
0000
0000
0020
0000
0000
0130
0000
0000
0002
0000
0000
0003
0000
0000
,
1000
0000
0100
0000
0010
0000
0001
0000
1000
0000
0100
0000
0010
0000
0001
0000
1000
0000
0010
0000
0100
0001
0100
0001
1000
0000
0010
0000
0100
0000
0001
0000
,
2000
0000
3010
0100
0002
0000
1003
0000
0200
0000
0310
0001
2000
0000
3010
0000
,
0200
0000
0301
1000
0002
0000
0103
0000
0020
0000
1030
0001
2000
0000
3100
0000
,
0020
0000
0031
1000
0020
0000
0130
0000
0002
0000
1003
0100
2000
0000
3010
0000
,
0200
0000
0000
0000
0000
0000
0301
0000
0000
1000
0000
0000
0010
0000
0000
0000
0100
0000
0000
0000
0010
0000
0000
0000
2000
0000
0000
3000
0000
0000
0001
0000
0000
0100
0000
0000
0010
0000
0000
0000
0000
0000
2000
0000
0000
0000
0000
0000
,
3002
0000
0013
0100
2000
0000
3010
0000
0200
0000
0301
1000
0002
0000
0013
0000
,
0200
0000
1300
0010
0200
0000
0301
0000
0020
0000
0130
1000
0002
0000
0203
0000
,
0320
0000
0000
0000
0000
0000
1030
0000
0000
0001
0000
0000
2000
0000
0000
0000
0000
0000
3100
0000
0000
0000
0000
0000
0010
0000
0000
0000
0001
0000
0000
0000
1000
0000
0000
0000
0001
0000
0000
0000
0100
0000
0000
0000
0010
0000
0000
0000
,
2000
0000
3001
0100
0010
0000
1000
0001
1000
0000
0100
0010
0001
0000
2000
0000
,
3020
0000
0130
0001
2000
0000
3100
0010
0002
0000
1003
0010
0200
0000
0301
1000
,
0002
0000
0013
0100
2000
0000
3010
0100
0002
0000
1003
0010
0200
0000
0302
0000
,
2003
0000
3100
0010
0002
0000
0103
0010
0200
0000
0301
1000
0020
0000
0130
0010
,
2000
0000
0000
0000
0000
0000
3001
0000
0000
0100
0000
0000
0001
0000
0000
0000
1000
0000
0000
0000
0010
0000
0000
0000
0400
0000
0000
0000
0000
0000
0301
0000
0000
1000
0000
0000
0010
0000
0000
0000
0000
0000
0200
0000
0000
0000
0000
0000
,
0302
0000
1003
0010
2000
0000
3001
0100
0020
0000
1030
0100
2000
0000
3001
0100
,
0020
0000
0130
0001
2000
0000
3100
0010
0002
0000
1003
0100
2000
0000
3020
0000
,
0230
0000
0000
0000
0000
0000
0301
0000
0000
1000
0000
0000
0002
0000
0000
0000
0000
0000
0013
0000
0000
0100
0000
0000
1000
0000
0000
0000
0100
0000
0000
0000
0010
0000
0000
0000
0001
0000
0000
0000
0010
0000
0000
0000
0100
0000
0000
0000
,
2000
0000
3010
0100
0001
0000
2000
0000
3100
0000
0020
0000
0031
0100
0010
1000
,
0M02
0M00
0M00
0M00
0M00
0M00
0M00
0M00
1M03
0000
0000
0000
0010
0000
0000
0000
0100
0000
0000
0000
0010
0000
0000
0000
1000
0000
0000
0000
0001
0000
0000
0000
0200
0000
0000
0000
0000
0000
0000
0000
M000
0000
0000
0000
0000
0000
0000
0000
0000
0000
0000
0000
0000
0000
0000
0000
0000
0000
0000
0000
0300
0000
0000
0000
,
0020
0000
0130
0001
1000
0010
0100
0001
2000
0000
0000
0000
0000
0000
0000
3000
,
0020
0000
0130
0001
1000
0001
0010
0100
2000
0000
0000
0000
0000
0000
0000
3000
,
0020
0000
0130
0001
1000
0100
0010
0001
0200
0000
0000
0000
0000
0000
0000
0300
,
0020
0000
1030
0100
1000
0010
1000
0001
0200
0000
0000
0000
0000
0000
0000
0300
,
0020
0000
1030
0001
1000
0010
0100
0001
2000
0000
0000
0000
0000
0000
0000
3000
,
0200
0000
0310
0001
1000
0010
1000
0001
0020
0000
0000
0000
0000
0000
0000
0030
,
0200
0000
1300
0001
1000
0100
0010
0001
0200
0000
0000
0000
0320
0000
2030
0000
,
32M4
0000
0303
M4M2
0000
0303
0020
0000
1030
0000
4MM2
0000
3103
0000
0010
1000
,
0M2M
0000
0030
0000
0100
0001
0100
0001
1000
0000
0100
0000
0020
0030
0000
0000
,
MM42
0000
0033
MM42
0000
0033
2000
3000
0010
0000
M24M
0000
1330
0000
0001
1000
,
02MM
0000
0300
0000
0010
0001
0010
0001
1000
0000
0010
0000
0200
0300
0000
0000
,
2MM4
0000
3003
4MM2
0000
3003
0200
0300
0010
0000
2M2M
0000
3031
0000
0100
0010
,
2M0M
0000
3000
0000
0100
0010
0001
0010
0100
0000
1000
0000
0002
0003
0000
0000
,
M2M2
0000
0303
M4M4
0000
0303
0010
0000
1000
0000
2MM2
0000
3103
0000
0010
0001
,
M2M0
0000
0300
0000
0010
1000
0001
1000
0100
0000
0010
0000
0002
0003
0000
0000
,
4MM4
0000
3003
4MM4
0000
3003
1000
0000
0010
0000
M22M
0330
0100
00M2
1000
0013
,
1000
0000
0000
0001
0000
0000
0100
0000
0010
0000
0100
0000
0010
0000
0000
1000
0000
0000
0001
0000
0000
1000
0000
0000
0100
0000
0000
0010
0000
0000
0001
0000
0000
1000
0000
0000
0010
0000
0000
0000
0000
0000
0100
0000
0000
0000
0000
0000
,
M4M2
0000
0303
M2M2
0000
0303
0020
0030
1000
0000
2MM2
0000
3103
0000
0010
0001
,
1M00
0000
0000
0010
0000
0000
0100
0000
0001
0000
0100
0000
0001
0000
0000
1000
0000
0000
0010
0000
0000
1000
0000
0000
0100
0000
0000
0010
0000
0000
0001
0000
0000
1000
0000
0000
0001
0000
0000
0100
0000
0000
0010
0000
0000
1000
0000
0000
,
2MM2
0000
3003
2MM2
0000
3003
0001
0000
M2M1
0000
0320
0000
2030
3000
0001
0100
,
M22M
0000
0330
M2M2
0000
0303
0001
0000
2MM2
3003
2MM1
0000
3020
0000
0000
0000
,
M232
M3M3
M22M
M33M
2M2M
3M3M
2MM2
3MM3
,
M2M2
M3M3
M22M
M33M
2M2M
3M3M
2MM2
3MM3
22MM
33MM
M22M
M33M
MM22
MM33
M2M2
M3M3
,
0100
0000
0000
0010
0000
0000
1000
0000
0001
0000
1000
0000
0001
0000
0000
0010
0000
0000
0100
0000
0000
1000
0000
0000
0010
0000
0000
1000
0000
0000
0001
0000
0000
0100
0000
0000
0010
0000
0000
0000
0000
0000
0100
0000
0000
0000
0000
0000
,
0001
0000
0000
1000
0000
0000
0010
0000
0100
0000
0010
0000
1000
0000
0000
0001
0000
0000
0100
0000
0000
0010
0000
0000
1000
0000
0000
0001
0000
0000
0010
0000
0000
0100
0000
0000
1000
0000
0000
0000
0000
0000
0001
0000
0000
0000
0000
0000
,
1000
0000
0000
0100
0000
0000
0010
0000
0001
0000
1000
0000
0001
0000
0000
0100
0000
0000
0010
0000
0000
1000
0000
0000
0010
0000
0000
0100
0000
0000
0001
0000
0000
1000
0000
0000
0100
0000
0000
0000
0000
0000
0010
0000
0000
0000
0000
0000
,
0001
0000
0000
1000
0000
0000
0010
0000
0100
0000
0001
0000
0100
0000
0000
0010
0000
0000
1000
0000
0000
0001
0000
0000
0010
0000
0000
0001
0000
0000
0100
0000
0000
0010
0000
0000
2000
0000
0000
0000
0000
0000
0000
0000
0000
0000
0000
0000
,
3002
0000
0100
0000
0100
0000
0100
0000
0103
000M
0010
0000
1000
0000
0001
0000
,
1000
0100
0010
0001
1000
0010
0100
0001
,
1000
0100
0010
0001
1000
0100
1000
0010
0100
0001
1000
0001
0010
0100
1000
0001
,
0100
0001
1000
0010
1000
0100
0010
0001
1000
0100
1000
0010
0100
0001
1000
0010
0100
0000
0000
0000
0010
0000
1000
0000
0000
0000
0001
0000
2000
0000
0000
0000
,
3001
0000
0100
0010
1000
0000
0001
0000
1000
0000
0100
0000
0010
0000
0001
0000
,
1000
0000
0010
0100
0001
0000
1000
0000
0001
0100
0010
0000
1000
0010
0100
0001
,
1000
0000
0100
0010
0001
0000
1000
0000
0010
0000
0100
0000
0010
0000
1000
0000
,
0001
0000
0000
0000
0000
0000
0000
0000
0000
0000
0000
0000
1000
0000
0000
0100
0000
0000
0010
0000
0000
0000
0000
0000
0000
0000
0000
0000
0000
0000
0000
0000
0000
0000
0000
0000
0001
0000
0000
0010
0000
0000
0100
0000
0000
0000
0000
0000
0000
0000
0000
0000
0000
0000
0000
0000
0000
0000
0000
0000
1000
0000
0000
0100
0000
0000
0010
0000
0000
0000
0000
0000
0000
0000
0000
0000
0000
0000
0000
0000
0000
0000
0000
0000
0001
0000
0000
0000
0010
0000
0000
0000
0100
0000
0000
0000
,
1000
0000
0010
0100
0001
0000
1000
0000
0100
0000
1000
0000
0010
0000
0100
0000
,
0001
0000
1000
0010
0100
0000
0001
0000
0010
0100
1000
0000
0010
0100
0001
1000
,
0001
0000
0100
0010
1000
0000
0001
0000
1000
0000
0100
0000
0010
0000
0001
0000
,
1000
0010
0100
0001
1000
0010
1000
0001
0100
0000
0010
1000
0001
0000
0010
0000
,
0100
0000
1000
0000
0001
0000
1000
0000
0010
0000
0100
0001
1000
0000
0100
0000
,
0010
0001
1000
0000
0001
0100
0010
1000
0010
0000
0100
0001
1000
0000
0100
0000
,
0010
0000
0000
0000
0001
0000
0000
0000
1000
0000
0000
0000
0010
0000
0000
0000
0100
0000
0000
0000
0001
0100
0010
0000
0000
0000
0000
0000
1000
0010
0100
0000
,
0000
0000
0000
0000
0001
0100
0010
0000
0000
0000
0000
0000
1000
0010
0100
0001
1000
0000
0000
0000
0010
0000
0100
0000
0001
0000
0000
0000
1000
0000
0000
0000
,
0001
0000
0010
0000
0100
0000
1000
0000
0010
0000
0100
0001
1000
0000
0001
0000
,
0100
0010
1000
0000
0001
1000
0001
0010
0100
0000
1000
0010
0100
0000
0001
0000
,
1000
0000
0001
0000
0100
0000
0010
0000
1000
0001
0100
0001
1000
0010
1000
0001
,
0010
0100
1000
0001
1000
0000
0100
0010
0001
1000
0001
0000
0100
0000
0010
1000
,
0010
0000
0100
0001
1000
0000
0100
0000
0010
0001
1000
0000
0001
0100
0001
1000
,
0010
0000
0100
0001
1000
0000
0100
0000
0010
0001
1000
0010
1000
0000
0001
0100
,
0010
0000
0000
0000
1000
0100
0010
0000
0000
0000
0000
0000
0001
0100
0010
0000
0000
0000
0000
0000
1000
0010
0100
0000
0000
0000
0000
0000
0001
0100
0010
1000
,
0001
0100
0001
1000
0010
0000
0100
0001
1000
0100
1000
0000
0010
0000
0100
0001
,
1000
0000
0010
1000
0010
0000
0100
0000
0001
1000
0001
0000
0010
0100
1000
0001
,
1000
0000
0010
0100
0001
0000
1000
0000
0010
0100
0001
1000
0001
0000
0100
0010
,
1000
1000
0100
0100
0010
0010
0001
1000
0010
0100
0001
1000
0100
0000
0010
0001
,
1000
0010
1000
0000
0001
0000
0100
0010
0100
0000
0001
1000
0010
0000
0100
0000
,
0001
1000
0100
0000
0010
0001
1000
0001
0100
0000
0010
1000
0010
0000
0100
0000
,
0001
0000
1000
0000
0100
0010
0001
0000
1000
0000
0000
0000
0010
0000
0100
0000
0010
0000
0000
0000
1000
0001
0100
0000
0000
0000
0000
0000
0001
0100
0010
0000
,
0000
0000
0000
0000
1000
0010
0100
0000
0000
0000
0000
0000
0001
0100
0010
1000
0001
0000
0100
0000
0010
0000
1000
0000
0001
0000
0000
0000
0010
0000
0100
0000
,
1000
0010
1000
0000
0001
0000
0100
0010
1000
0001
0010
0100
1000
0001
0100
0010
,
0100
0000
0000
0000
0000
0000
0000
0000
0000
0000
0000
0000
0001
0000
0000
0000
0000
0000
0000
0000
0000
0000
0000
0000
1000
0000
0000
0000
0000
0000
0000
0000
0000
0000
0000
0000
0010
0000
0000
0000
0000
0000
0000
0000
0000
0000
0000
0000
1000
0000
0000
0000
0000
0000
0000
0000
0000
0000
0001
0000
0000
0000
0000
0000
0000
0000
0000
0100
0000
0000
0000
0000
0000
0000
0000
0000
0000
0010
0000
0000
0000
0000
0000
0000
0000
0000
1000
0000
0000
0000
0000
0000
0000
0000
0000
0000
0002
0000
0000
0000
0000
0000
0000
0000
0000
0000
0000
0000
0000
0000
0000
0000
0000
0000
0000
0000
0000
0000
0000
0000
1000
0000
0000
0000
0000
0000
0000
0000
0000
0000
0000
0000
0000
0000
0000
0000
0000
0000
0000
0000
0000
0000
0000
0000
1003
0000
0000
0000
0000
0000
0000
0000
0000
0000
0000
0000
0000
0000
0000
0000
0000
0000
0000
0000
0000
0000
0000
0000
0001
0000
0000
0000
0000
0000
0000
0000
0000
0000
0000
0000
0000
0000
0000
0000
0000
0000
0000
0000
0000
0000
0000
0000
,
2000
0000
0000
0000
,
0001
0000
0000
0000
,
3001
0000
0100
0000
0010
0000
0100
0000
0002
0000
0000
0000
1003
0100
0010
0001
1000
0001
0100
0010
1000
0010
0100
0001
2000
0000
3000
0000
0001
0000
0000
0000
,
1000
0000
0010
0000
1000
0000
0001
0000
0200
0000
0000
0000
0310
1000
0001
0100
0001
1000
0100
0010
0001
1000
0010
0100
0002
0000
0000
0000
2003
0000
0000
0000
,
3100
0000
0010
0000
0001
0000
1000
0000
0002
0000
0000
0000
0103
0010
1000
0010
0100
0001
1000
0100
1000
0001
0100
0010
0200
0000
0300
0000
0001
0000
0000
0000
,
1000
0000
0010
0000
0100
0000
0010
0000
2000
0000
0000
0000
3100
0010
0001
1000
0001
0100
0010
1000
0010
0100
0001
1000
0001
0000
0100
0000
0001
0000
1000
0000
,
0010
0000
0100
0000
0010
0000
1000
0000
0002
0000
0000
0000
0013
0100
1000
0001
1000
0010
0100
0010
1000
0001
0100
0001
0020
0000
0030
0000
0100
0000
0000
0000
,
1000
0000
0010
0000
1000
0000
0001
0000
0200
0000
0000
0000
0310
1000
0010
0100
0001
1000
0100
1000
0010
0100
0001
1000
0001
0000
0100
0000
0001
0000
0010
0000
,
0100
0000
0000
1000
0000
0000
0001
0000
0100
0000
0001
0000
0200
0000
0000
0000
0000
0000
0320
0000
0000
0000
0000
0000
1030
0000
0000
0001
0000
0000
1000
0000
0000
0100
0000
0000
0010
0000
0000
0001
0000
0000
2000
0000
0000
3000
0000
0000
,
0010
0100
0001
1000
0010
0100
0001
1000
0001
0010
0100
1000
0001
0010
0100
1000
,
0010
0000
0100
0000
0001
0000
1000
0000
0002
0000
0000
0000
0013
0100
1000
0001
1000
0010
0100
0010
1000
0001
0100
0010
0200
0000
0300
0000
0010
0000
0000
0000
,
1000
0000
0001
0000
1000
0000
0010
0000
0200
0000
0000
0000
0301
1000
0001
0100
0010
1000
0001
0100
0001
0010
0100
1000
0020
0000
0000
0000
2030
0000
0000
0000
,
3001
0000
0100
0000
0010
0000
1000
0000
0020
0000
0000
0000
0130
0001
1000
0010
1000
0001
0100
0010
1000
0001
1000
0010
0200
0000
0300
0000
0010
0000
0000
0000
,
1000
0000
0001
0000
1000
0000
0010
0000
0200
0000
0000
0000
0310
1000
0001
0010
0001
0100
0010
1000
0001
0100
0010
0100
0001
0000
1000
0000
0010
0000
1000
0000
,
0001
0000
0010
0000
0100
0000
1000
0000
0002
0000
0000
0000
0103
0010
1000
0010
0100
0001
1000
0001
0010
0100
1000
0001
0200
0000
0300
0000
0010
0000
0000
0000
,
1000
0000
0001
0000
1000
0000
0010
0000
0200
0000
0000
0000
0301
1000
0001
0010
0100
1000
0010
1000
0001
0100
0001
1000
0010
0000
0100
0000
0010
0000
0100
0000
,
0001
0000
0000
1000
0000
0000
0010
0000
0100
0000
0010
0000
2000
0000
0000
0000
0000
0000
3100
0000
0000
0010
0000
0000
0001
0000
0000
1000
0000
0000
0001
0000
0000
1000
0000
0000
0020
0000
0000
0130
0000
0000
0002
0000
0000
0003
0000
0000
,
1000
0000
0100
0000
0010
0000
0001
0000
1000
0000
0100
0000
0010
0000
0001
0000
1000
0000
0010
0000
0100
0001
0100
0001
1000
0000
0010
0000
0100
0000
0001
0000
,
2000
0000
3010
0100
0002
0000
1003
0000
0200
0000
0310
0001
2000
0000
3010
0000
,
0200
0000
0301
1000
0002
0000
0103
0000
0020
0000
1030
0001
2000
0000
3100
0000
,
0020
0000
0031
1000
0020
0000
0130
0000
0002
0000
1003
0100
2000
0000
3010
0000
,
0200
0000
0000
0000
0000
0000
0301
0000
0000
1000
0000
0000
0010
0000
0000
0000
0100
0000
0000
0000
0010
0000
0000
0000
2000
0000
0000
3000
0000
0000
0001
0000
0000
0100
0000
0000
0010
0000
0000
0000
0000
0000
2000
0000
0000
0000
0000
0000
,
3002
0000
0013
0100
2000
0000
3010
0000
0200
0000
0301
1000
0002
0000
0013
0000
,
0200
0000
1300
0010
0200
0000
0301
0000
0020
0000
0130
1000
0002
0000
0203
0000
,
0320
0000
0000
0000
0000
0000
1030
0000
0000
0001
0000
0000
2000
0000
0000
0000
0000
0000
3100
0000
0000
0000
0000
0000
0010
0000
0000
0000
0001
0000
0000
0000
1000
0000
0000
0000
0001
0000
0000
0000
0100
0000
0000
0000
0010
0000
0000
0000
,
2000
0000
3001
0100
0010
0000
1000
0001
1000
0000
0100
0010
0001
0000
2000
0000
,
3020
0000
0130
0001
2000
0000
3100
0010
0002
0000
1003
0010
0200
0000
0301
1000
,
0002
0000
0013
0100
2000
0000
3010
0100
0002
0000
1003
0010
0200
0000
0302
0000
,
2003
0000
3100
0010
0002
0000
0103
0010
0200
0000
0301
1000
0020
0000
0130
0010
,
2000
0000
0000
0000
0000
0000
3001
0000
0000
0100
0000
0000
0001
0000
0000
0000
1000
0000
0000
0000
0010
0000
0000
0000
0400
0000
0000
0000
0000
0000
0301
0000
0000
1000
0000
0000
0010
0000
0000
0000
0000
0000
0200
0000
0000
0000
0000
0000
,
0302
0000
1003
0010
2000
0000
3001
0100
0020
0000
1030
0100
2000
0000
3001
0100
,
0020
0000
0130
0001
2000
0000
3100
0010
0002
0000
1003
0100
2000
0000
3020
0000
,
0230
0000
0000
0000
0000
0000
0301
0000
0000
1000
0000
0000
0002
0000
0000
0000
0000
0000
0013
0000
0000
0100
0000
0000
1000
0000
0000
0000
0100
0000
0000
0000
0010
0000
0000
0000
0001
0000
0000
0000
0010
0000
0000
0000
0100
0000
0000
0000
,
2000
0000
3010
0100
0001
0000
2000
0000
3100
0000
0020
0000
0031
0100
0010
1000
,
0MM2
0MM0
0MM0
0MM0
0MM0
0MM0
0MM0
0MM0
0MM0
0MM0
0MM0
0MM0
0MM0
0MM0
0MM0
0MM0
0MM0
0MM0
0MM0
0MM0
0MM0
0MM0
0MM0
0MM0
0MM0
0000
0000
0000
0000
M000
0000
0000
0000
0000
0000
0000
M000
0000
0000
0000
0000
0000
0000
0000
0M00
0000
0000
0000
0000
0000
0000
0000
00M0
0000
0000
0000
0000
0000
0000
0000
M000
0000
0000
0000
0000
0000
0000
0000
00M0
0000
0000
0000
0000
0000
0000
0000
0M00
0000
0000
0000
0000
0000
0000
0000
00M0
0000
0000
0000
0000
0000
0000
0000
0000
0000
0000
0000
0M03
0000
0000
0000
0000
0000
0000
0000
0000
0000
0000
0000
2000
0000
0000
0000
0000
0000
0000
0000
0000
0000
0000
0000
0000
0000
0000
0000
0000
0000
0000
0000
0000
0000
0000
0000
000M
0000
0000
0000
000M
0000
0000
0000
000M
0000
0000
0000
000M
0000
0000
0000
000M
0000
0000
0000
000M
0000
0000
0000
000M
0000
0000
0000
0000
0000
0000
0000
0000
0000
0000
0000
0000
0000
0000
0000
0000
0000
0000
0000
0000
0000
0000
0000
0000
0000
0000
0000
0000
0000
0000
0000
0000
0000
0000
0000
,
0000
0000
0000
0000
00M0
0000
00M0
0000
00M0
0000
00M0
0000
00M0
0000
00M0
0000
0000
0000
0000
0000
0000
0000
0000
0000
0000
0000
0000
0000
0000
0000
0000
0000
0000
0000
0000
0000
0000
0000
0000
0000
0000
0000
3000
0000
0000
0000
0000
0000
MMMM
0000
0000
MMMM
0000
0000
MMMM
0000
0000
MMMM
0000
0000
MMMM
0000
0000
MMMM
0000
0000
MMMM
0000
0000
MMMM
0000
0000
MMMM
0000
0000
MMM0
0000
0000
MMM0
0000
0000
MMM0
0000
0000
MMM0
0000
0000
MMM0
0000
0000
MM00
0000
0000
MM00
0000
0000
,
MM00
MM00
MM00
M000
M000
M000
M000
M000
M000
0000
0000
0000
0000
0000
0000
0000
0000
0000
0000
0000
0000
0000
0000
0000
0000
0000
0000
0000
0000
0000
0000
0000
;
