#TITLE:Return of Salieri;
#SUBTITLE:;
#ARTIST:Warmen;
#TITLETRANSLIT:;
#SUBTITLETRANSLIT:;
#ARTISTTRANSLIT:;
#CREDIT:DukAmok;
#BANNER:../bn.png;
#BACKGROUND:../bg.png;
#LYRICSPATH:;
#CDTITLE:;
#MUSIC:warmen-return_of_salieri.ogg;
#OFFSET:-0.410;
#SAMPLESTART:74.240;
#SAMPLELENGTH:27.060;
#SELECTABLE:YES;
#DISPLAYBPM:143.000;
#BPMS:0.000=143.000;
#STOPS:;
#BGCHANGES:;
// cache tags:
#FIRSTBEAT:16.000;
#LASTBEAT:679.500;
#SONGFILENAME:Songs/Cirque du Zonda/Zaia - Return of Salieri/Return_of_Salieri.sm;
#HASMUSIC:1;
#HASBANNER:1;
#MUSICLENGTH:289.536;
// end cache tags

//---------------dance-single - Zaia - 14.7----------------
#NOTES:
     dance-single:
     Zaia - 14.7:
     Challenge:
     14:
     1.000,1.000,0.069,0.611,1.000,2315.000,20.000,177.000,0.000,3.000:
0000
0000
0000
0000
,
0000
0000
0000
0000
,
0000
0000
0000
0000
,
0000
0000
0000
0000
,
1000
0010
1000
0001
1000
0100
0010
0100
1000
0010
0100
0001
1000
0100
1000
0001
,
0100
0001
0010
0100
1000
0001
1000
0100
0010
0001
0100
0010
1000
0010
0100
0001
,
1000
0100
0010
0100
1000
0001
0010
0001
0100
0010
1000
0001
0010
0100
1000
0001
,
1000
0010
0100
0010
1000
0001
1000
0100
1000
0001
0100
0010
1000
0001
0010
0100
,
2000
3000
0000
0000
0000
0000
0000
0000
0000
0000
0000
0000
0020
0030
0000
0000
0000
0000
0000
0000
0000
0000
0000
0000
2000
3000
0000
0000
0000
0000
0000
0000
0000
0000
0000
0000
0002
0003
0000
0000
0000
0000
0000
0000
0000
0000
0000
0000
2000
3000
0000
0000
0000
0000
0000
0000
0000
0000
0000
0000
0200
0300
0000
0000
0000
0000
0000
0000
0000
0000
0000
0000
0020
0030
0000
0000
0000
0000
0000
0000
0000
0000
0000
0000
0200
0300
0000
0000
0000
0000
0000
0000
0000
0000
0000
0000
2000
3000
0000
0000
0000
0000
0000
0000
0000
0000
0000
0000
0020
0030
0000
0000
0000
0000
0000
0000
0000
0000
0000
0000
0200
0300
0000
0000
0000
0000
0000
0000
0000
0000
0000
0000
0002
0003
0000
0000
0000
0000
0000
0000
0000
0000
0000
0000
2000
3000
0000
0000
0000
0000
0000
0000
0000
0000
0000
0000
0200
0300
0000
0000
0000
0000
0000
0000
0000
0000
0000
0000
2000
3000
0000
0000
0000
0000
0000
0000
0000
0000
0000
0000
0002
0003
0000
0000
0000
0000
0000
0000
0000
0000
0000
0000
,
0200
0300
0000
0000
0000
0000
0000
0000
0000
0000
0000
0000
0002
0003
0000
0000
0000
0000
0000
0000
0000
0000
0000
0000
0020
0030
0000
0000
0000
0000
0000
0000
0000
0000
0000
0000
0200
0300
0000
0000
0000
0000
0000
0000
0000
0000
0000
0000
2000
3000
0000
0000
0000
0000
0000
0000
0000
0000
0000
0000
0002
0003
0000
0000
0000
0000
0000
0000
0000
0000
0000
0000
2000
3000
0000
0000
0000
0000
0000
0000
0000
0000
0000
0000
0200
0300
0000
0000
0000
0000
0000
0000
0000
0000
0000
0000
0020
0030
0000
0000
0000
0000
0000
0000
0000
0000
0000
0000
0002
0003
0000
0000
0000
0000
0000
0000
0000
0000
0000
0000
0200
0300
0000
0000
0000
0000
0000
0000
0000
0000
0000
0000
0020
0030
0000
0000
0000
0000
0000
0000
0000
0000
0000
0000
2000
3000
0000
0000
0000
0000
0000
0000
0000
0000
0000
0000
0020
0030
0000
0000
0000
0000
0000
0000
0000
0000
0000
0000
0200
0300
0000
0000
0000
0000
0000
0000
0000
0000
0000
0000
0002
0003
0000
0000
0000
0000
0000
0000
0000
0000
0000
0000
,
2000
3000
0000
0000
0000
0000
0000
0000
0000
0000
0000
0000
0200
0300
0000
0000
0000
0000
0000
0000
0000
0000
0000
0000
0020
0030
0000
0000
0000
0000
0000
0000
0000
0000
0000
0000
0200
0300
0000
0000
0000
0000
0000
0000
0000
0000
0000
0000
2000
3000
0000
0000
0000
0000
0000
0000
0000
0000
0000
0000
0002
0003
0000
0000
0000
0000
0000
0000
0000
0000
0000
0000
0020
0030
0000
0000
0000
0000
0000
0000
0000
0000
0000
0000
0002
0003
0000
0000
0000
0000
0000
0000
0000
0000
0000
0000
0200
0300
0000
0000
0000
0000
0000
0000
0000
0000
0000
0000
0020
0030
0000
0000
0000
0000
0000
0000
0000
0000
0000
0000
2000
3000
0000
0000
0000
0000
0000
0000
0000
0000
0000
0000
0002
0003
0000
0000
0000
0000
0000
0000
0000
0000
0000
0000
0020
0030
0000
0000
0000
0000
0000
0000
0000
0000
0000
0000
0200
0300
0000
0000
0000
0000
0000
0000
0000
0000
0000
0000
2000
3000
0000
0000
0000
0000
0000
0000
0000
0000
0000
0000
0002
0003
0000
0000
0000
0000
0000
0000
0000
0000
0000
0000
,
2000
3000
0000
0000
0000
0000
0000
0000
0000
0000
0000
0000
0020
0030
0000
0000
0000
0000
0000
0000
0000
0000
0000
0000
0200
0300
0000
0000
0000
0000
0000
0000
0000
0000
0000
0000
0020
0030
0000
0000
0000
0000
0000
0000
0000
0000
0000
0000
2000
3000
0000
0000
0000
0000
0000
0000
0000
0000
0000
0000
0002
0003
0000
0000
0000
0000
0000
0000
0000
0000
0000
0000
2000
3000
0000
0000
0000
0000
0000
0000
0000
0000
0000
0000
0200
0300
0000
0000
0000
0000
0000
0000
0000
0000
0000
0000
0020
0000
0000
0030
0000
0000
0000
0000
0000
0000
0000
0000
0002
0000
0000
0003
0000
0000
0000
0000
0000
0000
0000
0000
0200
0000
0000
0300
0000
0000
0000
0000
0000
0000
0000
0000
0020
0000
0000
0030
0000
0000
0000
0000
0000
0000
0000
0000
2000
0000
0000
3000
0000
0000
0000
0000
0000
0000
0000
0000
0020
0000
0000
0030
0000
0000
0000
0000
0000
0000
0000
0000
0200
0000
0000
0300
0000
0000
0000
0000
0000
0000
0000
0000
0002
0000
0000
0003
0000
0000
0000
0000
0000
0000
0000
0000
,
1000
0010
0100
0001
1000
0010
1000
0100
0010
0001
1000
0100
1000
0001
0100
0001
,
0010
0100
1000
0001
1000
0010
0100
0010
1000
0100
0010
0001
1000
0001
0010
0100
,
1000
0001
0100
0001
1000
0100
1000
0010
0100
0001
1000
0010
1000
0001
0010
0001
,
0100
0010
1000
0001
1000
0100
0010
0001
1000
0010
0100
0001
1000
0100
0010
0100
,
1000
0010
0100
0001
1000
0010
1000
0100
0010
0001
1000
0100
1000
0001
0100
0001
,
0010
0100
1000
0001
1000
0010
0100
0010
1000
0100
0010
0001
1000
0001
0010
0100
,
1000
0001
0010
0001
1000
0010
1000
0100
0010
0001
1000
0100
1000
0001
0100
0001
,
0010
0100
1000
0001
1000
0010
0100
0001
1000
0100
0010
0001
0100
0001
1000
0010
,
0200
0000
0000
0000
0000
0000
0000
0000
0000
0000
0000
0000
0000
0301
0000
0010
0000
0200
0000
0000
0000
0000
0000
0000
0000
0000
0000
1300
0000
0001
0000
0100
,
0000
0020
0000
0000
0000
0000
0000
0000
0000
0000
0000
0000
0000
1030
0000
0001
0000
0020
0000
0000
0000
0000
0000
0000
0000
0000
0000
0000
0000
0000
0000
0000
,
0030
0000
0000
0000
0000
0000
0001
0000
0010
0000
0001
0000
1000
0000
0000
0100
0000
0000
0010
0000
0000
0100
0000
0000
1000
0000
0000
0010
0000
0000
0100
0000
0000
0001
0000
0000
0010
0000
0000
0100
0000
0000
1000
0000
0000
0010
0000
0000
,
0200
0000
0000
0000
0000
0000
0000
0000
0000
0000
0000
0000
0000
0000
0000
0000
0000
0000
0301
0000
0000
1000
0000
0000
0020
0000
0000
0000
0000
0000
0000
0000
0000
0000
0000
0000
0000
0000
0000
0000
0000
0000
0130
0000
0001
0000
1000
0000
,
0100
1000
0001
0100
0001
1000
0001
0010
0100
1000
0001
1000
0010
0100
0001
1000
0100
1000
0010
0100
0001
1000
0100
1000
,
0001
0000
0010
0000
0100
0000
1000
0000
0010
0000
0100
0000
0001
0000
1000
0000
0010
0000
1000
0000
0100
0000
0010
0000
0001
0000
0000
0100
0000
0000
0010
0000
0000
1000
0000
0000
0001
0000
0000
0010
0000
0000
0100
0000
0000
1000
0000
0000
,
0002
0000
0000
0000
0000
0000
1003
0010
0100
0010
1000
0001
0010
0100
1000
0010
1000
0001
0010
0001
1000
0010
0100
0001
,
1000
0100
0010
0100
1000
0001
1000
0010
0100
0001
1000
0010
1000
0100
0010
0001
1000
0001
0100
0010
1000
0001
0010
0001
,
2000
0000
0000
0000
0000
0000
0000
0000
0000
0000
0000
0000
0000
0000
0000
0000
0000
0000
3001
0000
0000
0000
0000
0000
0200
0000
0000
0000
0000
0000
0310
0000
1000
0000
0001
0000
0100
0000
0000
0010
0000
0000
1000
0000
0000
0001
0000
0000
,
0020
0000
0000
0000
0000
0000
0230
0000
0000
0000
0000
0000
1300
0000
0001
0000
0010
0000
0100
0000
2000
0000
0000
0000
0000
0000
0000
0000
0000
0000
0000
0000
0000
0000
0000
0000
0000
0000
0000
0000
0000
0000
0000
0000
0000
3010
0000
0000
,
0100
0001
1000
0010
1000
0001
0010
0001
1000
0001
0100
0010
0100
0001
0010
0100
,
1000
0001
0100
0001
1000
0100
0010
0100
1000
0001
0010
0001
1000
0010
0100
0001
,
2000
0000
0000
0000
0000
0000
3010
0100
0001
0010
0001
1000
0200
0000
0000
0000
0000
0000
0000
0000
0000
0310
0001
1000
,
0001
0100
0010
1000
0001
0010
0100
0010
0001
1000
0010
0100
0002
0000
0000
0000
0000
0000
0000
0000
0000
1003
0010
0100
,
0001
1000
0100
1000
0001
0100
0001
1000
0100
0010
0001
1000
0001
0100
0010
1000
0001
0010
0001
1000
0010
1000
0001
0010
,
0100
1000
0001
0100
0001
1000
0100
0010
0100
1000
0001
1000
0001
0010
0100
1000
0010
0100
0010
1000
0001
0010
0100
1000
,
0001
0010
0100
1000
0001
0010
0001
0100
0010
1000
0001
0100
0001
1000
0100
1000
,
0010
0100
0001
1000
0001
0010
0100
0010
0001
0100
0010
1000
0001
1000
0010
0100
,
0001
1000
0100
1000
0001
0100
0001
0010
0100
1000
0001
0010
0001
1000
0010
1000
,
0100
0010
0001
1000
0001
0100
0010
1000
0001
0010
0100
1000
0001
0100
0010
0100
,
0001
0010
0100
1000
0001
0010
0001
0100
0010
1000
0001
0100
0001
1000
0100
1000
,
0010
0100
0001
1000
0001
0010
0100
0010
0001
0100
0010
1000
0001
1000
0010
0100
,
0001
1000
0010
1000
0001
0010
0001
0100
0010
1000
0001
0100
0001
1000
0100
1000
,
0010
0100
0001
1000
0001
0010
0100
1000
0001
0100
0010
1000
0100
1000
0001
0010
,
0200
0000
0000
0000
0000
0000
2300
0000
3020
0000
0000
0230
0000
0000
0302
0000
,
2003
0000
0000
0000
0000
0000
3100
0000
0200
0000
0000
0000
0000
0000
0000
0310
,
0001
1000
0100
1000
0001
0100
0010
1000
0001
0010
0100
1000
0001
0100
0010
0100
,
0002
0000
0000
0023
0230
0000
0000
0300
,
2200
0000
0000
3300
2002
0000
0000
3003
,
0022
0000
0033
0220
2332
0000
0000
3003
,
2020
0000
0000
0000
3030
0001
0000
1000
,
0001
0100
0010
1000
0001
0100
0001
1000
0010
1000
0100
1000
0001
0100
0001
0010
0001
1000
0010
1000
0001
1000
0100
0010
,
0002
0000
0000
0000
0000
0000
0000
0000
0000
0000
0000
0000
0000
0000
0000
0000
0000
0000
0000
0000
0000
0000
0000
0003
0020
0000
0000
0000
0000
0000
0000
0030
2200
0000
0000
0000
0000
0000
0000
0000
0000
0000
0000
0000
0000
0000
0000
0000
0000
0000
0000
0000
0000
0000
0000
0000
3302
0000
0000
0000
0000
0000
0000
0000
,
2023
0000
0000
0000
0000
0000
0000
0000
0000
3030
0000
0000
2002
0000
3003
0000
0202
0000
0000
0000
0000
0000
0000
0000
0000
0000
0000
0303
0000
0000
0100
0000
,
0001
0010
0001
0100
0001
0010
0001
0100
0001
0010
0001
0100
0010
1000
0001
1000
,
0010
0000
1000
0010
0100
0001
0010
0100
2000
0000
0000
0000
0000
0000
3001
0000
,
1000
0010
0100
0001
1000
0100
1000
0001
1000
0100
0010
0001
1000
0010
0100
0001
1000
0001
0010
0100
0010
0001
0100
0010
,
1000
0001
1000
0010
0100
0001
0010
0100
1000
0010
0200
0000
0000
0000
0000
0000
0000
0000
0000
0000
0000
0000
0000
0000
,
0301
0100
0010
1000
0001
0100
0010
1000
0001
0010
0100
1000
0100
0010
0001
0010
,
0100
1000
0010
0100
0001
0100
0010
1000
0100
1000
0010
0100
0001
0100
0010
1000
0001
0010
0100
1000
0001
1000
0010
0100
,
0001
1000
0010
1000
0001
0100
0001
0010
0100
1000
0001
0010
0001
1000
0010
1000
,
0100
0010
0001
1000
0001
0100
0010
0100
0001
0010
0100
1000
0001
1000
0100
0010
,
0001
1000
0010
1000
0001
0010
0001
0100
0010
1000
0001
0100
0001
1000
0100
1000
,
0010
0100
0001
1000
0001
0010
0100
1000
0001
0100
0010
1000
0001
0010
0100
0010
,
0001
0100
0010
1000
0001
0100
0001
0010
0100
1000
0001
0010
0001
1000
0010
1000
,
0100
0010
0001
1000
0001
0100
0010
0100
0001
0010
0100
1000
0001
1000
0100
0010
,
0001
1000
0100
1000
0001
0100
0001
0010
0100
1000
0001
0010
0001
1000
0010
1000
,
0001
0010
0100
0010
0001
1000
0001
0100
0001
1000
0100
1000
0010
1000
0001
0100
,
0001
1000
0100
1000
0010
0100
0001
1000
0001
0010
0100
1000
0010
0100
0001
1000
,
0001
0100
0010
1000
0100
0010
0001
1000
0001
0100
0010
1000
0100
0010
0001
1000
,
0001
0010
0100
1000
0010
0100
0010
1000
0001
0010
0100
1000
0010
0100
0010
1000
,
0001
1000
0010
0100
0001
0010
0001
1000
0100
1000
0001
0100
0001
0010
0001
1000
,
0010
1000
0001
0010
0001
0100
0010
1000
0001
0100
0001
0010
0001
0100
0010
1000
,
0001
1000
0010
1000
0100
0010
0001
1000
0001
0100
0010
1000
0100
0010
0001
1000
,
0100
1000
0001
0010
0001
0100
0001
1000
0100
1000
0001
0010
0001
0100
0001
1000
,
0100
0010
0100
1000
0010
0100
0001
1000
0001
0010
0100
1000
0010
0100
0001
1000
,
0100
0010
0001
0100
0010
1000
0100
1000
0001
0100
0001
0010
0100
1000
0010
1000
,
0100
0010
0001
0100
0001
0010
0100
1000
0010
0100
0010
1000
0001
0010
0100
1000
,
0020
0000
0000
0000
0000
0000
1030
0000
0100
0000
1000
0000
0001
0000
0000
0010
0000
0000
0001
0000
0000
1000
0000
0000
0001
0000
0000
0010
0000
0000
0001
0000
0000
0010
0000
0000
0001
0000
1000
0000
0001
0000
1000
0000
0000
0100
0000
0000
,
1000
0000
0001
0000
1000
0000
0001
0000
0000
0100
0000
0000
0001
0000
0000
0100
0000
0000
0010
0000
0000
1000
0000
0000
0010
0000
0000
1000
0000
0000
0100
0000
0000
0010
0000
0000
0100
0000
0000
0010
0000
0000
0001
0000
0000
1000
0000
0000
,
0010
0000
1000
0001
0101
0000
1000
0000
,
0100
0000
1000
0000
0012
0023
0230
2300
,
3200
0000
0320
0230
1000
0000
0010
0000
,
1000
0000
0010
2300
3020
0230
0302
2003
,
3020
0000
0000
0000
2030
0000
3020
0000
0130
0001
0100
0010
1000
0001
0100
0001
,
1000
0001
0100
0010
0200
0000
0000
0000
0320
0000
0000
0000
2030
0000
0000
0000
,
3002
0000
0000
0013
0000
0000
0100
0000
2000
0000
0000
0000
3010
0000
0100
0000
,
0002
0000
0000
0000
0000
0000
0000
0000
0000
0000
0000
0000
0000
0000
0000
0000
0000
0000
0000
0000
0000
0000
0000
0000
1000
0000
0000
0000
0000
0000
0003
0000
0000
0000
0000
0000
0000
0000
0000
0000
0000
0000
0000
0000
0000
0000
0000
0000
0001
0000
0000
0000
0000
0000
0000
0000
0000
0000
0000
0000
0000
0000
0000
0000
0000
0000
0000
0000
0000
0000
0000
0000
0100
0000
0000
0000
0000
0000
0000
0000
0010
0000
0000
0000
0000
0000
0000
0000
0100
0000
0000
0000
0000
0000
0000
0000
0020
0000
0000
0000
0000
0000
0000
0000
0000
0000
0000
0000
0000
0000
0000
0000
0000
0000
0000
0000
0000
0000
0000
0000
0000
0000
0000
0000
0000
0000
0000
0000
0000
0000
0000
0000
2030
0000
0000
0000
0000
0000
0000
0000
0000
0000
0000
0000
0000
0000
0000
0000
0000
0000
0000
0000
0000
0000
0000
0000
0000
0000
0000
0000
0000
0000
0000
0000
0000
0000
0000
0000
3001
0000
0000
0000
0000
0000
0000
0000
0000
0000
0000
0000
0000
0000
0000
0000
0000
0000
0000
0000
0000
0000
0000
0000
,
0011
0000
0000
0001
0000
0000
1000
0000
1100
0000
0000
0000
0100
0000
0000
0000
,
0010
0000
0001
0000
0011
0000
0000
0000
1000
0000
0000
0100
0000
0000
0010
0000
,
0001
0000
0000
0100
0000
0000
0010
0000
1010
0000
0000
0000
1000
0000
0000
0000
,
0001
0000
0000
0000
0010
0000
0000
0000
0100
0000
0000
0000
1000
0000
0000
0000
0010
0000
0000
0000
1000
0000
0000
0000
0001
0000
0000
0000
1000
0010
0000
0000
,
0000
0100
0001
1000
0010
0100
0001
1000
,
0001
0000
0010
0000
0200
0000
0000
0000
0000
0000
0000
0000
0000
0000
0000
0300
,
1000
0100
0010
0001
1000
0010
0100
0001
1000
0100
0010
0001
1000
0010
0100
0001
,
1000
0000
0000
0010
0000
0000
0100
0000
0000
0010
0000
0000
1000
0000
0000
0001
0000
0000
0010
0000
0100
0000
1000
0000
0001
0000
0000
0100
0000
0000
0010
0000
0000
1000
0000
0000
0001
0000
0000
0010
0000
0000
0100
0000
0000
1000
0000
0000
,
0002
0000
0000
0000
0000
0000
0000
0000
0000
0000
0000
0000
0000
0000
0000
0003
0000
0000
0100
0000
0000
0000
0000
0000
0020
0000
0000
0000
0000
0000
0000
0000
0230
0000
0000
0000
0000
0000
0000
0000
0310
0000
0000
0000
0100
0000
0000
0000
,
0020
0000
0230
0000
0301
0100
0002
0000
2003
0000
3001
0010
,
0200
0000
0000
1300
0100
0010
0001
1000
0010
0100
0001
0010
,
0200
0000
0000
0000
1300
0001
0010
0100
1000
0001
0100
0001
,
0020
0000
0000
0000
0130
1000
0001
0100
0010
1000
0100
0010
,
0002
0000
0000
1003
0000
0000
1010
0000
0000
0000
0000
0000
0001
0000
0000
2000
0000
0000
3020
0000
0000
0000
0230
0000
,
0302
0000
0000
0000
0000
0000
0000
0000
0000
0000
0000
0003
,
1000
0010
0100
0001
1000
0100
0010
0001
0100
0010
1000
0001
,
2001
3002
2003
3001
,
0001
0000
1000
0100
0010
0001
0010
0100
1000
0010
0100
0001
0100
0010
1000
0001
,
0010
0100
1000
0100
0010
0001
1000
0010
0100
0001
0100
0010
1000
0001
1000
0010
,
0200
0320
2030
3002
0023
0230
0320
0031
,
1001
1000
0010
0100
0001
1000
0010
0100
0001
1000
0100
0010
0001
1000
0100
1000
,
0001
0100
0001
1000
0010
0100
0001
0000
0000
0000
1000
0100
0010
0001
0010
0100
,
1000
0001
0010
0001
1000
0010
1000
0001
0100
0001
1000
0100
0010
0100
1000
0100
,
0010
0001
1000
0001
0010
0001
1000
0010
1000
0001
0010
0001
0100
0010
1000
0001
,
0010
0100
0010
0001
0100
0001
0010
0100
1000
0010
0100
0001
0100
0010
1000
0100
,
0010
0001
0100
0010
0100
0001
1000
0001
0010
0100
2000
0000
0000
0000
3100
0000
,
1000
0010
0100
0001
0010
0001
0100
0010
1000
0100
0010
0001
0010
0100
1000
0010
,
0100
0001
0010
0100
0010
0001
1000
0000
0000
0010
0000
0000
0100
0000
0001
0000
,
1000
0100
0010
0001
0100
0001
0010
0100
1000
0100
0010
0001
0100
0010
1000
0100
,
0010
0001
0100
0010
0100
0001
1000
0001
0010
0001
2000
0000
0000
0000
3100
0000
,
0110
0000
0000
0000
0010
0000
0000
0001
1000
0000
0010
0000
0000
1000
0001
0000
,
0010
0000
0100
0000
1000
0000
0001
1000
0001
0100
0010
0100
0001
0010
0100
0010
,
0100
1000
0001
0100
0001
1000
0001
0010
0100
1000
0010
0100
0001
1000
0010
1000
,
0001
0010
0001
1000
0100
0010
0100
1000
0001
1000
0010
0100
0001
0010
0100
1000
,
0010
1000
0001
1000
0100
1000
0001
0100
0010
1000
0100
0010
0001
1000
0100
1000
,
0001
0100
0001
1000
0010
0100
0010
1000
0001
1000
0100
0010
0001
0100
0010
1000
,
0100
1000
0001
0100
0001
1000
0001
0010
0100
1000
0010
0100
0001
1000
0010
1000
,
0001
0010
0001
1000
0100
0010
0100
1000
0001
1000
0010
0100
0001
0010
0100
1000
,
0010
1000
0001
1000
0100
1000
0001
0100
0010
1000
0100
0010
0001
1000
0100
1000
,
0001
0100
0001
1000
0010
0100
0001
0010
0100
0010
0001
0100
0010
1000
0010
0100
,
0001
0000
0000
0000
0000
1000
0100
0000
0010
0000
0001
0010
0100
1000
0010
0100
,
0001
1000
0100
0010
0001
1000
0010
0100
0001
0100
0010
1000
0100
0010
0100
1000
,
0001
0100
0010
0100
0001
1000
0001
0010
0100
1000
0001
1000
0010
0100
0001
1000
0010
1000
0001
0010
0001
1000
0100
0010
,
0001
1000
0010
0100
0010
1000
0100
0010
0001
1000
0100
1000
0001
0100
0001
1000
0010
0100
0001
1000
0001
0010
0100
1000
,
0020
0000
0000
0130
0001
1000
0100
1000
0010
0100
0001
1000
0001
0010
0100
1000
0001
1000
0010
0100
0001
1000
0100
1000
,
0001
0010
0001
0100
0010
1000
0001
0010
0100
1000
0010
0100
0001
1000
0100
0010
0001
0100
0010
1000
0001
0010
0100
1000
,
0010
0100
0001
0100
0010
1000
0001
1000
0100
0010
0100
1000
0001
1000
0010
0100
0001
1000
0001
0010
0100
1000
0001
1000
,
0010
0100
0001
1000
0100
0010
0100
1000
0001
1000
0010
0100
0001
1000
0001
0010
0001
1000
0100
0010
0001
1000
0010
0100
,
0002
0000
0000
0203
0000
0000
0310
0000
2000
0000
0000
3002
0000
0000
0023
0000
,
0230
0000
0000
0000
0300
0000
0010
0000
0100
0000
1000
0000
0001
0000
0000
1000
0000
0000
0010
0000
0000
0100
0000
0000
0001
0000
0000
0010
0000
0000
0100
0000
0000
0010
0000
0000
0001
0000
0000
1000
0000
0000
0010
0000
0000
0100
0000
0000
,
0010
1000
0001
0010
0100
1000
0001
0100
0010
0100
0001
1000
0100
1000
0001
0010
,
0100
1000
0001
0100
0010
1000
0001
0010
0001
1000
0010
1000
0100
0010
0100
1000
,
0020
0000
0000
0000
0000
0000
0000
0000
0000
0000
0000
0000
0000
0000
0000
0000
0000
0000
0000
0000
0000
0000
0000
0000
0130
0000
0000
0000
0000
0000
0000
0000
0001
0000
0000
0000
0000
0000
0000
0000
0100
0000
0000
0000
0000
0000
0000
0000
0010
0000
0000
0000
0000
0000
0000
0000
1000
0000
0000
0000
0000
0000
0000
0000
0001
0000
0000
0000
0000
0000
0000
0000
0010
0000
0000
0000
0000
0000
0000
0000
0100
0000
0000
0000
0000
0000
0000
0000
1000
0000
0000
0000
0000
0000
0000
0000
0010
0000
0000
0000
0000
0000
0000
0000
0200
0000
0000
0000
0000
0000
0000
0000
0000
0000
0000
0000
0000
0000
0000
0000
0000
0000
0000
0000
0000
0000
0000
0000
0000
0000
0000
0000
0000
0000
0000
0000
0000
0000
0000
0000
0000
0000
0000
0000
0000
0000
0000
0000
0000
0000
0000
0000
0000
0000
0000
0000
0000
0000
0000
0000
0000
0000
0000
0000
0000
0000
0000
0000
0000
0000
0000
0000
0000
0000
0000
0000
0000
0000
0000
0000
0000
0000
0000
0000
0000
0000
0300
0000
0000
0000
0000
0000
,
0001
0100
0010
1000
0001
0100
0010
1000
0002
0000
0000
0000
0000
0000
0000
0000
,
1003
0100
0010
0100
1000
0001
0100
0001
0010
0100
1000
0010
0100
0001
0100
0010
,
1000
0001
0010
0001
1000
0010
1000
0001
0010
0100
1000
0001
0100
0010
1000
0010
,
0100
0001
0010
0001
1000
0010
1000
0100
0010
0001
1000
0100
1000
0001
0100
0001
,
0010
0100
1000
0001
1000
0010
0100
0010
1000
0100
0010
0001
1000
0001
0010
0100
,
1000
0001
0100
0001
1000
0100
1000
0010
0100
0001
1000
0010
1000
0001
0010
0001
,
0100
0010
1000
0001
1000
0100
0010
0001
1000
0010
0100
0001
1000
0100
0010
0100
,
1000
0010
0100
0001
1000
0010
1000
0100
0010
0001
1000
0100
1000
0001
0100
0001
,
0010
0100
1000
0001
1000
0010
0100
0010
1000
0100
0010
0001
1000
0001
0010
0100
,
1000
0001
0010
0001
1000
0010
1000
0100
0010
0001
1000
0100
1000
0001
0100
0001
,
1000
0100
0010
0100
1000
0001
1000
0010
1000
0001
0010
0001
0100
0001
1000
0010
,
1000
0001
0010
0001
0100
0010
1000
0001
1000
0100
0010
0001
0100
0010
1000
0001
,
1000
0010
0100
0001
0010
0100
1000
0001
1000
0010
0100
0001
0010
0100
1000
0001
,
1000
0100
0010
0001
0100
0010
0100
0001
1000
0100
0010
0001
0100
0010
0100
0001
,
1000
0001
0100
0010
1000
0100
1000
0001
0010
0001
1000
0010
1000
0100
1000
0001
,
0100
0001
1000
0100
1000
0001
0100
0001
1000
0010
1000
0100
1000
0010
0100
0001
,
1000
0010
1000
0001
0010
0001
1000
0100
1000
0010
0100
0001
0010
0100
1000
0001
,
0010
0001
1000
0100
1000
0010
1000
0001
0010
0001
1000
0100
1000
0010
1000
0001
,
0010
0100
0010
0001
0100
0010
1000
0001
1000
0100
0010
0001
0100
0010
1000
0001
,
0010
0100
1000
0010
0100
0001
0010
0001
1000
0010
0100
0001
0010
0100
1000
0010
,
0100
0001
1000
0010
1000
0100
0010
0001
0100
0001
1000
0010
1000
0100
0010
0001
,
0100
0010
0100
0001
0010
0100
1000
0001
1000
0010
0100
0001
0010
0100
0010
0001
,
1000
0001
0100
0010
1000
0100
1000
0010
0100
0001
0100
0010
1000
0100
1000
0010
,
0100
0010
1000
0100
0010
0001
0100
0001
1000
0100
0010
0001
0100
0010
1000
0100
,
0010
0001
1000
0100
1000
0010
0100
0001
0010
0001
1000
0100
1000
0010
0100
0001
,
0010
0100
0010
0001
0100
0010
1000
0001
1000
0100
0010
0001
0100
0010
0100
0001
,
1000
0100
0010
0001
1000
0010
0100
0001
1000
0100
0010
0001
1000
0010
0100
0001
,
0010
0100
1000
0010
0100
0001
0010
0100
1000
0010
1000
0100
0010
0001
0100
0010
,
2000
0000
0000
0000
0000
0000
0000
3000
;

//---------------dance-single - Footswitches - 15.1----------------
#NOTES:
     dance-single:
     Footswitches - 15.1:
     Easy:
     15:
     1.000,1.000,0.069,0.625,1.000,2315.000,20.000,181.000,0.000,3.000:
0000
0000
0000
0000
,
0000
0000
0000
0000
,
0000
0000
0000
0000
,
0000
0000
0000
0000
,
1000
0010
1000
0001
1000
0100
0010
0100
1000
0010
0100
0001
1000
0100
1000
0001
,
0100
0001
0010
0100
1000
0001
1000
0100
0010
0001
0100
0010
1000
0010
0100
0001
,
1000
0100
0010
0100
1000
0001
0010
0001
0100
0010
1000
0001
0010
0100
1000
0001
,
1000
0010
0100
0010
1000
0001
1000
0100
1000
0001
0100
0010
1000
0001
0010
0100
,
2000
3000
0000
0000
0000
0000
0000
0000
0000
0000
0000
0000
0020
0030
0000
0000
0000
0000
0000
0000
0000
0000
0000
0000
2000
3000
0000
0000
0000
0000
0000
0000
0000
0000
0000
0000
0002
0003
0000
0000
0000
0000
0000
0000
0000
0000
0000
0000
2000
3000
0000
0000
0000
0000
0000
0000
0000
0000
0000
0000
0200
0300
0000
0000
0000
0000
0000
0000
0000
0000
0000
0000
0020
0030
0000
0000
0000
0000
0000
0000
0000
0000
0000
0000
0200
0300
0000
0000
0000
0000
0000
0000
0000
0000
0000
0000
2000
3000
0000
0000
0000
0000
0000
0000
0000
0000
0000
0000
0020
0030
0000
0000
0000
0000
0000
0000
0000
0000
0000
0000
0200
0300
0000
0000
0000
0000
0000
0000
0000
0000
0000
0000
0002
0003
0000
0000
0000
0000
0000
0000
0000
0000
0000
0000
2000
3000
0000
0000
0000
0000
0000
0000
0000
0000
0000
0000
0200
0300
0000
0000
0000
0000
0000
0000
0000
0000
0000
0000
2000
3000
0000
0000
0000
0000
0000
0000
0000
0000
0000
0000
0002
0003
0000
0000
0000
0000
0000
0000
0000
0000
0000
0000
,
0200
0300
0000
0000
0000
0000
0000
0000
0000
0000
0000
0000
0002
0003
0000
0000
0000
0000
0000
0000
0000
0000
0000
0000
0020
0030
0000
0000
0000
0000
0000
0000
0000
0000
0000
0000
0200
0300
0000
0000
0000
0000
0000
0000
0000
0000
0000
0000
2000
3000
0000
0000
0000
0000
0000
0000
0000
0000
0000
0000
0002
0003
0000
0000
0000
0000
0000
0000
0000
0000
0000
0000
2000
3000
0000
0000
0000
0000
0000
0000
0000
0000
0000
0000
0200
0300
0000
0000
0000
0000
0000
0000
0000
0000
0000
0000
0020
0030
0000
0000
0000
0000
0000
0000
0000
0000
0000
0000
0002
0003
0000
0000
0000
0000
0000
0000
0000
0000
0000
0000
0200
0300
0000
0000
0000
0000
0000
0000
0000
0000
0000
0000
0020
0030
0000
0000
0000
0000
0000
0000
0000
0000
0000
0000
2000
3000
0000
0000
0000
0000
0000
0000
0000
0000
0000
0000
0020
0030
0000
0000
0000
0000
0000
0000
0000
0000
0000
0000
0200
0300
0000
0000
0000
0000
0000
0000
0000
0000
0000
0000
0002
0003
0000
0000
0000
0000
0000
0000
0000
0000
0000
0000
,
2000
3000
0000
0000
0000
0000
0000
0000
0000
0000
0000
0000
0200
0300
0000
0000
0000
0000
0000
0000
0000
0000
0000
0000
0020
0030
0000
0000
0000
0000
0000
0000
0000
0000
0000
0000
0200
0300
0000
0000
0000
0000
0000
0000
0000
0000
0000
0000
2000
3000
0000
0000
0000
0000
0000
0000
0000
0000
0000
0000
0002
0003
0000
0000
0000
0000
0000
0000
0000
0000
0000
0000
0020
0030
0000
0000
0000
0000
0000
0000
0000
0000
0000
0000
0002
0003
0000
0000
0000
0000
0000
0000
0000
0000
0000
0000
0200
0300
0000
0000
0000
0000
0000
0000
0000
0000
0000
0000
0020
0030
0000
0000
0000
0000
0000
0000
0000
0000
0000
0000
2000
3000
0000
0000
0000
0000
0000
0000
0000
0000
0000
0000
0002
0003
0000
0000
0000
0000
0000
0000
0000
0000
0000
0000
0020
0030
0000
0000
0000
0000
0000
0000
0000
0000
0000
0000
0200
0300
0000
0000
0000
0000
0000
0000
0000
0000
0000
0000
2000
3000
0000
0000
0000
0000
0000
0000
0000
0000
0000
0000
0002
0003
0000
0000
0000
0000
0000
0000
0000
0000
0000
0000
,
2000
3000
0000
0000
0000
0000
0000
0000
0000
0000
0000
0000
0020
0030
0000
0000
0000
0000
0000
0000
0000
0000
0000
0000
0200
0300
0000
0000
0000
0000
0000
0000
0000
0000
0000
0000
0020
0030
0000
0000
0000
0000
0000
0000
0000
0000
0000
0000
2000
3000
0000
0000
0000
0000
0000
0000
0000
0000
0000
0000
0002
0003
0000
0000
0000
0000
0000
0000
0000
0000
0000
0000
2000
3000
0000
0000
0000
0000
0000
0000
0000
0000
0000
0000
0200
0300
0000
0000
0000
0000
0000
0000
0000
0000
0000
0000
0020
0000
0000
0030
0000
0000
0000
0000
0000
0000
0000
0000
0002
0000
0000
0003
0000
0000
0000
0000
0000
0000
0000
0000
0200
0000
0000
0300
0000
0000
0000
0000
0000
0000
0000
0000
0020
0000
0000
0030
0000
0000
0000
0000
0000
0000
0000
0000
2000
0000
0000
3000
0000
0000
0000
0000
0000
0000
0000
0000
0020
0000
0000
0030
0000
0000
0000
0000
0000
0000
0000
0000
0200
0000
0000
0300
0000
0000
0000
0000
0000
0000
0000
0000
0002
0000
0000
0003
0000
0000
0000
0000
0000
0000
0000
0000
,
0010
0010
0100
0001
1000
0010
0100
0100
0010
0001
0100
0100
1000
0001
0100
0100
,
0010
0010
1000
0001
1000
0010
0100
0010
1000
0100
0010
0001
1000
0001
0010
0001
,
0100
0100
0010
0001
1000
0100
0010
0010
0100
0001
0010
0010
1000
0001
0010
0010
,
0100
0100
1000
0001
1000
0100
0010
0001
1000
0010
0100
0001
1000
0100
1000
0001
,
0010
0010
0100
0001
1000
0010
0100
0100
0010
0001
0100
0100
1000
0001
0100
0100
,
0010
0010
1000
0001
1000
0010
0100
0010
1000
0100
0010
0001
1000
0001
0010
0001
,
0100
0100
0010
0001
1000
0100
0010
0010
0100
0001
0010
0010
1000
0001
0010
0010
,
0100
0100
1000
0001
1000
0100
0010
0001
1000
0010
0100
0001
1000
0100
0010
0100
,
2000
0000
0000
0000
0000
0000
0000
0000
0000
0000
0000
0000
0000
3001
0000
0010
0000
0200
0000
0000
0000
0000
0000
0000
0000
0000
0000
1300
0000
0001
0000
0100
,
0000
0020
0000
0000
0000
0000
0000
0000
0000
0000
0000
0000
0000
1030
0000
0001
0000
0020
0000
0000
0000
0000
0000
0000
0000
0000
0000
0000
0000
0000
0000
0000
,
0030
0000
0000
0000
0000
0000
0001
0000
0010
0000
0001
0000
1000
0000
0000
0100
0000
0000
0010
0000
0000
0100
0000
0000
1000
0000
0000
0010
0000
0000
0100
0000
0000
0001
0000
0000
0010
0000
0000
0100
0000
0000
1000
0000
0000
0010
0000
0000
,
0200
0000
0000
0000
0000
0000
0000
0000
0000
0000
0000
0000
0000
0000
0000
0000
0000
0000
0301
0000
0000
1000
0000
0000
0020
0000
0000
0000
0000
0000
0000
0000
0000
0000
0000
0000
0000
0000
0000
0000
0000
0000
0130
0000
0001
0000
1000
0000
,
0100
1000
0001
0100
0001
1000
0001
0010
0100
1000
0001
1000
0010
0100
0001
1000
0100
1000
0010
0100
0001
1000
0100
1000
,
0001
0000
0010
0000
0100
0000
1000
0000
0010
0000
0100
0000
0001
0000
1000
0000
0010
0000
1000
0000
0100
0000
0010
0000
0001
0000
0000
0100
0000
0000
0010
0000
0000
1000
0000
0000
0001
0000
0000
0010
0000
0000
0100
0000
0000
1000
0000
0000
,
0002
0000
0000
0000
0000
0000
1003
0010
0100
0010
1000
0001
0010
0100
1000
0010
1000
0001
0010
0001
1000
0010
0100
0001
,
1000
0100
0010
0100
1000
0001
1000
0010
0100
0001
1000
0010
1000
0100
0010
0001
1000
0001
0100
0010
1000
0001
0010
0001
,
2000
0000
0000
0000
0000
0000
0000
0000
0000
0000
0000
0000
0000
0000
0000
0000
0000
0000
3001
0000
0000
0000
0000
0000
0200
0000
0000
0000
0000
0000
0310
0000
1000
0000
0001
0000
0100
0000
0000
0010
0000
0000
1000
0000
0000
0001
0000
0000
,
0020
0000
0000
0000
0000
0000
0230
0000
0000
0000
0000
0000
1300
0000
0001
0000
0010
0000
0100
0000
2000
0000
0000
0000
0000
0000
0000
0000
0000
0000
0000
0000
0000
0000
0000
0000
0000
0000
0000
0000
0000
0000
0000
0000
0000
3010
0000
0000
,
0100
0001
1000
0010
1000
0001
0010
0001
1000
0001
0100
0010
0100
0001
0010
0100
,
1000
0001
0100
0001
1000
0100
0010
0100
1000
0001
0010
0001
1000
0010
0100
0001
,
2000
0000
0000
0000
0000
0000
3010
0100
0001
0010
0001
1000
0200
0000
0000
0000
0000
0000
0000
0000
0000
0310
0001
1000
,
0001
0100
0010
1000
0001
0010
0100
0010
0001
1000
0010
0100
0002
0000
0000
0000
0000
0000
0000
0000
0000
1003
0010
0100
,
0001
1000
0100
1000
0001
0100
0001
1000
0100
0010
0001
1000
0001
0100
0010
1000
0001
0010
0001
1000
0010
1000
0001
0010
,
0100
1000
0001
0100
0001
1000
0100
0010
0100
1000
0001
1000
0001
0010
0100
1000
0010
0100
0010
1000
0001
0010
0100
1000
,
0010
0010
0100
1000
0001
0010
0100
0100
0010
1000
0100
0100
0001
1000
0100
0100
,
0010
0010
0001
1000
0001
0010
0100
0010
0001
0100
0010
1000
0001
1000
0010
1000
,
0100
0100
0010
1000
0001
0100
0010
0010
0100
1000
0010
0010
0001
1000
0010
0010
,
0100
0100
0001
1000
0001
0100
0010
1000
0001
0010
0100
1000
0001
0100
0001
1000
,
0010
0010
0100
1000
0001
0010
0100
0100
0010
1000
0100
0100
0001
1000
0100
0100
,
0010
0010
0001
1000
0001
0010
0100
0010
0001
0100
0010
1000
0001
1000
0010
1000
,
0100
0100
0010
1000
0001
0100
0010
0010
0100
1000
0010
0010
0001
1000
0010
0010
,
0100
0100
0001
1000
0001
0100
0010
1000
0001
0010
0100
1000
0001
0100
0010
0100
,
0002
0000
0000
0000
0000
0000
2003
0000
3020
0000
0000
0230
0000
0000
0302
0000
,
2003
0000
0000
0000
0000
0000
3100
0000
0200
0000
0000
0000
0000
0000
0000
0310
,
0001
1000
0100
1000
0001
0100
0010
1000
0001
0010
0100
1000
0001
0100
0010
0100
,
0002
0000
0000
0023
0230
0000
0000
0300
,
2200
0000
0000
3300
2002
0000
0000
3003
,
0022
0000
0033
0220
2332
0000
0000
3003
,
2020
0000
0000
0000
3030
0001
0000
1000
,
0001
0100
0010
1000
0001
0100
0001
1000
0010
1000
0100
1000
0001
0100
0001
0010
0001
1000
0010
1000
0001
1000
0100
0010
,
0002
0000
0000
0000
0000
0000
0000
0000
0000
0000
0000
0000
0000
0000
0000
0000
0000
0000
0000
0000
0000
0000
0000
0003
0020
0000
0000
0000
0000
0000
0000
0030
2200
0000
0000
0000
0000
0000
0000
0000
0000
0000
0000
0000
0000
0000
0000
0000
0000
0000
0000
0000
0000
0000
0000
0000
3302
0000
0000
0000
0000
0000
0000
0000
,
2023
0000
0000
0000
0000
0000
0000
0000
0000
3030
0000
0000
2002
0000
3003
0000
0202
0000
0000
0000
0000
0000
0000
0000
0000
0000
0303
0000
0000
0000
0100
0000
,
0001
0010
0001
0100
0001
0010
0001
0100
0001
0010
0001
0100
0010
1000
0001
1000
,
0010
0000
1000
0010
0100
0001
0010
0100
2000
0000
0000
0000
0000
0000
3001
0000
,
1000
0010
0100
0001
1000
0100
1000
0001
1000
0100
0010
0001
1000
0010
0100
0001
1000
0001
0010
0100
0010
0001
0100
0010
,
1000
0000
0001
0000
1000
0000
0010
0000
0100
0000
0001
0000
0010
0000
0100
0000
1000
0000
0010
0000
0200
0000
0000
0000
0000
0000
0000
0000
0000
0000
0000
0000
0000
0000
0000
0000
0000
0000
0000
0000
0000
0000
0000
0000
0000
0300
0000
0000
,
0001
0100
0010
1000
0001
0100
0010
1000
0001
0010
0100
1000
0100
0010
0001
0010
,
0100
1000
0010
0100
0001
0100
0010
1000
0100
1000
0010
0100
0001
0100
0010
1000
0001
0010
0100
1000
0010
0100
0001
1000
,
0100
0100
0010
1000
0001
0100
0010
0010
0100
1000
0010
0010
0001
1000
0010
0010
,
0100
0100
0001
1000
0001
0100
0010
0100
0001
0010
0100
1000
0001
1000
0100
1000
,
0010
0010
0100
1000
0001
0010
0100
0100
0010
1000
0100
0100
0001
1000
0100
0100
,
0010
0010
0001
1000
0001
0010
0100
1000
0001
0100
0010
1000
0001
0010
0001
1000
,
0100
0100
0010
1000
0001
0100
0010
0010
0100
1000
0010
0010
0001
1000
0010
0010
,
0100
0100
0001
1000
0001
0100
0010
0100
0001
0010
0100
1000
0001
1000
0100
1000
,
0010
0010
0100
1000
0001
0010
0100
0100
0010
1000
0100
0100
0001
1000
0100
0100
,
0010
0010
0001
1000
0001
0010
0100
1000
0001
0100
0010
1000
0001
0010
0100
0010
,
0001
1000
0100
1000
0010
0010
0001
1000
0001
0010
0100
1000
0010
0010
0001
1000
,
0001
0100
0010
1000
0100
0100
0001
1000
0001
0100
0010
1000
0100
0100
0001
1000
,
0001
0010
0100
1000
0010
0010
0100
1000
0001
0010
0100
1000
0010
0010
0100
1000
,
0001
1000
0010
0100
0010
0010
0001
1000
0100
1000
0001
0100
0010
0010
0001
1000
,
0010
1000
0001
0010
0100
0100
0010
1000
0001
0100
0001
0010
0100
0100
0010
1000
,
0001
1000
0010
0100
0010
0010
0001
1000
0001
0100
0010
1000
0010
0010
0001
1000
,
0100
1000
0001
0010
0100
0100
0001
1000
0100
1000
0001
0010
0100
0100
0001
1000
,
0100
0010
0100
1000
0010
0010
0001
1000
0001
0010
0100
1000
0010
0010
0001
1000
,
0100
0010
0001
0100
0010
0010
0100
1000
0001
0100
0001
0010
0100
0100
0010
1000
,
0100
0010
0001
0100
0010
0010
0100
1000
0010
0100
0010
1000
0100
0100
0001
1000
,
0020
0000
0000
0000
0000
0000
1030
0000
0100
0000
1000
0000
0001
0000
0000
0010
0000
0000
0001
0000
0000
1000
0000
0000
0001
0000
0000
0010
0000
0000
0001
0000
0000
0010
0000
0000
0001
0000
1000
0000
0001
0000
1000
0000
0000
0100
0000
0000
,
1000
0000
0001
0000
1000
0000
0001
0000
0000
0100
0000
0000
0001
0000
0000
0100
0000
0000
0010
0000
0000
1000
0000
0000
0010
0000
0000
1000
0000
0000
0100
0000
0000
0010
0000
0000
0100
0000
0000
0010
0000
0000
0001
0000
0000
1000
0000
0000
,
0010
0000
1000
0001
0101
0000
1000
0000
,
0100
0000
1000
0000
0012
0023
0230
2300
,
3200
0000
0320
0230
1000
0000
0010
0000
,
1000
0000
0010
2300
3020
0230
0302
2003
,
3020
0000
0000
0000
2030
0000
3020
0000
0130
0001
0100
0010
1000
0001
0100
0001
,
1000
0001
0100
0010
0200
0000
0000
0000
0320
0000
0000
0000
2030
0000
0000
0000
,
3002
0000
0000
0013
0000
0000
0100
0000
2000
0000
0000
0000
3010
0000
0100
0000
,
0002
0000
0000
0000
0000
0000
0000
0000
0000
0000
0000
0000
0000
0000
0000
0000
0000
0000
0000
0000
0000
0000
0000
0000
1000
0000
0000
0000
0000
0000
0003
0000
0000
0000
0000
0000
0000
0000
0000
0000
0000
0000
0000
0000
0000
0000
0000
0000
0001
0000
0000
0000
0000
0000
0000
0000
0000
0000
0000
0000
0000
0000
0000
0000
0000
0000
0000
0000
0000
0000
0000
0000
0100
0000
0000
0000
0000
0000
0000
0000
0010
0000
0000
0000
0000
0000
0000
0000
0100
0000
0000
0000
0000
0000
0000
0000
0020
0000
0000
0000
0000
0000
0000
0000
0000
0000
0000
0000
0000
0000
0000
0000
0000
0000
0000
0000
0000
0000
0000
0000
0000
0000
0000
0000
0000
0000
0000
0000
0000
0000
0000
0000
2030
0000
0000
0000
0000
0000
0000
0000
0000
0000
0000
0000
0000
0000
0000
0000
0000
0000
0000
0000
0000
0000
0000
0000
0000
0000
0000
0000
0000
0000
0000
0000
0000
0000
0000
0000
3001
0000
0000
0000
0000
0000
0000
0000
0000
0000
0000
0000
0000
0000
0000
0000
0000
0000
0000
0000
0000
0000
0000
0000
,
0011
0000
0000
0001
0000
0000
1000
0000
1100
0000
0000
0000
0100
0000
0000
0000
,
0010
0000
0001
0000
0011
0000
0000
0000
1000
0000
0000
0100
0000
0000
0010
0000
,
0001
0000
0000
0100
0000
0000
0010
0000
1010
0000
0000
0000
1000
0000
0000
0000
,
0001
0000
0000
0000
0010
0000
0000
0000
0100
0000
0000
0000
1000
0000
0000
0000
0010
0000
0000
0000
1000
0000
0000
0000
0001
0000
0000
0000
1000
0010
0000
0000
,
0000
0100
0001
1000
0010
0100
0001
1000
,
0001
0000
0010
0000
0200
0000
0000
0000
0000
0000
0000
0000
0000
0000
0000
0300
,
1000
0100
0010
0001
1000
0010
0100
0001
1000
0100
0010
0001
1000
0010
0100
0001
,
1000
0000
0000
0010
0000
0000
0100
0000
0000
0010
0000
0000
1000
0000
0000
0001
0000
0000
0010
0000
0100
0000
1000
0000
0001
0000
0000
0100
0000
0000
0010
0000
0000
1000
0000
0000
0001
0000
0000
0010
0000
0000
0100
0000
0000
1000
0000
0000
,
0002
0000
0000
0000
0000
0000
0000
0000
0000
0000
0000
0000
0000
0000
0000
0003
0000
0000
0100
0000
0000
0000
0000
0000
0020
0000
0000
0000
0000
0000
0000
0000
0230
0000
0000
0000
0000
0000
0000
0000
0310
0000
0000
0000
0100
0000
0000
0000
,
0020
0000
0230
0000
0301
0100
0002
0000
2003
0000
3001
0010
,
0200
0000
0000
1300
0100
0010
0001
1000
0010
0100
0001
0010
,
0200
0000
0000
0000
1300
0001
0010
0100
1000
0001
0100
0001
,
0020
0000
0000
0000
0130
1000
0001
0100
0010
1000
0100
0010
,
0002
0000
0000
1003
0000
0000
1010
0000
0000
0000
0000
0000
0001
0000
0000
2000
0000
0000
3020
0000
0000
0000
0230
0000
,
0302
0000
0000
0000
0000
0000
0000
0000
0000
0000
0000
0003
,
1000
0010
0100
0001
1000
0100
0010
0001
0100
0010
1000
0001
,
2001
3002
2003
3001
,
0001
0000
1000
0100
0010
0001
0010
0100
1000
0010
0100
0001
0100
0010
1000
0001
,
0010
0100
1000
0100
0010
0001
1000
0010
0100
0001
0100
0010
1000
0001
1000
0010
,
0200
0320
2030
3002
0023
0230
0320
0031
,
1001
1000
0010
0100
0001
1000
0010
0100
0001
1000
0100
0010
0001
1000
0100
1000
,
0001
0100
0001
1000
0010
0100
0001
0000
0000
0000
1000
0100
0010
0001
0010
0100
,
1000
0001
0010
0001
1000
0010
1000
0001
0100
0001
1000
0100
0010
0100
1000
0100
,
0010
0001
1000
0001
0010
0001
1000
0010
1000
0001
0010
0001
0100
0010
1000
0001
,
0010
0100
0010
0001
0100
0001
0010
0100
1000
0010
0100
0001
0100
0010
1000
0100
,
0010
0001
0100
0010
0100
0001
1000
0001
0010
0100
2000
0000
0000
0000
3100
0000
,
1000
0010
0100
0001
0010
0001
0100
0010
1000
0100
0010
0001
0010
0100
1000
0010
,
0100
0001
0010
0100
0010
0001
2000
0000
3000
0020
0000
0030
0200
0000
0302
0000
,
1003
0100
0010
0001
0100
0001
0010
0100
1000
0100
0010
0001
0100
0010
1000
0100
,
0010
0001
0100
0010
0100
0001
1000
0001
0010
0001
2000
0000
0000
0000
3100
0000
,
0110
0000
0000
0000
0010
0000
0000
0001
1000
0000
0010
0000
0000
1000
0001
0000
,
0010
0000
0100
0000
1000
0000
0001
1000
0001
0100
0010
0100
0001
0010
0100
1000
,
0100
0100
0001
0100
0001
1000
0010
0010
0100
1000
0010
0010
0001
1000
0010
0010
,
0100
0100
0001
1000
0100
0010
0100
0100
0001
1000
0010
0010
0001
0100
0100
1000
,
0010
0010
0001
1000
0100
1000
0100
0100
0010
1000
0010
0010
0001
1000
0100
0100
,
0010
0010
0001
1000
0010
0100
0010
0010
0001
1000
0100
0100
0001
0010
0010
1000
,
0100
0100
0001
0100
0001
1000
0010
0010
0100
1000
0100
0100
0001
1000
0010
0010
,
0100
0100
0001
1000
0100
0010
0100
0100
0001
1000
0010
0010
0001
0100
0100
1000
,
0010
0010
0001
1000
0100
1000
0100
0100
0010
1000
0010
0010
0001
1000
0100
0100
,
0010
0010
0001
1000
0010
0100
0001
0010
0100
0010
0001
0100
0010
1000
0010
0100
,
0001
0000
0000
0000
0000
1000
0100
0000
0010
0000
0001
0010
0100
1000
0010
0100
,
0001
1000
0100
0010
0001
1000
0010
0100
0001
0100
0010
1000
0100
0010
0100
1000
,
0001
0100
0010
0100
0001
1000
0001
0010
0100
1000
0001
1000
0010
0100
0001
1000
0010
1000
0001
0010
0001
1000
0100
0010
,
0001
1000
0010
0100
0010
1000
0100
0010
0001
1000
0100
1000
0001
0100
0001
1000
0010
0100
0001
1000
0001
0010
0100
1000
,
0020
0000
0000
0130
0001
1000
0100
1000
0010
0100
0001
1000
0001
0010
0100
1000
0001
1000
0010
0100
0001
1000
0100
1000
,
0001
0010
0001
0100
0010
1000
0001
0010
0100
1000
0010
0100
0001
1000
0100
0010
0001
0100
0010
1000
0001
0010
0100
1000
,
0010
0100
0001
0100
0010
1000
0001
1000
0100
0010
0100
1000
0001
1000
0010
0100
0001
1000
0001
0010
0100
1000
0001
1000
,
0010
0100
0001
1000
0100
0010
0100
1000
0001
1000
0010
0100
0001
1000
0001
0010
0001
1000
0100
0010
0001
1000
0010
0100
,
0002
0000
0000
0203
0000
0000
0310
0000
2000
0000
0000
3002
0000
0000
0023
0000
,
0230
0000
0000
0000
0300
0000
0010
0000
0100
0000
1000
0000
0001
0000
0000
1000
0000
0000
0010
0000
0000
0100
0000
0000
0001
0000
0000
0010
0000
0000
0100
0000
0000
0010
0000
0000
0001
0000
0000
1000
0000
0000
0010
0000
0000
0100
0000
0000
,
0010
1000
0001
0010
0100
1000
0001
0100
0010
0100
0001
1000
0100
1000
0001
0010
,
0100
1000
0001
0100
0010
1000
0001
0010
0001
1000
0010
1000
0100
0010
0100
1000
,
0020
0000
0000
0000
0000
0000
0000
0000
0000
0000
0000
0000
0000
0000
0000
0000
0000
0000
0000
0000
0000
0000
0000
0000
0130
0000
0000
0000
0000
0000
0000
0000
0001
0000
0000
0000
0000
0000
0000
0000
0100
0000
0000
0000
0000
0000
0000
0000
0010
0000
0000
0000
0000
0000
0000
0000
1000
0000
0000
0000
0000
0000
0000
0000
0001
0000
0000
0000
0000
0000
0000
0000
0010
0000
0000
0000
0000
0000
0000
0000
0100
0000
0000
0000
0000
0000
0000
0000
1000
0000
0000
0000
0000
0000
0000
0000
0010
0000
0000
0000
0000
0000
0000
0000
0200
0000
0000
0000
0000
0000
0000
0000
0000
0000
0000
0000
0000
0000
0000
0000
0000
0000
0000
0000
0000
0000
0000
0000
0000
0000
0000
0000
0000
0000
0000
0000
0000
0000
0000
0000
0000
0000
0000
0000
0000
0000
0000
0000
0000
0000
0000
0000
0000
0000
0000
0000
0000
0000
0000
0000
0000
0000
0000
0000
0000
0000
0000
0000
0000
0000
0000
0000
0000
0000
0000
0000
0000
0000
0000
0000
0000
0000
0000
0000
0000
0000
0300
0000
0000
0000
0000
0000
,
0001
0100
0010
1000
0001
0100
0010
1000
0002
0000
0000
0000
0000
0000
0000
0000
,
1003
0100
0010
0100
1000
0001
0100
0001
0010
0100
1000
0010
0100
0001
0100
0010
,
1000
0001
0010
0001
1000
0010
1000
0001
0010
0100
1000
0001
0100
0010
1000
0010
,
0100
0100
0010
0001
1000
0100
0010
0010
0100
0001
0010
0010
1000
0001
0010
0010
,
0100
0100
1000
0001
1000
0100
0010
0100
1000
0010
0100
0001
1000
0001
0100
0001
,
0010
0010
0100
0001
1000
0010
0100
0100
0010
0001
0100
0100
1000
0001
0100
0100
,
0010
0010
1000
0001
1000
0010
0100
0001
1000
0100
0010
0001
1000
0010
1000
0001
,
0100
0100
0010
0001
1000
0100
0010
0010
0100
0001
0010
0010
1000
0001
0010
0010
,
0100
0100
1000
0001
1000
0100
0010
0100
1000
0010
0100
0001
1000
0001
0100
0001
,
0010
0010
0100
0001
1000
0010
0100
0100
0010
0001
0100
0100
1000
0001
0100
0100
,
0010
0010
1000
0001
1000
0010
0100
0001
1000
0100
0010
0001
1000
0010
0100
0010
,
1000
0001
0100
0001
0010
0010
1000
0001
1000
0010
0100
0001
0010
0010
1000
0001
,
1000
0100
0010
0001
0100
0100
1000
0001
1000
0100
0010
0001
0100
0100
1000
0001
,
1000
0010
0100
0001
0010
0010
0100
0001
1000
0010
0100
0001
0010
0010
0100
0001
,
1000
0001
0010
0100
0010
0010
1000
0001
0100
0001
1000
0100
0010
0010
1000
0001
,
0010
0001
1000
0010
0100
0100
0010
0001
1000
0100
1000
0010
0100
0100
0010
0001
,
1000
0001
0010
0100
0010
0010
1000
0001
1000
0100
0010
0001
0010
0010
1000
0001
,
0100
0001
1000
0010
0100
0100
1000
0001
0100
0001
1000
0010
0100
0100
1000
0001
,
0100
0010
0100
0001
0010
0010
1000
0001
1000
0010
0100
0001
0010
0010
1000
0001
,
0100
0010
1000
0100
0010
0010
0100
0001
1000
0100
1000
0010
0100
0100
0010
0001
,
0100
0010
1000
0100
0010
0010
0100
0001
0010
0100
0010
0001
0100
0100
1000
0001
,
1000
0010
0100
0001
0010
0010
1000
0001
1000
0010
0100
0001
0010
0010
0100
0001
,
1000
0001
0100
0010
0100
0100
1000
0010
0100
0001
0100
0010
0100
0100
1000
0010
,
0100
0010
1000
0100
0010
0010
0100
0001
1000
0100
0010
0001
0100
0100
1000
0100
,
0010
0001
1000
0100
0010
0010
0100
0001
0010
0001
1000
0100
0010
0010
0100
0001
,
0010
0100
0010
0001
0100
0100
1000
0001
1000
0100
0010
0001
0100
0100
1000
0001
,
1000
0100
0100
0001
1000
0010
0010
0001
1000
0100
0100
0001
1000
0010
0010
0001
,
1000
0100
0100
0001
0010
0010
1000
0001
1000
0010
0010
0001
0100
0100
0010
0001
,
2000
0000
0000
0000
0000
0000
0000
3000
;
