#TITLE:This Is My Life;
#SUBTITLE:;
#ARTIST:DJ Splash;
#TITLETRANSLIT:;
#SUBTITLETRANSLIT:;
#ARTISTTRANSLIT:;
#CREDIT:;
#BANNER:MyLife-banner.png;
#BACKGROUND:MyLife-bg.png;
#LYRICSPATH:;
#CDTITLE:;
#MUSIC:This Is My Life.ogg;
#OFFSET:-0.060;
#SAMPLESTART:38.600;
#SAMPLELENGTH:15.160;
#SELECTABLE:YES;
#BPMS:0.000=145.000,456.000=141.000,460.000=137.000,464.000=130.000,468.000=125.000,472.000=119.000,476.000=112.000,480.000=108.000;
#STOPS:94.250=0.120
,94.500=0.300
;
#BGCHANGES:;
// cache tags:
#FIRSTBEAT:16.000;
#LASTBEAT:488.000;
#SONGFILENAME:Songs/lvsb tourney pack/This Is My Life/DJ Splash - This Is My Life.sm;
#HASMUSIC:1;
#HASBANNER:0;
#MUSICLENGTH:105.000;
// end cache tags

//---------------dance-single - ----------------
#NOTES:
     dance-single:
     :
     Challenge:
     11:
     1.000,1.000,1.000,0.429,1.000,1201.000,135.000,45.000,0.000,12.000:
0000
0000
0000
0000
,
0000
0000
0000
0000
,
0000
0000
0000
0000
,
0000
0000
0000
0000
,
1001
0000
0000
0000
1000
0000
0010
0100
0001
0000
0100
0000
0010
0000
0100
0010
,
1000
0000
0000
0000
0001
0000
0100
0001
1000
0000
0010
0000
1001
0000
0001
0000
,
0101
0000
0000
0000
1000
0000
0001
1000
0010
0000
1000
0000
0010
0000
1000
0001
,
0200
0000
0000
0001
0300
0000
0100
0000
1010
0000
0100
0000
0101
0000
0001
0000
,
1001
0000
0000
0000
1000
0000
0001
0000
1000
0000
0010
0000
1000
0000
0100
1000
,
0100
0000
0000
0000
0000
0000
0000
0000
0000
0000
0000
0000
0001
0000
0000
0000
0000
0000
1000
0000
0000
0000
0000
0000
0001
0000
0010
0000
0001
0000
0010
0000
0000
0000
0000
0000
0001
0000
1000
0000
0001
0000
1000
0000
0000
0001
0000
0000
,
0100
0000
0000
0000
0001
0000
1000
0000
0001
0000
0100
0000
0001
0000
0010
0001
,
0010
0000
0000
0001
0000
0000
1000
0000
0000
0001
0000
0000
1000
0000
0000
0000
0000
0000
0001
0000
0000
0000
0000
0000
1000
0000
0100
0000
1000
0000
0100
0000
0000
0000
0000
0000
1000
0000
0001
0000
1000
0000
0001
0000
0000
0100
0000
0000
,
0001
0000
0000
0101
0000
0000
0110
0000
0000
0000
0100
0000
0001
0000
0001
0000
,
0100
0000
0000
0000
0100
0000
0001
1000
0010
0000
0100
0000
0001
0000
0001
0000
,
0101
0000
0000
1010
0000
0000
1001
0000
0000
0000
1000
0000
0010
0000
0010
0000
,
0200
0000
0000
0000
0000
0000
0000
0000
0000
0010
0000
0000
0300
0000
0000
0000
0000
0000
0010
0000
0000
0000
0000
0000
1000
0000
0001
0000
1000
0000
0001
0000
0000
0000
0000
0000
0100
0000
0001
0000
0100
0000
0001
0000
0000
1000
0000
0000
,
0010
0000
0000
1010
0000
0000
0101
0000
0000
0001
0000
0000
1000
0010
0100
0000
,
0110
0000
0000
1010
0000
0000
1001
0000
0000
0001
0000
0000
1000
0000
1000
0000
,
1001
0000
0000
0110
0000
0000
1000
0000
1100
0000
0000
1001
0000
0000
0001
0000
,
0101
0000
1000
0000
0101
0000
1000
0000
0001
0010
0100
1000
0001
0010
0100
1000
,
0100
0000
1000
0100
1000
0000
1001
0000
0000
0000
0001
0000
0001
0000
0100
0000
,
0110
0000
0100
0010
1000
0000
1010
0000
0000
0000
1000
0000
1000
0000
0001
0000
,
0101
0000
1000
0001
0100
0000
0101
0000
0000
0000
0100
0000
0100
0000
0010
0000
,
1010
0000
0101
0000
2002
3003
1001
0000
,
1010
0000
1000
0001
0100
0000
0001
0000
0101
0000
0100
0010
2000
0000
0000
0000
,
3010
0000
0100
0010
0100
0000
0001
0100
0010
0000
0010
0000
0101
0000
0000
0000
,
1001
0000
1000
0001
0100
0000
0002
0000
2003
0000
3001
0100
0020
0000
0000
1000
,
0030
0010
0100
0002
0200
0000
0010
0303
,
0010
0000
1000
0001
0200
0000
0001
0000
0310
0000
0100
0010
1000
0000
0000
0000
,
1001
0000
0001
0100
0010
0000
0100
0001
2000
0000
0001
0000
0200
0000
0000
0000
,
0001
3300
0000
0000
1001
0000
0001
0000
0101
0000
1000
0010
0100
0010
0100
0001
,
0100
0001
0101
0100
0220
0000
1001
0330
,
1001
0000
0100
0010
1000
0010
0100
0000
1001
0000
0100
0000
1001
0000
0000
0000
,
0001
1000
0001
0000
0100
0000
0001
1000
0000
0001
0100
0000
1010
0000
0000
0000
,
0001
1000
0010
0000
1000
0000
0001
0100
0001
0000
1000
0000
0010
1000
0000
0010
,
1000
0000
0001
0000
0100
0001
0000
0100
0001
0000
0100
0010
0100
0000
0000
0000
,
1010
0000
1000
0001
0100
0000
0001
0100
0001
0000
1000
0000
0110
0000
0000
0000
,
0101
0000
1000
0010
1000
0000
0001
0010
0100
0000
0100
0000
1100
0000
0000
0000
,
1001
0000
0001
0100
0010
0000
0100
0000
1010
0000
1000
0001
1000
0010
1000
0001
,
0200
0301
0102
1003
2100
3001
1001
0000
,
1001
0000
1000
0010
0100
0010
0100
0001
0100
0001
1000
0010
0100
0000
0000
0000
,
0100
0001
0100
0010
0100
0010
1000
0010
1000
0010
0100
0001
0100
0000
0000
0000
,
1000
0010
1000
0010
0100
0001
1000
0001
1000
0010
0100
0010
1000
0000
0001
1000
,
0001
0000
0100
0000
0001
0000
1000
0010
0100
0000
0010
0000
0101
0000
0000
0000
,
0100
0001
0100
0001
1000
0010
1000
0100
1000
0100
0010
0001
1000
0000
0000
0000
,
1000
0001
0010
0001
1000
0100
0010
0100
1000
0001
0100
0010
1000
0000
0000
0000
,
1000
0001
0010
0100
0010
0001
1000
0100
1000
0010
1000
0100
1000
0100
0010
0001
,
0010
0001
1000
0001
1000
0010
1000
0001
0010
0100
1000
0001
0010
0000
0000
0000
,
1100
0000
1001
0000
0101
0100
0110
0000
,
1010
0000
0110
0000
1010
1000
1001
0000
,
1100
0000
0110
0000
0011
0001
0101
0100
,
0010
1000
0010
1000
0100
0010
1001
0000
,
0001
0000
0100
0001
1000
0000
0000
0000
0001
0000
1000
0010
0100
0000
0000
0000
,
0001
0000
0100
0010
1000
0000
1000
0000
0002
0000
0100
0000
0103
0000
0000
0000
,
0001
0000
0100
0010
0100
0000
0001
0000
1000
0000
0010
0000
1001
0000
0000
0110
,
0000
0000
1100
0000
0000
0000
0000
0000
1000
0001
1000
0001
1000
0000
0001
0000
,
0100
0000
0010
1000
0000
0001
1000
0000
1000
0000
0001
0100
0001
0000
1000
0000
,
1000
0000
0010
0100
0002
0000
0000
0100
0003
0000
1000
0000
1001
0000
0001
0100
,
0000
0001
0100
0001
1000
0000
0001
1000
0000
0010
0100
0001
0100
0000
0010
1000
,
0000
0001
1000
0100
1000
0000
0100
0010
0000
0001
1000
0100
1000
0000
0001
1000
,
0000
0010
1000
0001
0100
0000
0001
1000
0000
0100
1000
0001
1000
0000
0100
1000
,
0000
0000
0000
0001
0000
0000
1000
0000
0000
0001
0000
0000
0100
0000
0001
0000
0100
0000
0001
0000
0000
0000
0000
0000
1000
0000
0010
0000
1000
0000
0010
0000
0000
1000
0000
0000
0001
0000
0000
0000
0000
0000
0200
0000
0000
0002
0000
0000
,
0300
0000
0203
0000
2300
0000
3002
0020
0003
0000
2030
0000
3020
0000
0032
2000
,
0003
0000
3200
0000
0010
0000
0000
0001
0000
0000
1300
0000
0100
0000
0001
0100
,
0001
0000
1000
0000
1010
0000
0010
0100
0001
0000
1000
0000
1001
0000
1000
0001
,
0010
0000
0001
0000
0101
0000
1000
0001
1000
0001
0100
0000
1001
0000
1000
0001
,
0010
0000
0100
0000
1001
0000
0001
0010
0100
0000
0001
0000
0011
0000
0001
0010
,
0100
0000
0010
0000
0110
0000
0100
1000
0001
1000
0010
0000
0101
0000
0001
1000
,
0010
0000
0100
0000
0101
0000
1000
0001
0100
0000
0010
0000
0101
0000
1000
0010
,
0100
0000
0001
0000
1100
0000
1000
0001
1000
0010
1000
0000
1100
0000
1000
0001
,
0010
0000
0100
0000
0110
0000
0010
0100
1000
0000
0001
0000
0011
0000
0010
0100
,
0010
0000
0100
0000
1100
0000
1000
0001
0100
0001
1000
0000
1010
0000
0010
0100
,
0000
0001
0100
0000
1010
0000
0010
0100
0000
0010
1000
0000
1001
0000
0001
1000
,
0000
0100
1000
0000
1100
0000
1000
0001
0010
0001
0010
0000
0011
0000
0001
1000
,
0000
0001
0100
0000
0110
0000
0010
1000
0000
0001
1000
0000
0110
0000
0100
0001
,
0000
0100
0010
0000
1010
0000
0010
0100
0010
1000
0001
0000
0101
0000
1000
0010
,
0000
1000
0001
0000
1001
0000
0001
1000
0000
0010
1000
0000
1100
0000
1000
0001
,
0000
0010
0001
0000
0101
0000
0001
0010
0001
0100
0001
0000
0100
0010
1000
0010
,
0100
0001
1000
0100
0010
0001
1000
0100
0010
0001
1000
0001
1000
0010
1000
0001
,
0100
0001
1000
0001
0010
0100
1000
0001
0010
0100
0010
0100
1000
0000
0000
0000
,
0000
0000
0000
0000
,
0000
0000
0000
1001
,
1100
0000
1000
0001
0010
0000
0001
0000
1001
0000
1000
0001
0100
0000
0000
0000
,
1001
0101
1001
0110
,
1010
0000
0010
0100
0001
0000
0100
0000
0110
0000
0010
1000
0001
0000
0000
0000
,
0101
0000
0000
0000
0000
0000
0000
0000
0000
0000
0000
0000
0001
0000
1000
0000
0001
0000
1000
0000
0000
0000
0000
0000
0010
0000
1000
0000
0010
0000
1000
0000
0000
0001
0000
0000
0100
0000
0000
0000
0000
0000
0100
0000
0000
0010
0000
0000
,
1000
0001
0100
0001
0100
0010
1000
0001
1000
0001
0010
0100
1000
0000
1000
0100
,
1000
0001
0010
0100
0010
0001
1000
0100
1000
0001
1000
0001
0100
0000
0100
0001
,
1000
0010
1000
0001
1000
0100
0010
0001
1000
0100
0010
0001
0010
0000
0100
0010
,
0100
2000
0010
3020
0100
0130
1001
0000
,
1100
0000
1000
0010
1000
0000
0010
0000
0110
0000
1000
0002
0200
0000
0000
0000
,
0020
0303
0200
0000
1000
1000
1330
0000
,
2001
0000
0000
0000
0200
0000
0000
0000
0001
0000
0010
0000
0001
0300
0000
3000
,
0000
0000
0001
0000
2002
0000
0000
0000
0000
0000
0010
0000
0010
3003
0000
0000
,
0100
0000
0001
1000
0001
0000
1000
0000
0010
0000
1000
0010
0200
0000
0000
0000
,
0301
0000
1000
0001
1000
0000
0010
1000
0001
0000
0100
0000
1001
0000
0000
0000
,
0100
0000
0010
0100
0001
0000
0100
0000
1010
0000
0010
1000
0010
0100
0001
0100
,
0001
1000
1001
0001
0101
0100
0110
0000
,
1000
0001
1000
0100
0010
0001
0010
0100
1000
0001
0010
0100
0010
0001
1000
0010
,
1000
0100
0010
0100
1000
0001
0100
0001
1000
0010
0100
0010
1000
0001
1000
0100
,
0010
0100
1000
0001
0010
0100
1000
0001
1000
0100
0010
0100
1000
0001
1000
0010
,
0100
0001
1000
0010
0100
0001
1000
0100
0010
0100
1000
0001
0100
0010
1000
0010
,
0100
0001
1000
0001
1000
0001
0010
0100
1000
0001
0010
0100
1000
0001
1000
0100
,
0010
0100
1000
0001
1000
0001
1000
0010
1000
0010
1000
0010
0100
0010
0100
0001
,
0100
0001
0100
0001
1000
0001
1000
0001
1000
0100
1000
0100
1000
0100
0010
0001
,
0010
0100
1000
0100
1000
0100
0010
0001
1000
0001
0010
0100
1000
0001
0010
0100
,
1000
0001
1000
0001
0100
0001
1000
0100
1000
0001
0100
0001
1000
0100
0010
0100
,
1000
0001
0010
0001
1000
0010
1000
0010
0100
0001
0100
0010
0100
0001
1000
0010
,
1000
0001
1000
0001
0010
0100
1000
0010
0100
0010
1000
0010
0100
0001
1000
0100
,
0010
0001
0100
0010
0100
0001
1000
0001
1000
0001
0100
0010
0100
0010
1000
0010
,
0100
0001
0100
0001
1000
0001
1000
0010
1000
0010
0100
0001
1000
0001
0100
0010
,
1000
0010
0100
0001
1000
0100
0010
0100
1000
0001
0010
0100
1000
0001
0010
0100
,
1000
0100
1000
0001
0100
0010
1000
0100
0010
0001
1000
0100
0010
0001
0010
0100
,
0010
0001
0100
0001
0010
0001
0100
0010
1000
0100
1000
0010
1000
0000
0000
0000
,
1001
0000
0001
0100
0010
0000
0100
0000
1001
0000
0001
0100
0001
0000
0000
0000
,
1001
0000
0100
0010
1000
0000
0010
0100
0010
0000
0100
0000
0110
0000
0000
0000
,
1001
0000
0100
0010
1000
0000
0010
0000
0110
0000
0010
1000
0002
0000
0000
0100
,
0003
0000
0001
0000
0101
0000
0001
1000
0001
0000
1000
0010
1000
0000
0000
0000
,
0101
0000
0001
1000
0010
0000
0100
0000
0101
0000
0001
1000
0010
0000
0000
0000
,
1001
0000
1000
0010
0100
0000
0001
1000
0001
0000
0001
0000
0110
0000
0000
0000
,
1001
0000
1000
0001
0100
0000
0001
0000
0101
0000
1000
0010
1000
0001
0100
0001
,
0100
0001
0101
1000
2002
0000
0000
0000
,
3003
0000
0000
0000
;
