#TITLE:merry xmas everybody;
#SUBTITLE:;
#ARTIST:STEPS;
#TITLETRANSLIT:;
#SUBTITLETRANSLIT:;
#ARTISTTRANSLIT:;
#CREDIT:;
#BANNER:merryxmaseverybody.png;
#BACKGROUND:merryxmaseverybody-bg.png;
#LYRICSPATH:;
#CDTITLE:Christmas Mix.png;
#MUSIC:merry xmas everybody.mp3;
#OFFSET:-3.950;
#SAMPLESTART:34.200;
#SAMPLELENGTH:12.000;
#SELECTABLE:YES;
#BPMS:0.000=136.000,232.000=68.000;
#STOPS:;
#BGCHANGES:0.000=merryxmaseverybody-bg.png=1.000=0=0=1,
8.000=Snow5.avi=1.000=0=0=1,
16.000=Bricks1.avi=1.000=0=0=1,
24.000=Snow5.avi=1.000=0=0=1,
32.000=Light7.avi=1.000=0=0=1,
40.000=Star8.avi=1.000=0=0=1,
48.000=Tunnel9.avi=1.000=0=0=1,
56.000=Light1.avi=1.000=0=0=1,
69.000=Star5.avi=1.000=0=0=1,
78.000=Dance4.avi=1.000=0=0=1,
88.000=Star5.avi=1.000=0=0=1,
95.000=Snow6.avi=1.000=0=0=1,
104.000=Tunnel9.avi=1.000=0=0=1,
112.000=Snow5.avi=1.000=0=0=1,
120.000=Bricks1.avi=1.000=0=0=1,
128.000=Snow5.avi=1.000=0=0=1,
136.000=Light7.avi=1.000=0=0=1,
144.000=Star8.avi=1.000=0=0=1,
152.000=Tunnel9.avi=1.000=0=0=1,
160.000=Light1.avi=1.000=0=0=1,
173.000=Star5.avi=1.000=0=0=1,
182.000=Dance4.avi=1.000=0=0=1,
192.000=Star5.avi=1.000=0=0=1,
199.000=Snow6.avi=1.000=0=0=1,
208.000=Tunnel9.avi=1.000=0=0=1,
214.000=Dance4.avi=1.000=0=0=1,
224.000=Snow5.avi=1.000=0=0=1,
232.000=merryxmaseverybody-bg.png=1.000=0=0=1,
99999=-nosongbg-=1.000=0=0=0 // don't automatically add -songbackground-
;
// cache tags:
#FIRSTBEAT:0.000;
#LASTBEAT:236.000;
#SONGFILENAME:Songs/DDRExtreme.co.uk presents ChristmasMix/merry xmas everybody/merry xmas everybody.sm;
#HASMUSIC:1;
#HASBANNER:1;
#MUSICLENGTH:109.774;
// end cache tags

//---------------dance-single - ----------------
#NOTES:
     dance-single:
     :
     Beginner:
     1:
     0.122,0.185,0.118,0.000,0.000,81.000,13.000,0.000,0.000,0.000:
0000
0000
0000
0000
,
0000
0000
0000
0000
,
1000
0000
1000
0000
,
1000
0000
1000
0000
,
1000
0000
0000
0000
,
0000
0000
0000
0000
,
0001
0000
0001
0000
,
0001
0000
0001
0000
,
0001
0000
0000
0000
,
0000
0000
0000
0000
,
1001
0000
0000
0000
,
0100
0000
0000
0000
,
1001
0000
0000
0000
,
0010
0000
0000
0000
,
0100
0000
0100
0000
,
0100
0000
0100
0000
,
0100
0000
0000
0000
,
0000
0000
1001
0000
,
0100
0000
1001
0000
,
0010
0000
0100
0000
,
0100
0000
0100
0000
,
0100
0000
0000
0000
,
1001
0000
0010
0000
,
1001
0000
0010
0000
,
0100
0000
0100
0000
,
0100
0000
0100
0000
,
0100
0000
0000
0000
,
0000
0000
0000
0000
,
0001
0000
0001
0000
,
0001
0000
0001
0000
,
0001
0000
0000
0000
,
0000
0000
0000
0000
,
1000
0000
1000
0000
,
1000
0000
1000
0000
,
1000
0000
0000
0000
,
0000
0000
0000
0000
,
1001
0000
0000
0000
,
0010
0000
0000
0000
,
1001
0000
0000
0000
,
0100
0000
0000
0000
,
0010
0000
0010
0000
,
0010
0000
0010
0000
,
0010
0000
0000
0000
,
0000
0000
1001
0000
,
0010
0000
1001
0000
,
0100
0000
0010
0000
,
0010
0000
0010
0000
,
0010
0000
0000
0000
,
1001
0000
0100
0000
,
1001
0000
0100
0000
,
0010
0000
0010
0000
,
0010
0000
0010
0000
,
0100
0000
0100
0000
,
0100
0000
0001
0000
,
0001
0000
0001
0000
,
0001
0000
1000
0000
,
1000
0000
0000
0000
,
0000
0000
0000
0000
,
1001
0000
0000
0000
;

//---------------dance-single - Copied from----------------
#NOTES:
     dance-single:
     Copied from:
     Medium:
     5:
     0.325,0.322,0.146,0.483,0.000,181.000,16.000,53.000,0.000,0.000:
2002
0000
0000
3003
,
2002
0000
0000
3003
,
1000
0010
0100
0000
0010
0000
1000
0000
,
0100
0010
0100
1000
,
0200
0000
0302
0000
,
2003
0000
3020
0000
,
1030
0100
0010
0000
1000
0000
0100
0000
,
0001
1000
0010
0100
,
0020
0000
2030
0000
,
3002
0000
0203
0000
,
0310
0000
2000
0100
0000
0001
3000
0000
,
0010
0100
0010
1000
,
0200
0000
0000
0300
,
1000
0000
0100
0000
0010
0000
0001
0100
,
1000
0100
0010
0100
,
0010
0001
0100
1000
,
2002
0000
0000
0000
,
3003
1000
1001
0110
,
2002
0000
0003
0000
3010
0001
0000
1000
,
0000
0100
0000
0000
0010
0000
0001
0100
,
0000
0000
0010
0000
1000
0100
0000
0000
,
0002
0023
0230
2300
,
3002
0000
0000
0000
1003
0010
0000
0000
,
0010
1000
0100
0010
,
1001
0110
0010
0100
,
2000
0000
3020
0000
,
0032
0000
0000
0000
,
0000
0000
0000
0003
,
0001
0100
0010
0000
0100
0000
0001
0000
,
0010
0100
0010
0001
,
0020
0000
2030
0000
,
3002
0000
0203
0000
,
0301
0010
0100
0000
0001
0000
0010
0000
,
1000
0001
0100
0010
,
0200
0000
0302
0000
,
2003
0000
3020
0000
,
0130
0000
0002
0010
0000
1000
0003
0000
,
0100
0010
0100
0001
,
0020
0000
0000
0030
,
0001
0000
0010
0000
0100
0000
1000
0010
,
0001
0010
0100
0010
,
0100
1000
0010
0001
,
2002
0000
0000
0000
,
3003
0001
1001
0110
,
2002
0000
3000
0000
0103
1000
0000
0001
,
0000
0010
0000
0000
0100
0000
1000
0010
,
0000
0000
0100
0000
0001
0010
0000
0000
,
2000
3200
0320
0032
,
2003
0000
0000
0000
3001
0100
0000
0000
,
0100
0001
0010
0100
,
1001
0110
0100
0010
,
0002
0000
0203
1300
,
1000
0100
0010
0000
0100
0000
0001
0000
,
2000
0000
3100
0010
,
1001
0100
0010
0000
0100
0000
1000
0000
,
0002
0000
2003
0000
,
3200
0000
0000
0000
,
0000
0000
0000
0300
,
2002
0000
0000
0000
,
3003
0000
0000
0000
;

//---------------dance-single - Copied from Copied f----------------
#NOTES:
     dance-single:
     Copied from Copied f:
     Hard:
     6:
     0.371,0.428,0.109,0.510,0.109,217.000,12.000,56.000,0.000,0.000:
2020
0000
0000
3030
,
0202
0000
0000
0303
,
0001
0000
0010
0001
0000
0010
0001
0000
0010
0100
0000
0000
,
1000
0000
0100
1000
0000
0100
1000
0000
0100
0010
0000
0000
,
0002
0000
0010
0203
0000
0000
0001
2300
,
0000
0000
0100
3020
0000
0000
0030
0000
,
0100
0000
1000
0100
0000
1000
0100
0000
1000
0001
0000
0000
,
0010
0000
0001
0010
0000
0001
0010
0000
0001
1010
0000
0000
,
2000
0000
0100
3020
0000
0000
1000
0032
,
0000
0000
0010
0203
0000
1300
1000
0000
,
0100
0000
0010
1000
0000
0100
0000
0002
,
0000
0020
0000
0000
0033
0100
1000
0000
,
0100
0000
0010
1000
0000
0100
0000
0002
,
0000
0000
0000
0000
0000
1003
0100
0000
,
2000
0010
3002
0100
,
0203
1000
0320
0001
,
2030
0000
0000
0000
,
3000
0000
1001
0000
1100
0000
0010
2000
,
0000
0000
0000
0000
3100
0010
0000
0001
,
0000
1001
0000
0000
0002
0000
1003
0100
,
0000
0000
0010
0000
0100
1000
0000
0000
,
1000
0100
0010
0001
,
2001
0000
0000
0000
3100
0010
0000
0001
,
0000
0001
0000
0100
0000
0000
0002
0000
,
1000
0100
0010
1003
,
0200
0000
0320
0000
,
2030
0000
0000
0000
,
0000
0000
0000
0000
,
3001
0000
0010
0001
0000
0010
0001
0000
0010
1000
0000
0000
,
0100
0000
1000
0100
0000
1000
0100
0000
1000
0001
0000
0000
,
2000
0000
0100
3020
0000
0000
1000
0032
,
0000
0000
0010
0203
0000
0000
0300
0000
,
0100
0000
1000
0100
0000
1000
0100
0000
1000
0010
0000
0000
,
0001
0000
0010
0001
0000
0010
0001
0000
0010
0100
0000
0000
,
0002
0000
0010
0203
0000
0000
0001
2300
,
0000
0000
0100
3020
0000
0031
0001
0000
,
0010
0000
0100
0001
0000
0010
0000
2000
,
0000
0200
0000
0000
3300
0010
0001
0000
,
0010
0000
0100
0001
0000
0010
0000
2000
,
0000
0000
0000
0000
0000
3001
0010
0000
,
0002
0100
2003
0010
,
3020
0001
0230
1000
,
0302
0000
0000
0000
,
0003
0000
1001
0000
0011
0000
0100
0002
,
0000
0000
0000
0000
0013
0100
0000
1000
,
0000
1001
0000
0000
2000
0000
3001
0010
,
0000
0000
0100
0000
0010
0001
0000
0000
,
0001
0010
0100
1000
,
1002
0000
0000
0000
0013
0100
0000
1000
,
0000
1000
0000
0010
0000
0000
2000
0000
,
0001
0010
0100
3001
,
0020
0000
0230
0302
,
0010
0100
1000
0013
,
2000
0000
3010
0001
,
0010
0100
1000
0010
,
0002
0000
0023
0000
,
2030
0000
0000
0000
,
0000
0000
0000
3000
,
2002
0000
0000
3003
;

//---------------dance-single - Copied from Copied f----------------
#NOTES:
     dance-single:
     Copied from Copied f:
     Easy:
     4:
     0.307,0.349,0.146,0.455,0.000,170.000,16.000,50.000,0.000,0.000:
2000
0000
0000
3000
,
0002
0000
0000
0003
,
1001
0100
0010
1000
,
0100
0010
0100
1000
,
0200
0000
0302
0000
,
2003
0000
3020
0000
,
1030
0010
1000
0100
,
0001
1000
0010
0100
,
0020
0000
2030
0000
,
3002
0000
0203
0000
,
0310
2000
0000
3000
,
0010
0100
0010
1000
,
0200
0000
0000
0300
,
1000
0100
0010
0001
,
1001
0100
0010
0100
,
0010
0001
0100
1000
,
2002
0000
0000
0000
,
3003
1000
1001
0100
,
2002
0003
3010
0100
,
1000
0100
0010
0001
,
0100
0010
1000
0100
,
0002
0023
0230
2300
,
3002
0000
1003
0100
,
0010
1000
0100
0010
,
1001
0100
0010
0100
,
2000
0000
3020
0000
,
0032
0000
0000
0000
,
0000
0000
0000
0003
,
1001
0010
0100
0001
,
0010
0100
0010
0001
,
0020
0000
2030
0000
,
3002
0000
0203
0000
,
0301
0100
0001
0010
,
1000
0001
0100
0010
,
0200
0000
0302
0000
,
2003
0000
3020
0000
,
0030
0100
0010
0100
,
0001
0020
0000
0000
,
0030
0001
0010
0100
,
1000
0010
0100
1000
,
1001
0010
0100
0010
,
0110
1000
0010
0001
,
2002
0000
0000
0000
,
3003
0001
1001
0010
,
2002
3000
0103
0010
,
0001
0010
0100
1000
,
0010
0100
0001
0010
,
2000
3200
0320
0032
,
2003
0000
3001
0010
,
0100
0001
0010
0100
,
1001
0010
0100
0010
,
0002
0000
0203
1300
,
1001
0010
0001
1000
,
2000
0000
3001
0100
,
1001
0100
0010
0001
,
2000
0000
3002
0000
,
0023
0000
0000
0000
,
0000
0000
0000
0030
,
2002
0000
0000
0000
,
3003
0000
0000
0000
;
