#TITLE:Hanayakana Nigiwai;
#SUBTITLE:;
#ARTIST:Iwasaki Fuminori;
#TITLETRANSLIT:;
#SUBTITLETRANSLIT:;
#ARTISTTRANSLIT:;
#CREDIT:;
#BANNER:Hanayakana-bn.png;
#BACKGROUND:Hanayakana-bg.png;
#LYRICSPATH:;
#CDTITLE:ddrace.png;
#MUSIC:23_Hanayakana nigiwai.mp3;
#OFFSET:0.234;
#SAMPLESTART:46.122;
#SAMPLELENGTH:12.000;
#SELECTABLE:YES;
#BPMS:0.000=130.090;
#STOPS:142.000=0.461
;
#BGCHANGES:;
// cache tags:
#FIRSTBEAT:1.000;
#LASTBEAT:213.000;
#SONGFILENAME:Songs/Fabulously Fresh Flock of Fantastic Files F5/(ddrace) Hanayakana nigiwai/Hanayakana nigiwai.sm;
#HASMUSIC:1;
#HASBANNER:1;
#MUSICLENGTH:99.712;
// end cache tags

//---------------dance-single - Copied from----------------
#NOTES:
     dance-single:
     Copied from:
     Hard:
     10:
     1.000,0.881,1.000,0.552,0.431,500.000,167.000,55.000,0.000,0.000:
0000
0000
0000
0000
2000
0000
3001
0100
0010
1000
0010
0100
0001
0000
1000
0000
,
0200
0000
0310
0001
0010
0100
1000
0010
0100
0000
0001
0000
0020
0000
0130
0001
,
0100
1000
0010
0001
0010
0000
1000
0000
0010
0000
0100
0000
0001
0000
1000
0000
,
0100
0000
0010
0000
0002
0000
1003
0010
0100
0001
1000
0010
0100
0000
0001
0000
,
2000
0000
3001
0010
0100
1000
0001
0010
0100
0000
1000
0000
0020
0000
1030
0100
,
0010
0001
1000
0100
0010
0000
0001
0000
0010
0000
0100
0000
1000
0000
0010
0000
,
0100
0000
0001
0000
0110
0000
0100
0010
1000
0100
0010
0001
0100
0000
0101
0000
,
1001
0000
1000
0100
0010
0001
1000
0100
0010
0000
0011
0000
0011
0000
0001
0010
,
0100
1000
0001
0010
0100
0000
1100
0000
1001
0000
0110
0000
1010
0000
1100
0000
,
0011
0000
0101
0000
1001
0000
0010
0100
0001
1000
0010
0100
0001
0000
0101
0000
,
1001
0000
1000
0100
1000
0001
1000
0100
1000
0000
1010
0000
0110
0000
0001
0100
,
0001
1000
0001
0100
0001
0000
1001
0000
1010
0000
0110
0000
0101
0000
0011
0000
,
0110
1100
1001
0110
1001
0110
1001
1100
,
0011
1010
0101
1100
0011
0110
1002
1000
,
1003
2010
0010
3010
0201
0001
0301
0012
,
0010
0000
0013
0000
0100
1000
0010
0000
0110
0000
0001
0000
0010
0000
0100
0000
,
1100
0110
0011
1100
0110
0011
2001
0001
,
3001
0102
0100
0103
2010
0010
3010
0120
,
0100
0000
0130
0000
0002
0000
0203
0000
0320
0000
2030
0000
3200
0000
0320
0030
,
0011
0000
0110
0000
1100
0000
1010
0000
0101
0001
0010
0000
0120
0000
0100
0000
,
0130
0021
0001
0031
0102
0100
0103
2010
,
0010
3010
0200
0320
2030
3200
0320
0032
,
0103
1100
0011
1001
0101
0110
2010
0010
,
3010
0102
0100
0103
0201
0001
0301
1020
,
1000
1030
2100
0100
3100
0012
0010
0013
,
0011
1010
1100
0101
1001
0100
1002
1000
,
1003
2001
0001
3001
0102
0100
0100
0103
,
0100
0001
1000
0000
2001
0000
0001
0000
3001
0000
1002
0000
1000
0000
1003
0000
,
2100
0000
0100
0000
0100
0000
3100
0000
0100
1000
0001
0000
0201
0000
0001
0000
,
0301
1200
1000
1300
0120
0100
0100
0130
,
0100
0001
1000
0000
1200
0000
1000
0000
1300
0000
0201
0000
0001
0000
0301
0000
,
0120
0100
0130
1001
0010
0010
1010
1000
,
1000
1100
0100
0010
0011
0001
1001
1001
,
0100
0010
1000
0101
1000
0101
1000
0101
,
1000
0110
0101
1001
1100
0110
0011
1000
,
0010
0100
0001
0010
0110
1001
1001
1001
,
0101
0000
0001
1000
0100
0010
0001
0100
0010
0000
0010
0000
0210
0000
0310
1000
,
0001
0100
0010
1000
0001
0000
1001
0000
1200
0000
1300
0100
0010
0001
1000
0100
,
0010
0011
0110
1100
1010
0110
0101
1001
,
2100
0000
3001
0100
0010
1000
0001
0100
0010
0000
1010
0000
2010
0000
3010
0100
,
0001
1000
0100
0010
0001
0000
0011
0000
1002
0000
0013
0100
1000
0001
0010
0100
,
1000
1100
1001
0011
1010
0101
1100
0011
,
1001
0000
0001
0100
1000
0100
0001
0010
1000
0000
1010
0000
1010
0000
0010
0001
,
0100
1000
0100
0001
0010
0000
0011
0000
0110
0000
1000
0100
0001
0100
1000
0010
,
0001
0011
0110
1010
1100
0110
0011
0101
,
1010
0000
0010
1000
0100
1000
0010
1000
0100
0000
1100
0000
0011
0000
0010
0001
,
0100
0001
0010
0001
0100
0000
0101
0000
0110
0000
0010
0100
1000
0100
0001
0100
,
0010
1010
1001
0101
1100
0011
0101
1010
,
1001
1100
0001
0110
0010
1010
0001
0101
,
0100
0000
0010
0000
1000
0000
0100
0000
0011
0000
0001
0010
0100
1000
0001
0010
,
0100
0000
1100
0000
1001
0000
1000
0100
0010
0001
1000
0100
0010
0000
0011
0000
,
1001
0000
0001
0010
0100
1000
0010
0100
0001
0000
0101
0000
0110
0000
0000
0000
,
2002
0000
0000
0000
,
0000
3003
0000
0000
;
