#TITLE:Dragon Half;
#SUBTITLE:- My Omelette;
#ARTIST:三石琴乃;
#TITLETRANSLIT:;
#SUBTITLETRANSLIT:;
#ARTISTTRANSLIT:Mitsuishi Kotono;
#CREDIT:;
#BANNER:My.png;
#BACKGROUND:My-bg.png;
#LYRICSPATH:;
#CDTITLE:;
#MUSIC:Dragon Half - My Omelette.mp3;
#OFFSET:0.000;
#SAMPLESTART:48.938;
#SAMPLELENGTH:12.000;
#SELECTABLE:YES;
#BPMS:0.000=144.300;
#STOPS:;
#BGCHANGES:;
// cache tags:
#FIRSTBEAT:12.250;
#LASTBEAT:389.250;
#SONGFILENAME:Songs/Anime Songs/My Omelette/My Omelette.sm;
#HASMUSIC:1;
#HASBANNER:1;
#MUSICLENGTH:166.329;
// end cache tags

//---------------dance-single - Challenge----------------
#NOTES:
     dance-single:
     Challenge:
     Challenge:
     9:
     0.565,0.585,0.379,0.174,0.195,566.000,63.000,29.000,0.000,0.000:

0000
0000
0000
0000
,
0000
0000
0000
0000
,
0000
0000
0000
0000
,
0000
0100
0000
0000
0000
0000
0000
0000
0000
0001
0000
0000
0000
0000
0000
0000
,
0000
0100
0000
0000
0000
0000
0000
0000
0000
1000
0000
0000
0000
0000
0000
0000
,
0001
0001
0001
0100
0100
1000
1000
0010
,
0010
0000
1000
0000
0010
0000
1000
0000
0010
0000
1000
0000
1000
0010
0000
0000
,
0000
0100
0001
0100
0001
0100
0100
1000
,
0100
0100
0100
0001
0100
0100
0000
0101
,
0000
0100
1000
0010
1000
0010
0001
0100
,
0001
0000
0100
0000
0001
0000
0010
0000
1000
0000
0010
0000
0000
0010
1000
0000
,
0000
0100
0001
0100
0010
0100
0010
1000
,
0010
0100
0001
0101
0101
0100
0000
0101
,
0000
0100
0100
0100
0001
0001
0001
0010
,
0010
0010
1000
1000
1000
0100
0001
0101
,
0000
0100
1000
1010
0001
0010
0100
0110
,
0010
0110
0001
0101
0001
0101
0000
0001
,
0000
0100
1000
0010
1000
0010
1000
0010
,
1000
0100
1000
0010
1000
1010
0110
0101
,
0000
0001
0100
0010
1000
0010
0100
0001
,
0100
0000
0110
0000
0000
0000
1010
0000
0000
0000
0100
0000
0010
0100
0010
0000
,
0000
0000
0100
0000
0001
0010
0001
0000
0000
0000
0100
0000
1000
0100
1000
0000
,
0000
0000
0001
0000
0010
0100
0010
0000
0000
0000
0010
0000
0010
0000
0100
0000
,
0100
0001
0001
1000
1000
0100
0001
0100
,
1000
0000
0100
0000
0001
0000
0100
0000
1000
0000
0001
0000
1000
0100
0001
0000
,
0000
0000
1000
0000
0001
0100
1000
0000
0000
0000
0010
0000
0100
0010
0100
0000
,
0000
0000
0100
0000
0010
0100
0010
0000
0000
0000
0001
0000
0000
0000
0100
0000
,
0000
1000
0000
0100
0000
0001
0100
1000
,
0100
0001
1000
0010
1000
2020
0000
0000
,
0000
3030
0000
0002
0000
0203
0000
0320
,
0000
0130
0000
0020
0000
1030
0100
0001
,
0010
0100
0000
0102
0000
0203
0000
2300
,
0000
0000
3200
0000
0000
0000
0320
0000
0000
0000
0130
0000
0000
0000
0100
0010
,
0100
0010
0100
0000
0000
0000
0001
0000
0000
0000
0101
0000
0000
0000
1000
0000
,
0000
1010
0000
0010
0000
0020
0000
0000
,
0030
0000
0000
0100
0001
0100
0001
0100
,
0000
0000
0101
0000
0000
0000
0100
0000
0000
0000
1000
0000
0000
0010
0100
0000
,
0000
0100
0010
0000
0000
1000
0001
0000
0000
0001
0100
0000
0000
1000
0100
0000
,
0000
0010
0100
0000
0000
0000
1010
0000
0000
1000
0100
0000
0000
0100
0010
0000
,
0000
1000
0010
0000
0000
1000
0010
0000
0000
0100
0010
0000
0000
0010
0100
0000
,
0000
0100
0010
0000
0000
0000
0001
0000
0000
0100
0002
0000
0000
0000
1000
0000
,
0000
0103
0000
1010
0000
0000
0100
1000
,
0010
0000
1000
0000
0010
0000
0000
0000
1010
0000
0000
0110
0000
0000
0000
0110
,
0000
0000
0000
0110
0000
0000
0000
0000
0000
0000
0000
0000
0010
0000
0001
0001
,
0000
0000
0001
0100
0000
0000
0000
0000
0100
0000
0000
0000
1000
0000
0010
0000
,
1000
0000
0200
0000
0001
0000
0001
0300
,
0020
1000
1030
0100
,
0100
0101
0100
0002
,
0000
1000
2000
0000
0000
3003
1000
0000
,
0010
1000
0200
0001
,
0010
0000
0001
0000
0010
0300
0100
0000
,
0101
0100
1000
0200
,
0000
0000
0001
0000
0301
0000
0000
0000
0002
0000
0000
0020
0000
0000
0000
0000
,
0000
0000
0000
0000
,
0000
0000
0000
0033
0000
0000
0100
2000
,
3010
0000
0000
0000
0000
0000
1000
0020
,
1030
0000
0000
0000
0000
0000
0100
0010
,
0010
0000
0100
0010
0010
0000
0001
0100
,
1000
0000
1000
0100
0001
0000
0100
1000
,
0010
1000
0010
1000
1010
0100
0001
0100
,
0001
0000
0100
0000
0001
0000
0000
0010
0100
0000
0000
0000
0100
0000
1000
0000
,
0010
1000
0010
1000
1010
0010
0010
0100
,
0010
0100
0110
0000
0110
0000
0001
0100
,
0001
0000
0101
0100
0001
0000
0001
0001
,
0100
0001
0100
0001
0100
1000
0010
1000
,
1010
0000
0010
0000
0100
0000
0000
0000
0010
0100
0000
0000
0100
0000
0001
0000
,
0100
1000
0100
0001
0100
0001
0101
0000
,
0101
0000
0100
1000
1100
0000
0010
0000
,
0000
0010
0100
0001
0100
0001
0100
0000
,
1000
0000
1010
0010
1010
0100
0001
0000
,
0101
0000
0000
0000
0100
0000
1000
0000
1000
0100
1000
0100
0000
0000
0110
0000
,
0101
0000
0001
0100
0101
0000
0100
1000
,
1100
0000
0000
0000
1000
0000
1010
0000
1000
0000
0010
0000
0100
0010
0100
0010
,
0100
0000
0010
0000
0001
0100
0001
0000
0002
0000
0000
0000
0000
0000
0000
0003
,
1000
0100
1000
0000
0200
0000
0000
0000
0000
0000
0300
0000
0100
0000
0100
0000
,
1000
1000
0010
0010
1000
0010
0110
0001
,
0101
0000
0101
0110
1100
0000
0100
0001
,
0010
0100
1000
0010
1010
0100
0001
0001
,
0001
0000
0000
0000
0100
0000
0000
0000
0101
0000
0000
0000
0100
0000
1000
0100
,
1000
0000
0000
0000
0100
0000
0010
0100
0010
0000
0000
0000
0100
0000
0001
0010
,
0001
0000
0000
0000
0000
0100
0000
0000
0000
0100
0000
0000
0000
1000
0000
0000
,
0100
0010
0001
0100
0000
0010
0100
0101
,
0000
0000
0110
0000
0101
0000
0001
0000
0100
0010
0100
0000
0000
0000
1000
0000
,
0100
1000
0100
0000
0000
0000
0001
0000
0010
1000
0010
0000
0000
0000
1000
0000
,
0100
0001
0100
0000
0000
0001
0000
0000
0000
0100
0000
0000
0000
1000
0000
0000
,
0000
0100
0000
0000
0000
0001
0000
0000
0000
0001
0000
0000
0000
0100
0000
0000
,
0000
1000
0000
0000
0000
0000
0010
0000
1000
0000
0010
0000
1000
0000
0100
0000
,
0001
0100
0001
0100
1000
0010
0100
0010
,
0100
0001
0100
0002
0000
0100
0000
0100
,
0000
0100
0100
0100
0000
0100
0000
0100
,
0003
1000
0010
2000
0000
0100
0000
3100
,
0000
0001
0000
0011
0000
0110
0000
0110
,
1000
0010
1000
1010
0000
1000
0100
1000
,
0000
0100
0000
1000
0000
1100
0000
0100
,
1000
1010
0100
0110
0100
0001
0100
0001
,
0100
0001
0100
1000
0100
1000
0010
1000
,
0010
0000
1000
0000
0010
0000
2020
0000
0000
0000
3030
0000
0100
1000
0100
0000
,
0000
0000
0000
0100
1000
0100
0000
0000
0000
0000
0000
0000
0000
0000
0000
0000;
