#TITLE:WhiteBlue;
#SUBTITLE:;
#ARTIST:ZTS;
#TITLETRANSLIT:;
#SUBTITLETRANSLIT:;
#ARTISTTRANSLIT:;
#CREDIT:;
#BANNER:blue-bn.JPG;
#BACKGROUND:blue-bg.jpg;
#LYRICSPATH:;
#CDTITLE:cdtitle.png;
#MUSIC:23-WhiteBlue.mp3;
#OFFSET:0.480;
#SAMPLESTART:20.450;
#SAMPLELENGTH:12.000;
#SELECTABLE:YES;
#BPMS:0.000=144.000;
#STOPS:;
#BGCHANGES:;
// cache tags:
#FIRSTBEAT:1.500;
#LASTBEAT:334.000;
#SONGFILENAME:Songs/Hard Songs Megapack Volume 9/WhiteBlue/the keel u.sm;
#HASMUSIC:1;
#HASBANNER:1;
#MUSICLENGTH:143.861;
// end cache tags

//---------------dance-solo - ----------------
#NOTES:
     dance-solo:
     :
     Hard:
     12:
     1.000,1.000,1.000,0.306,0.925,832.000,346.000,44.000,0.000,154.000:
000000
000000
000000
000000
000000
000000
100000
010000
001000
000100
000010
010000
001000
000100
000010
000001
,
110000
000010
001000
000000
000100
000000
001000
000010
100000
001000
000010
001000
000100
001000
000010
001000
,
110000
000010
001000
000000
000100
000000
001000
000010
100000
001000
000010
001000
000100
001000
000010
001000
,
010001
000010
001000
000000
000100
000000
001000
000010
000001
001000
000010
001000
000100
001000
000010
001000
,
010001
000010
001000
000000
000100
000000
001000
000010
000001
001000
000010
001000
200100
001000
000010
000100
,
311000
000001
000010
000000
100000
000000
001100
000011
010000
000100
002001
003100
100000
000100
000011
000100
,
011000
000001
000100
000000
100000
000000
001100
000011
010000
000100
002001
003100
100000
000100
010010
000100
,
001001
000100
010000
000000
000010
000000
110000
001100
000001
100000
001200
100300
000010
100000
011000
100000
,
001001
000100
100000
000000
000010
000000
110000
001100
000000
100000
001200
100300
000001
010001
000100
010000
,
101001
000000
000100
000000
110010
000000
001001
000000
100000
000000
001100
001000
110010
000000
000101
000000
,
101000
000000
000100
000000
110010
000000
001001
000000
100000
000000
001100
001000
110010
000000
000101
000000
,
101000
000000
000100
000000
110010
000000
001001
000000
100000
000000
001100
001000
110010
000000
000100
000000
,
101000
000000
000100
000000
110010
000000
000101
000000
100000
000000
001100
000100
110010
000000
000101
000000
,
101010
000010
111000
000010
101000
000010
111000
000010
,
101000
000001
001010
000000
111000
000001
001010
000000
101000
000001
001010
000000
111000
000100
001010
000000
,
101000
000100
001001
000000
111000
000100
001010
000000
101000
000100
001001
000000
111000
000100
001010
000000
,
100000
000000
000000
001100
000000
000000
100001
000000
000000
001000
000000
000000
100100
000000
000000
001100
000000
000000
100010
000000
000000
001000
000000
000000
100001
000000
001000
000001
100000
000000
001100
000000
100000
000000
001000
000000
100000
000000
000000
001001
000000
000000
100010
000000
000000
001000
000000
000000
,
100000
010000
000001
000000
100100
010000
000010
000000
100000
010000
001000
000000
100001
010000
000100
000000
,
100000
010000
001000
000000
100010
010000
000100
000000
101000
000100
000001
000000
110010
001000
000100
000000
,
011000
000100
000010
000000
101001
010000
000100
000000
011000
000100
000010
000000
101001
010000
000100
000000
,
011000
000100
000010
000000
101001
010000
000100
000000
011000
000100
000010
000000
101001
010000
000100
000000
,
100000
010000
000001
000000
100100
010000
000010
000000
100000
010000
001000
000000
100001
010000
000100
000000
,
100000
010000
001000
000000
100010
010000
000100
000000
101000
000100
000001
000000
110010
001000
000100
000000
,
101000
000100
000010
000000
101001
010000
000100
000000
101000
000100
000010
000000
010101
100000
001000
000000
,
010001
100000
001000
000000
010101
100000
001000
000000
010001
001000
000010
000000
011001
100000
000100
000000
,
100001
010000
001000
000000
100001
010000
000100
000000
100001
010000
001000
000000
100001
010000
000010
000000
,
100001
010000
001000
000000
100001
010000
000100
000000
110001
000100
000010
000000
110001
001000
000100
000000
,
110001
001000
000100
000000
110001
001000
000100
000000
110001
001000
000100
000000
110001
000100
001000
000000
,
110001
000100
001000
000000
110001
000100
001000
000000
110001
001000
000100
000000
101001
000100
010000
000001
,
100111
010000
001000
000000
100011
010000
000100
000000
100011
010000
001000
000000
100101
010000
000010
000001
,
100101
010000
001000
000000
100011
010000
000100
000000
111001
000100
000010
000000
111001
000010
000100
000001
,
110001
001000
000110
000000
110001
001000
000110
000000
110001
001000
000110
000000
111001
000100
001010
000001
,
011110
000001
100100
000001
000100
100001
000100
000001
102100
000001
000100
100001
000100
000001
103100
000001
,
111010
000000
000000
000002
,
000103
100000
010000
000000
,
001000
010000
000000
001000
,
000000
010000
001000
000100
,
000000
100000
010000
001000
,
000100
000000
000001
000010
,
000000
000100
001000
010000
,
000000
100000
010000
000000
,
000000
200000
320000
032000
,
020000
203000
302000
000000
,
233200
002300
000000
003200
,
320000
002300
003020
000032
,
030200
002003
003020
000032
,
202303
000000
003020
000230
,
300020
002300
023000
032000
,
000031
000000
000000
000000
000000
000000
203000
000000
000000
000000
000000
000000
010000
001000
000100
000010
001000
000100
000010
000001
000100
000010
001000
000100
,
300001
000010
000100
001000
010000
100000
000001
001000
000010
010000
000100
100000
001001
000100
000010
001000
000100
010000
002000
003200
002300
003020
000230
000320
,
101131
010000
001010
000000
000100
101000
000010
000100
,
100000
000000
001000
000000
000101
000000
100010
000000
000000
000000
110000
000000
001010
100000
000100
000000
,
100010
000000
000000
000000
000101
000000
100010
000000
000000
000000
100100
000000
010010
100000
000100
000000
,
100000
000000
001000
000000
000011
000000
001100
000000
000000
000000
010100
000000
001001
000010
000100
000001
,
000010
010000
001100
100000
000001
100010
010100
001000
,
000100
000000
100000
000000
010001
000000
100100
000000
000000
000000
100100
000000
001010
010000
000100
000000
,
000001
000000
001000
000000
001100
000000
100000
000000
000100
000000
101000
000000
000001
000000
010000
000001
,
100000
000000
000000
000000
000100
000000
100000
000000
001000
000000
000010
000000
100001
000000
000000
000000
000010
000000
000010
000000
110000
000000
000000
000000
000101
000000
000000
000000
010010
001000
000100
000010
,
100001
000000
010000
000000
001011
000000
100000
000000
000101
000000
101000
000000
000011
100000
000100
000000
,
100001
000000
001000
000000
010101
000000
100010
000000
000001
000000
110000
000000
001011
100000
000100
000001
,
101010
000000
001101
100010
001000
100100
011010
000100
,
110000
000000
000000
000000
000000
000000
001000
000000
000000
000000
000000
000000
010011
000000
000000
000000
000000
000000
001100
000000
000000
000000
000000
000000
100000
000000
000000
000000
000000
000000
020010
030000
002000
003000
000200
000300
002001
003000
000000
100010
000000
000000
000100
000000
000000
001001
000000
000000
,
100010
000000
110000
000000
101000
000000
100000
000000
100001
000000
100010
000000
100100
000001
101000
000001
,
100001
000000
110000
000000
101000
000000
100010
000000
100000
000000
100100
000000
101000
000000
100100
000001
,
100001
000100
101001
000100
101001
000100
100001
010100
100011
000100
101001
000100
100001
000100
110001
001100
,
100001
000000
010101
100010
001000
010110
101001
000000
100111
000000
010000
000000
001101
000000
010000
000000
,
100110
000001
011000
000000
100100
000000
001000
000010
010001
001000
000110
001000
100000
001000
000011
001000
,
000101
000010
110000
000000
001001
000000
010010
000100
000001
010000
100100
010000
001010
010000
001100
010000
,
100011
000100
001000
000000
010001
000000
001010
000100
100000
001000
000110
001000
110000
001000
000110
001000
,
010001
000010
101000
010000
000110
000000
101000
010000
000010
100000
011000
100000
000101
100000
010010
100000
,
001100
000001
011000
000000
100010
000000
010000
001000
000101
010000
001010
010000
100100
010000
001010
010000
,
000110
000001
110000
001000
000101
000000
010010
001000
100000
010000
001010
010000
000101
010000
001010
010000
,
101000
000001
000110
000000
010100
000000
001000
000001
100010
001000
000101
001000
000010
001000
110001
001010
,
010100
000000
000000
100001
000000
000000
011100
000000
000000
000010
000000
000000
100001
000000
000000
000100
000000
000000
011010
000000
000000
000101
000000
000000
110010
000000
000000
001000
000000
000000
100011
000000
000100
001000
100000
000000
010110
000000
000000
001000
000000
000000
100001
000000
000000
001000
000000
000000
,
000101
110010
111011
000000
111101
001110
110000
001101
,
001010
110100
111101
011010
000101
111000
110111
011010
,
101111
000000
111101
011010
100100
011010
110111
011010
,
001001
110100
011111
110100
000111
101010
111101
101011
,
010101
000000
111000
000000
101111
000000
000000
000000
110111
000000
001011
000000
110111
000000
111000
000001
,
100101
000000
111000
000000
111011
000000
001011
000000
100100
000000
010110
001000
111101
000000
010110
000000
,
101001
000000
111100
000000
110111
000000
001000
000000
111011
000000
110101
000000
011010
000100
110011
000100
,
111001
000000
011010
000101
101010
000000
101111
000000
000000
001001
110100
000000
011111
000001
110100
000001
,
111111
000000
000000
000000
;

//---------------dance-solo - ----------------
#NOTES:
     dance-solo:
     :
     Easy:
     1:
     0.000,0.000,0.000,0.000,0.000,0.000,0.000,0.000,0.000,0.000:
000000
000000
000000
000000
;

//---------------dance-double - ----------------
#NOTES:
     dance-double:
     :
     Hard:
     1:
     1.000,1.000,1.000,0.528,1.000,923.000,440.000,76.000,7.000,206.000:
00000000
00000000
00000000
00000000
00000000
00000000
00000000
00000000
00000000
00000000
00000000
00000000
00000000
00000000
00000000
00000000
00000000
00000000
00000000
00000000
00000000
00000000
00000000
00000000
10000000
00000000
00000000
00000000
01000000
00000000
00000000
00000000
00100000
00000000
00000000
00000000
00010000
00000000
00000000
00000000
01000000
00000000
00000000
00000000
00100002
00000003
00000000
00000000
00010002
00000003
00000000
00000000
00001000
00000000
00000000
00000000
00000100
00000000
00000000
00000000
00000010
00000000
00000000
00000000
,
10020000
00030001
00001000
00001000
10000000
00001000
00021000
00030001
10000000
00001000
00000001
00001000
10020000
00031000
00000001
00001000
,
10000000
00000001
00001000
00001000
10000000
00001000
00001000
00000001
10000000
00001000
00000001
00001000
10000000
00001000
00000001
00001000
,
10000000
00000001
00001000
00001000
10000000
00001000
00001000
00000001
10000000
00001000
00000001
00001000
10000000
00001000
00000001
00001000
,
10000000
00000001
00001000
00001000
10000000
00001000
00001000
00000001
10000000
00001000
00000001
00001000
10000000
00001000
01020001
00001000
,
10030000
00000001
01001000
00001000
10000000
00001000
00011000
00000001
10000000
00001000
00100001
00101000
10000000
00001000
01000001
00001000
,
10000000
00000001
01001000
00001000
10000000
00001000
00011000
00000001
10000000
00001000
00100001
00101000
10000000
00001000
01000001
00001000
,
10000000
00000001
01001000
00001000
10000000
00001000
00011000
00000001
10000000
00001000
00100001
00101000
10000000
00001000
01000001
00001000
,
10000000
00000001
01001000
00001000
10000000
00001000
00011000
00000001
10000000
00001000
00100001
00101000
10000000
10001000
01000001
00001000
,
10021000
00000100
01130010
00000001
10011000
00000100
01010010
00000001
10001000
00000100
01100010
00100001
10011000
00000100
01100010
00000001
,
10001000
00000100
01100010
00000001
10011000
00000100
01010010
00000001
10001000
00000100
01100010
00100001
10011000
00000100
01100010
00000001
,
10001000
00000100
01100010
00000001
10011000
00000100
01010010
00000001
10001000
00000100
01100010
00100001
10011000
00000100
01100010
00000001
,
10001000
00000100
01100010
00000001
10011000
00000100
01010010
00000001
10001000
00000100
01100010
00100001
10011000
00000100
01100010
00020001
,
10031000
00000100
10000010
00000001
10011000
00000100
10000010
10000001
10001000
00000100
10200010
00300001
10010010
00000000
10000100
10000000
,
10000010
10000000
10000100
10000000
10010010
10000000
10000100
10000000
10000000
10000000
10200100
10300000
10010010
10000000
10000010
10000000
,
10000010
10000000
10000010
10000000
10010010
10000000
10000010
10000000
10000010
10000000
10200010
10300000
10010010
10000000
10000010
10000000
,
10000100
00000000
00000000
10000100
00000000
00000000
10000010
00000000
00000000
10000000
00000000
00000000
10011000
00000000
00000000
10001000
00000000
00000000
10000010
00000000
00000000
10000000
00000000
00000000
10000100
00000000
10000000
00000100
10000000
00000000
10200010
00000000
10000000
00300000
10000000
00000000
10100010
00000000
00000000
10100010
00000000
00000000
10000001
00000000
00000000
10000000
00000000
00000000
,
10120010
00000010
00030001
00000000
10100010
00000010
00000001
00000000
10100100
00000100
00001000
00000000
10100010
00000010
00000001
00000000
,
10100010
00000010
00000100
00000000
10101000
00001000
00000010
00000000
10100001
00000001
00000010
00000000
10100100
00000100
00001000
00000000
,
10100010
00000010
00000100
00000000
10100010
00000010
00000100
00000000
10100010
00000010
00000100
00000000
10100010
00000010
00000100
00000000
,
10100010
00000010
00000100
00000000
10100010
00000010
00000100
00000000
10100010
00000010
00000100
00000000
10100010
00000010
00000100
00020000
,
10131000
00001000
00000010
00000000
10101000
00001000
00000010
00000000
10100100
00000100
00000001
00000000
10101000
00001000
00000010
00000000
,
10100100
00000100
00000001
00000000
10100000
00000000
00000000
00000000
10100000
00000000
00000000
00000000
10100000
00000000
00000000
00000000
,
10100000
10100000
10100000
10100000
,
10100000
00000000
00000000
00000000
00000000
00000000
00000000
00000000
00000000
00000000
00000000
00000000
10100000
00000000
00000000
00000000
00000000
00000000
00000000
00000000
00000000
00000000
00000000
00000000
12100000
00000000
00000000
00000000
00000000
00000000
00000000
00000000
03020000
00000000
00000000
00000000
10100000
00000000
00000000
00000000
00000000
00000000
00000000
00000000
00030000
01000000
00000000
00000000
,
12110000
03000000
10110000
00000000
10110000
00000000
10110000
00000000
,
10110000
00000000
00000000
00000000
10110000
00000000
00000000
0M000000
1M110000
00000000
00000000
00000000
10110000
00000000
00000000
00000000
,
10110000
10110000
10110000
10110000
,
10110000
00000000
00000000
00000000
10110000
00000000
00000000
00000000
10110000
00000000
00000000
00000000
10110000
00000000
00000000
01000000
,
12110000
00000000
03000000
00000000
10110000
00000000
00000000
00000000
10110000
00000000
00000000
00000000
10110000
00000000
00000000
00010000
,
10110000
00000000
00000000
00000000
10110000
00000000
00000000
00000000
10110000
00000000
00000000
00000000
10110000
00000000
00000000
00010000
,
10010000
00000000
00010000
00000000
10010000
00000000
00010000
00010000
10010000
00000000
00010000
00000000
10010000
00000000
00010000
00010000
,
02010000
00000000
00000000
00010000
00000000
00000000
13010000
00000000
00000000
00010000
00000000
00000000
00010000
00000000
00000000
10011000
00000000
00000000
00010100
00000000
00000000
00010001
00000000
00000000
10010010
00000000
00010000
00000100
00010000
00000000
02211000
00000000
00010000
10000010
00010000
00000000
00010100
00000000
00000000
00011000
00000000
00000000
13310010
00000000
00000000
00010100
00000000
00000000
,
11100002
00000000
00000000
00000000
00000000
00000000
00000000
00000000
01000000
00000000
00000000
00000000
00000000
00000000
00000000
00000000
00000000
00000000
00000000
00000000
00000000
00000000
00000000
00000000
01100000
00000000
00000000
00000000
00000000
00000000
00000000
00000000
01000000
00000000
00000000
00000000
00000000
00000000
00000000
00000000
00000000
00000000
00000000
00000000
00000000
00000000
00000000
00000000
01102003
00000000
00000000
00000000
00000000
00000000
00000000
00000000
00000000
00000000
00000000
00000000
00000000
00000000
M0000000
0M000000
,
10M03000
0M000000
M0000000
00000000
00000000
00000000
00000000
00000000
00000000
00000000
00000000
00000000
00000000
00000000
00000000
00000000
10000000
00000000
00000000
00000000
00000000
00000000
00000000
00000000
00000000
00000000
00000000
00000000
00000000
00000000
00000000
00000000
01000000
00000000
00000000
00000000
00000000
00000000
00000000
00000000
00000000
00000000
00000000
00000000
00000000
00000000
00000000
00000000
00000000
00000000
00000000
00000000
00000000
00000000
00000000
00000000
00000000
00000000
00000000
00000000
00000000
00000000
00000000
00000000
,
00001020
01000030
00000000
00001000
,
00000000
01000000
00001000
00000100
,
00000000
00000002
10000000
00000000
01000003
00000000
00100000
00000000
,
00010000
00000000
00000001
00000010
,
00000000
00000200
00001000
00000300
01000000
00000000
00100000
00000000
,
00000000
10000000
00010000
00000000
,
00000000
00000002
20000000
00000003
30201000
00000100
00320010
00000000
,
00031010
00000100
02000001
00000100
03021000
00100000
10031000
00100000
,
10002000
01000000
10023000
01000000
00130000
01000000
00012000
10000000
,
01013000
00100000
00010002
00100000
01000203
10000000
00010302
10000000
,
01000103
00100000
00021000
00000010
00130200
00000000
00001320
00100000
,
01020030
00100000
00030100
00100000
00000102
00100000
00000123
00100000
,
01000030
00000000
00000000
00100000
00000000
00000000
00012000
00000000
00000000
10000000
00000000
00000000
02013000
00000000
10000000
00000000
00010000
00000000
13200000
00000000
00000000
01000000
00000000
00000000
,
00310000
00000000
00000000
01000000
00000000
00000000
00120000
00000000
00000000
10000000
00000000
00000000
00131000
00000100
00000010
01000001
00001000
00000100
00100010
00000001
00001000
01000100
00000010
00000001
,
00010010
00000000
00000000
00000000
00000000
00000000
00000000
00000000
00000100
00000000
00000000
00000000
00000000
00000000
00000000
00000000
00001000
00000000
00000000
00000000
00000000
00000000
00000000
00000000
10000001
00000000
00000000
00000000
00000000
00000000
00000000
00000000
00000010
00000000
00000000
00000000
00000000
00000000
00000000
00000000
00000100
00000000
00000000
00000000
00000000
00000000
00000000
00000000
00211000
00000000
00000000
00300000
00000000
00000000
00000000
00000000
00200001
00000000
00000000
00000000
00300000
00000000
00000000
00000000
00000010
00000000
00000000
00000000
00000000
00000000
00000000
00000000
10000100
00000000
00000000
00000000
00000000
00000000
00000000
00000000
00001000
00000000
00000000
00000000
00000000
00000000
00000000
00000000
00000001
00000000
00000000
00000000
00000000
00000000
00000000
00000000
00020010
00000000
00000000
00000000
00000000
00000000
00000000
00000000
00000100
00000000
00000000
00000000
00000000
00000000
00000000
00000000
00001000
00000000
00000000
00000000
00000000
00000000
00000000
00000000
00030001
00000000
00000000
00000000
00000000
00000000
00000000
00000000
00000010
00000000
00000000
00000000
00000000
00000000
00000000
00000000
00000100
00000000
00000000
00000000
00000000
00000000
00000000
00000000
00021000
00000000
00000000
00000000
00000000
00000000
00000000
00000000
00000001
00000000
00000000
00000000
00000000
00000000
00000000
00000000
00000010
00000000
00000000
00000000
00000000
00000000
00000000
00000000
01030100
00000000
00000000
00000000
00000000
00000000
00000000
00000000
01001000
00000000
00000000
00000000
00000000
00000000
00000000
00000000
01000001
00000000
00000000
00000000
00000000
00000000
00000000
00000000
,
11200100
00311000
01000100
00010000
00000010
10010100
01000000
00010010
,
10000000
00000000
00010100
00000000
01000010
00000000
10010001
00000000
00000000
00000000
10011000
00000000
01000100
10000000
00010010
00000000
,
10000001
00000000
00010000
00000000
01000001
00000000
10010010
00000000
00000000
00000000
10010100
00000000
01001000
10000000
00010100
00000000
,
10000000
00000000
00010010
00000000
01001000
00000000
10010010
00000000
00000000
00000000
10211000
00000000
01300100
10000000
00010001
01010000
,
10000000
00000100
00010000
00000100
01000000
00000100
10010000
00000100
00000000
00000100
10010000
00000100
01000000
00000100
00010000
00000100
,
10000000
00000100
00010000
00000100
01000000
00000100
10010000
00000100
00000000
00000100
10010000
00000100
01000000
10000100
00010000
00000100
,
10000000
00000001
00010000
00000001
01000000
00000001
10010000
00000001
00000000
00000001
10010000
00000001
01000000
00000001
00010000
01010001
,
10000000
00000000
00000000
00000001
00000000
00000000
00010000
00000000
00000000
10000001
00000000
00000000
00000000
00000000
00000000
01000001
00000000
00000000
10010000
00000000
00000000
00010001
00000000
00000000
01000000
00000000
00000000
01000001
00000000
00000000
10010000
00000000
00000000
00000201
00000000
00000000
01002300
00000000
00000000
00000001
00000000
00000000
01010000
00000000
01000000
00003001
01000000
00000000
,
10120000
00030000
00010000
00000000
01100000
00000000
10010000
00000000
00100000
00000000
10010000
00000000
01100000
10000000
00010000
00000000
,
10100000
00000000
00010000
00000000
01100000
00000000
10010000
00000000
00100000
00000000
10020000
00000000
01130000
10000000
00010000
01010000
,
10100000
00010000
01100000
10010000
00100000
10010000
01100000
00010000
,
10100000
00000000
00000000
00000000
00010000
00000000
00000000
00000000
01100000
00000000
00000000
00000000
10010000
00000000
00000000
00000000
00100000
00000000
00000000
00000000
10011000
00000100
00011000
00000100
01101000
00000000
10000000
00000000
00010000
00000000
00100000
00000000
,
10100000
00000000
10010000
00000000
10100000
00000000
10020000
00000000
10130000
00000000
10010000
00010000
10100000
01000000
10010000
00100000
,
10100000
00000000
10010000
00000000
10100000
00000000
10010000
00000000
10100000
00000000
10010000
00000000
10100000
01000000
10010000
00100000
,
10100000
10000000
10100000
10000000
10100000
10000000
10100000
10100000
10100020
10000000
10100000
10000000
10100000
10000000
10101030
10100001
,
10100010
00000000
00000000
00000000
00000000
00000000
00000000
00000000
00000000
00000000
00000000
00000000
00000100
00000000
00000000
00000000
00000000
00000000
00000000
00000000
00000000
00000000
00000000
00000000
10121000
00000000
00000000
00000000
00000000
00000000
00000000
00000000
00000000
00000000
00000000
00000000
10100001
00000000
00000000
00000000
00000000
00000000
00000000
00000000
00000000
00030000
00000000
00000000
00010000
00000000
00000000
00000000
00000000
00000000
00000000
00000000
00010000
00000000
00000000
00000000
10100100
00000000
00000000
00000000
00010000
00000000
00000000
00000000
00000000
00000000
00000000
00000000
10111000
00000000
00000000
00000000
00000000
00000000
00000000
00000000
00000000
00000000
00000000
00000000
00000100
00000000
00000000
00000000
00000000
00000000
00000000
00000000
00000000
00000000
00000000
00000000
11121000
00000000
00000000
00000000
00000000
00000000
00000000
00000000
00000000
00000000
00000000
00000000
00000000
00000000
00000000
00000000
00000000
00000000
00000000
00000000
00000000
00000000
00000000
00000000
00030000
00000000
00000000
00000000
00000000
00000000
00000000
00000000
00000000
00000000
00000000
00000000
00000000
00000000
00000000
00000000
00000000
00000000
00000000
00000000
00000000
00000000
00000000
00000000
00020000
00000000
00000000
00000000
00000000
00000000
00000000
00000000
00000000
00000000
00000000
00000000
00000000
00000000
00000000
00000000
00000000
00000000
00000000
00000000
00000000
00000000
00000000
00000000
00030000
00000000
00000000
00000000
00000000
00000000
00000000
00000000
00000000
00000000
00000000
00000000
00000000
00000000
00000000
00000000
00000000
00000000
00000000
00000000
00000000
00000000
00000000
00000000
,
10100000
00000001
00011000
00001000
10100000
00001000
00011000
00000001
10100000
00001000
00010001
00001000
10100000
00001000
00010001
00001000
,
10100000
00000001
00011000
00001000
10100000
00001000
00011000
00000001
10100000
00001000
00010001
00001000
10100000
00001000
00010001
00001000
,
10100000
00000001
00011000
00001000
10100000
00001000
00011000
00000001
10100000
00001000
00010001
00001000
10100000
00001000
00010001
00001000
,
10100000
00000001
00011000
00001000
10100000
00001000
00011000
00000001
10100000
00001000
00010001
00001000
10100000
00001000
00010001
02001000
,
13100000
00000001
00011000
00001000
10100000
00001000
00011000
00000001
10100000
00001000
00010001
00001000
10100000
00001000
00010001
00001000
,
10100000
00000001
00011000
00001000
10100000
00001000
00011000
00000001
10100000
00001000
00010001
00001000
10100000
00001000
00010001
00001000
,
10100000
00000001
00011000
00001000
10100000
00001000
00011000
00000001
10100000
00001000
00010001
00001000
10100000
00000000
00010100
00000010
,
10100001
00000000
00000000
00000000
00000000
00000000
00000000
00000000
00000000
00000000
00000000
00000000
00000010
00000000
00000000
00000000
00000000
00000000
00000000
00000000
00000000
00000000
00000000
00000000
00010100
00000000
00000000
00000000
00000000
00000000
00000000
00000000
00000000
00000000
00000000
00000000
00000001
00000000
00000000
00000000
00000000
00000000
00000000
00000000
00000000
00000000
00000000
00000000
10100000
00000000
00000000
00000000
00000000
00000000
00000000
00000000
00000000
00000000
00000000
00000000
00000010
00000000
00000000
00000000
00000000
00000000
00000000
00000000
00000000
00000000
00000000
00000000
00010100
00000000
00000000
00000000
00000000
00000000
00000000
00000000
00000000
00000000
00000000
00000000
00000001
00000000
00000000
00000000
00000000
00000000
00000000
00000000
00000000
00000000
00000000
00000000
10220000
00000000
00000000
00000000
00000000
00000000
00000000
00000000
00000000
00000000
00000000
00000000
00000000
00000000
00000000
00000000
00000000
00000000
00000000
00000000
00000000
00300000
00000000
00000000
01130000
00000000
00000000
00000000
00000000
00000000
00000000
00000000
01100000
00000000
00000000
00000000
00000000
00000000
00000000
00000000
01100000
00000000
00000000
00000000
00000000
00000000
00000000
00000000
01120000
00000000
00000000
00000000
00000000
00000000
00000000
00000000
00000000
00000000
00000000
00000000
00000000
00000000
00000000
00000000
00000000
00000000
00000000
00000000
00000000
00000000
00000000
00000000
01030000
00000000
00000000
00000000
00000000
00000000
00000000
00000000
00000000
00000000
00000000
00000000
10000000
00000000
00000000
00000000
00000000
00000000
00000000
00000000
00000000
00000000
00000000
00000000
,
10210000
01301100
10011010
01000000
10010110
01001010
10010000
01000110
,
10010000
00000000
01001010
00000000
10010110
00000000
01000101
00000000
10010000
00000000
01001100
00000000
10011010
00000000
01000110
01000000
,
10010101
01000000
10010011
01000101
10010000
01000110
10011010
01000101
,
10010000
00000000
00000000
00000000
00000000
00000000
01001100
00000000
00000000
00000000
00000000
00000000
10010011
00000000
00000000
00000000
00000000
00000000
01001100
00000000
00000000
00000000
00000000
00000000
10210000
00000000
00000000
00000000
00000000
00000000
01001100
00000000
01000000
10000000
01000000
00000000
11311001
00000000
00000000
00000000
00000000
00000000
11000011
00000000
00000000
00010000
00000000
00000000
,
10210000
00000000
01301001
00000000
10010011
00000000
01000000
00000000
10010101
00000000
01000110
00000000
10011010
00000000
01001100
01010000
,
10210000
00000000
01301001
00000000
10011010
00000000
01000101
00000000
10210000
00000000
01300011
10000000
10011100
00000000
11010011
01010000
,
10210000
00010000
10311100
00010000
10011100
00010000
10010000
00010000
10210011
00010000
10310110
00010000
10010000
10010000
10011100
10010000
,
10210000
00000000
00000000
00010000
00000000
00000000
00311010
00000000
00000000
10010000
00000000
00000000
00011100
00000000
00000000
00010000
00000000
00000000
10010011
00000000
00000000
00010000
00000000
00000000
00010000
00000000
00000000
10010000
00000000
00000000
00010110
00000000
00000000
00010000
00000000
00000000
10011001
00000000
00000000
00010000
00000000
00000000
11010110
00000000
01000000
00010000
01000000
00000000
,
00200000
00300000
00000000
00000000
00000000
00000000
00000000
00000000
;

//---------------dance-single - ----------------
#NOTES:
     dance-single:
     :
     Challenge:
     15:
     1.000,1.000,1.000,0.070,1.000,1514.000,573.000,10.000,0.000,219.000:
0000
0000
0000
0000
0000
0000
1100
0011
1010
0101
0110
1001
1100
0110
0011
1001
,
1011
0100
1000
1000
1000
1000
1101
0010
0001
0001
0010
0100
0111
0100
1000
0010
,
0011
0100
1001
0001
0101
0001
0011
1000
0100
0100
0011
0100
1100
0100
1001
0010
,
0011
0100
1010
1000
1001
1000
1100
0001
0100
0100
1010
0001
0011
0001
1100
0010
,
0011
1000
0110
0100
0101
0100
1100
0010
1000
1000
0101
0010
1010
0010
0101
1001
,
1010
0100
1001
0001
0101
0001
1101
0010
1000
1000
0011
0101
1100
0100
1001
0010
,
0110
1000
0101
0100
0110
0100
1110
0001
1000
1000
0011
0110
1100
0100
0011
1000
,
1001
0100
1010
0010
0011
0010
1011
0100
1000
1000
0110
0101
1001
0001
1100
0010
,
0011
1000
0101
0001
0011
0001
1101
0010
1000
1000
0110
0110
1111
1111
0110
1001
,
1111
0000
0000
0100
0000
0000
0010
0000
0000
0001
0000
0000
1110
0000
0001
0000
0100
0000
0010
0000
1000
0000
0100
0000
0011
0000
0100
0000
1000
0000
0101
0000
0010
0000
1000
0000
0111
0000
1000
0000
0010
0000
0100
0000
0001
0000
1000
0000
,
0110
0001
1000
0100
1000
0010
1101
0010
1000
0100
0001
0010
1100
0010
0100
1001
0010
0100
1011
0100
0010
0001
0100
1000
,
0110
0001
0100
0010
0001
0100
1011
0100
1000
0010
1000
0100
1001
0010
0100
0011
0100
1000
0111
1000
0100
0010
0001
0010
,
1100
0000
0010
0000
0001
0000
0100
0000
0010
0000
1000
0000
0111
0000
1000
0000
0010
0000
0100
0000
0001
0000
1000
0000
0101
0000
0010
0000
0100
0000
0011
0000
1000
0000
0001
0000
1110
0000
0001
0000
1000
0000
0110
0000
1000
0001
0010
0000
,
1100
0000
0010
0000
1000
0000
0101
0000
1000
0000
0100
0000
0011
0000
1000
0000
0010
0000
1101
0000
0010
0000
0100
0000
1001
0000
0100
0000
0010
0000
1001
0000
0010
0001
1000
0000
0110
0000
1000
0000
0001
0000
1010
0000
0100
0000
0010
0000
,
1100
0000
0001
0000
0100
0000
1001
0000
0010
0000
0100
0000
0011
0000
1000
0000
0100
0000
1011
0000
0100
0000
0010
0000
1001
0000
0100
0000
0010
0000
1100
0000
0010
1000
0001
0000
0110
0000
1000
0000
0010
0000
0100
0000
0001
0000
0010
0000
,
1001
0000
1000
0000
1000
0000
1000
0000
1110
0000
0100
0000
0100
0000
0100
0000
0110
0000
0010
0100
0010
0000
0010
0000
0111
0000
0001
0000
0001
0000
0001
0000
,
1010
0000
0000
1100
0000
0000
1010
0000
0000
0100
0000
0000
0011
0000
0000
0101
0000
0000
0011
0000
0000
0100
0000
0000
1001
0000
0010
1000
0100
0000
1010
0000
0001
0000
0100
0000
1011
0000
0100
1001
0010
0000
1101
0000
0000
0010
0000
0000
,
1111
1000
1010
0000
1101
1000
1011
0000
1101
0100
0110
0010
1101
0100
0101
0000
,
0111
0001
1001
0000
0111
0010
1011
0000
1101
1000
1010
0010
1101
0001
0101
0000
,
1110
1000
1001
0000
1101
1000
1110
0000
1011
1000
1001
0001
1110
1000
1010
0000
,
0111
0000
0000
0100
0000
0000
1100
0000
0000
0000
0000
0000
1101
0000
0000
0100
0000
0000
0111
0000
0000
0000
0000
0000
0111
0000
0000
0100
0000
0000
1100
0000
0000
1000
0000
0000
0111
0000
0000
0100
0000
0000
0101
0000
0010
0000
0100
0000
,
1011
0010
0110
0000
0111
0010
1011
0000
1110
0100
0110
0010
1101
1000
1001
0000
,
0111
0001
1001
0000
0111
0010
1011
0000
1110
0010
0110
0100
1011
0001
0011
0000
,
1001
1000
0110
0010
1001
1000
0110
0010
1100
1000
0011
0010
1100
1000
0101
0001
,
1100
0000
0000
0100
0000
0000
0011
0000
0000
0001
0000
0000
1100
0000
0000
0100
0000
0000
0011
0000
0000
0001
0000
0000
0110
0000
0000
0100
0000
0000
1000
0100
0010
0001
1000
0100
0010
0001
1000
0100
0000
0000
0011
0000
0000
1101
0000
0000
,
1011
0100
1000
0110
1000
0000
0111
1000
0100
1010
0100
0000
1011
0100
0010
1100
0010
0000
1101
0010
0100
0011
0100
0000
,
1110
0001
0010
0101
0010
0000
1101
0010
0001
1010
0001
0000
1110
0001
0100
0011
0100
0000
1011
0100
0001
1100
0001
0000
,
1110
0001
1000
0101
1000
0000
0111
1000
0001
1010
0001
0000
1101
0010
0100
0011
0100
0000
1011
0100
0010
1100
0010
0000
,
1101
0000
0010
0000
1000
0000
0110
0000
1000
0000
0000
0000
1011
0000
0100
0000
0010
0000
0101
0000
0010
0000
0000
0000
1011
0000
0100
0000
0001
0000
1100
0000
0001
0000
0000
0000
1011
0000
0100
0000
1000
0000
0101
0000
1000
0110
0000
0000
,
1101
0000
0010
0000
0001
0000
0110
0000
0000
0001
0000
0000
1110
0000
0001
0000
1000
0000
0110
0000
0000
1000
0000
0000
0111
0000
1000
0000
0001
0000
1010
0000
0000
0001
0000
0000
1110
0000
0001
0000
0100
0000
0011
0000
0100
1001
0000
0000
,
1110
0000
0001
0000
1000
0000
0011
0000
0000
1000
0000
0000
0111
0000
1000
0000
0010
0000
1100
0000
0000
0001
0000
0000
1110
0000
0001
0000
0100
0000
0011
0000
0000
0100
0000
0000
1011
0000
0100
0000
0010
0000
0100
0000
0010
1001
0000
0000
,
1110
0001
1110
0001
1110
0001
1110
1001
0111
1000
0111
1000
0111
1000
0111
1001
,
0011
0100
1000
0100
0011
1000
0100
0010
1000
0001
0110
1000
0001
0100
1000
0010
1100
0010
0001
0100
0010
1000
0110
0001
1000
0100
0010
1000
0011
0100
0010
0100
,
1011
0000
0000
0000
0000
0000
0000
0000
0100
0000
0000
0000
0000
0000
0000
0000
0000
0000
0000
0000
0000
0000
0000
0000
0011
0000
0000
0000
0000
0000
0000
0000
0100
0000
0000
0000
0000
0000
0000
0000
0000
0000
0000
0000
0000
0000
0000
0000
2222
0000
0000
0000
0000
0000
0000
0000
0000
0000
0000
0000
0000
0000
0000
3000
,
1333
0000
0000
0000
1000
1000
1000
1000
0100
0100
0100
0100
0010
0000
0000
0000
,
0010
0010
0010
0010
0100
0100
0100
0100
0010
0000
0000
0000
0010
0010
0010
0010
,
0100
0000
0000
0000
1000
1000
1000
1000
0010
0010
0010
0010
0001
0001
0001
0001
,
0100
0000
0002
0000
1000
1000
1003
1000
0010
0010
0010
0010
0100
0100
0100
0100
,
2001
0001
0001
0001
3100
0000
0000
0000
0010
0010
0010
0010
0001
0001
0001
0001
,
0100
0000
0000
0000
0010
0010
0010
0010
1000
1000
1000
1000
0100
0100
0100
0100
,
0010
0000
0000
0000
1000
1000
1000
1000
0001
0001
0001
0001
1000
0000
0000
0000
,
1000
0000
0000
0000
0000
0000
0100
1000
0100
1000
0100
1000
0101
0010
0100
1010
0100
0010
1001
0010
0001
0010
0001
0010
,
1001
0000
0000
0100
0000
0000
1001
0010
1000
0110
1000
0010
1100
0001
0100
0011
0100
0001
1100
0000
0000
0010
0000
0000
,
0110
0001
0010
1001
0010
0001
1100
0001
1000
0011
1000
0001
1100
0000
0000
0001
0000
0000
1010
0100
0010
0101
0010
0100
,
1010
0000
0000
0100
0000
0000
1010
0001
0010
0101
0010
0001
1010
0100
1000
0101
1000
0100
1010
0001
0010
0101
0010
0001
,
1000
0000
0000
0010
0000
0000
1010
0100
1000
0101
1000
0100
1001
0010
1000
0010
1000
0010
1100
0001
1000
0011
1000
0001
,
1100
0010
1000
0011
1000
0010
1001
0000
0000
0100
0000
0000
1001
0010
0001
0110
0001
0010
1100
0010
0100
0011
0100
0010
,
1100
0000
0000
0010
0000
0000
1100
0001
1000
0011
1000
0001
1100
0010
0101
0010
1100
0010
0101
1000
0100
1010
0100
1000
,
0101
0000
0000
0000
0000
0000
0000
0000
0000
0000
0000
0000
0000
0000
0000
0000
0000
0000
0000
0000
0000
0000
0000
0000
0010
0000
0000
0000
0000
0000
0000
0000
0000
0000
0000
0000
0000
0000
0000
0000
0000
0000
0000
0000
0000
0000
0000
0000
0110
0000
0000
0000
0000
0000
0000
0000
1000
0000
0000
0000
0000
0000
0000
0000
0010
0000
0000
0000
0000
0000
0000
0000
1001
0000
0000
0000
0000
0000
0000
0000
0010
0000
0000
0000
0000
0000
0000
0000
1000
0000
0000
0000
0000
0000
0000
0000
0110
0000
0000
0000
0000
0000
0001
0000
0000
0000
0000
0000
0100
0000
0000
0000
0000
0000
0010
0000
0000
0000
0000
0000
0001
0000
0000
0000
0000
0000
1000
0000
0000
0000
0000
0000
0010
0000
0000
0000
0000
0000
0001
0000
0000
0000
0000
0000
1000
0000
0000
0000
0000
0000
0100
0000
0000
0000
0000
0000
0001
0000
0000
0000
0000
0000
0100
0000
0000
0000
0000
0000
0010
0000
0000
0000
0000
0000
1000
0000
0000
0000
0000
0000
0100
0000
0000
0000
0000
0000
0010
0000
0000
0000
0000
0000
,
0001
0000
0000
0000
0000
0000
0010
0000
0000
0000
0000
0000
0100
0000
0000
0000
0000
0000
1000
0000
0000
0000
0000
0000
0010
0000
0000
0000
0000
0000
0100
0000
0000
0000
0000
0000
0001
0000
0000
0000
0000
0000
0100
0000
0000
0000
0000
0000
0010
0000
0000
0000
0000
0000
1000
0000
0000
0000
0000
0000
0100
0000
0000
0000
0000
0000
1000
0000
0000
0000
0000
0000
0001
0000
0000
0000
0000
0000
0100
0000
0000
0000
0000
0000
0010
0000
0000
0000
0000
0000
1000
0000
0000
0000
0000
0000
0001
0000
0000
0000
0000
0000
1000
0000
0000
0000
0000
0000
0100
0000
0000
0000
0000
0000
0010
0000
0000
0000
0000
0000
1000
0000
0000
0000
0000
0000
0100
0000
0000
0000
0000
0000
0001
0000
0000
0000
0000
0000
0010
0000
0000
0000
0000
0000
0100
0000
0000
0000
0000
0000
0000
0000
0010
0000
0000
0000
0000
0000
0000
0000
0100
0000
0000
0000
0000
0000
0000
0000
1001
0000
0000
0000
0000
0000
0000
0000
0110
0000
0000
0000
0000
0000
0000
0000
1001
0000
0000
0000
0000
0000
0000
0000
,
1111
0000
0000
0000
0011
0000
0000
0000
1110
0001
0010
0100
0011
0000
0000
0000
0100
0000
0000
0000
1011
0000
0000
0000
0011
0100
0010
0001
1110
0000
0000
0000
,
1000
0000
0000
0000
1010
0000
0000
0000
0111
1000
0100
0010
1101
0000
0000
0000
0000
0000
0000
0000
1101
0000
0000
0000
1011
0100
1010
0100
1011
0000
0000
0000
,
1001
0000
0000
0000
0010
0000
0000
0000
0111
1000
0001
0100
1011
0000
0000
0000
0000
0000
0000
0000
1110
0000
0000
0000
0111
1000
0011
0100
1011
0000
0000
0000
,
1000
0000
0000
0000
0110
0000
0000
0000
1101
0010
0100
1000
0111
0000
0000
0000
0000
0000
0000
0000
1111
0000
1000
0000
0111
1000
0110
0001
1110
0000
1001
0100
,
1010
0000
0000
0000
1100
0000
0000
0000
0111
1000
0100
0010
1101
0000
0000
0000
0010
0000
0000
0000
1110
0000
0000
0000
1110
0001
0010
0100
1011
0000
0000
0000
,
1000
0000
0000
0000
0011
0000
0000
0000
1101
0010
1000
0100
1011
0000
0000
0000
0000
0000
0000
0000
1101
0000
0000
0000
0111
1000
0101
0010
1101
0000
0010
0000
,
1000
0000
0000
0000
0011
0000
0000
0000
1011
0100
0010
0001
1110
0000
0000
0000
0010
0000
0000
0000
1100
0000
0000
0000
0110
0001
1000
0010
1101
0000
0110
0001
,
1000
0000
0000
0000
0000
0000
0000
0000
0000
0000
0000
0000
0001
0000
0000
0000
0000
0000
0000
0000
0000
0000
0000
0000
0011
0000
0000
0000
0000
0000
0000
0000
0000
0000
0000
0000
1000
0000
0000
0000
0000
0000
0000
0000
0000
0000
0000
0000
0101
0000
0000
0000
0000
0000
0000
0000
0000
0000
0000
0000
0011
0000
0000
0000
0000
0000
0100
0000
0000
0000
0000
0000
1010
0000
0000
0000
0000
0000
0000
0000
0000
0000
0000
0000
0001
0000
0000
0000
0000
0000
0000
0000
0000
0000
0000
0000
0011
0000
0000
0000
0000
0000
0100
0000
0000
0000
0000
0000
0011
0000
0000
0000
0000
0000
0100
0000
0000
0000
0000
0000
1001
0000
0000
0000
0010
0000
0000
0000
0100
0000
0000
0000
1000
0000
0000
0000
0001
0000
0000
0000
0010
0000
0000
0000
0100
0000
0000
0000
1000
0000
0000
0000
0001
0000
0000
0000
0010
0000
0000
0000
0000
0000
0000
0000
0000
0000
0000
0000
1001
0000
0000
0000
0000
0000
0000
0000
0110
0000
0000
0000
0000
0000
0000
0000
1001
0000
0000
0000
0000
0000
0000
0000
,
0110
0000
1000
0000
0010
0000
1001
0000
0000
0000
0000
0000
0111
0000
1000
0000
0010
0000
1100
0000
0000
0000
0000
0000
0111
0000
1000
0000
0001
0000
1110
0000
0000
0000
0000
0000
0111
0000
1000
0100
0001
0000
1010
0000
0000
0000
0000
0000
,
1100
0000
0010
0000
0100
0000
0011
0000
0000
0000
0000
0000
1101
0000
0010
0000
0100
0000
1011
0000
0000
0000
0000
0000
0110
0000
1000
0000
0100
0000
1011
0000
0000
1000
0000
0000
0111
0000
1000
0010
0100
0000
1001
0000
0000
0111
0000
0000
,
1110
0001
1000
0001
0000
0000
1110
0001
0100
1011
0000
0000
1100
0001
1000
0111
0000
0000
1110
0001
0010
1001
0000
0000
,
0101
0000
0000
0000
0000
0000
0000
0000
0010
0000
0000
0000
0000
0000
0000
0000
0100
0000
0000
0000
0000
0000
0000
0000
1010
0000
0000
0000
0000
0000
0000
0000
0000
0000
0000
0000
0000
0000
0000
0000
0000
0000
0000
0000
0000
0000
0000
0000
1011
0000
0000
0000
0000
0000
0000
0000
0100
0000
0000
0000
0000
0000
0000
0000
0001
0000
0000
0000
0000
0000
0000
0000
1110
0000
0000
0000
0000
0000
0000
0000
0000
0000
0000
0000
0000
0000
0000
0000
0000
0000
0000
0000
0000
0000
0000
0000
0110
0000
0000
0000
0000
0000
0000
0000
1000
0000
0000
0000
0000
0000
0000
0000
0100
0000
0000
0000
0000
0000
0000
0000
1011
0000
0000
0000
0000
0000
0100
0000
0000
0000
0000
0000
0010
0000
0000
0000
0000
0000
0100
0000
0000
0000
0000
0000
0011
0000
0000
0000
0000
0000
0000
0000
1000
0000
0000
0000
0100
0000
0000
0000
0010
0000
0000
0000
0000
0000
0000
0000
1100
0000
0000
0000
0000
0000
0000
0000
0000
0000
0000
0000
1001
0000
0000
0000
0000
0000
0000
0000
0000
0000
0000
0000
,
0011
0000
0000
0000
0000
0000
0000
0000
0100
0000
0000
0000
0000
0000
0000
0000
1000
0000
0000
0000
0000
0000
0000
0000
0011
0000
0000
0000
0000
0000
0000
0000
0000
0000
0000
0000
0100
0000
0000
0000
0000
0000
0000
0000
0000
0000
0000
0000
0011
0000
0000
0000
0000
0000
0000
0000
1000
0000
0000
0000
0000
0000
0000
0000
0100
0000
0000
0000
0000
0000
0000
0000
0011
0000
0000
0000
0000
0000
0000
0000
0000
0000
0000
0000
1000
0000
0000
0000
0000
0000
0000
0000
0000
0000
0000
0000
0011
0000
0000
0000
0000
0000
0000
0000
0100
0000
0000
0000
0000
0000
0000
0000
1000
0000
0000
0000
0000
0000
0000
0000
0011
0000
0000
0000
0000
0000
0000
0000
0000
0000
0000
0000
1000
0000
0000
0000
0000
0000
0000
0000
0000
0000
0000
0000
0011
0000
0000
0000
0000
0000
0100
0000
0000
0000
0000
0000
1010
0000
0000
0000
0000
0000
0000
0000
0000
0000
0000
0000
0110
0000
0000
0000
0000
0000
0000
0000
0000
0000
0000
0000
1001
0000
0000
0000
0000
0000
0000
0000
0000
0000
0000
0000
,
1100
0000
0000
0000
0000
0000
0000
0000
0010
0000
0000
0000
0000
0000
0000
0000
0001
0000
0000
0000
0000
0000
0000
0000
1100
0000
0000
0000
0000
0000
0000
0000
0000
0000
0000
0000
0010
0000
0000
0000
0000
0000
0000
0000
0000
0000
0000
0000
1100
0000
0000
0000
0000
0000
0000
0000
0001
0000
0000
0000
0000
0000
0000
0000
0010
0000
0000
0000
0000
0000
0000
0000
1100
0000
0000
0000
0000
0000
0000
0000
0000
0000
0000
0000
0001
0000
0000
0000
0000
0000
0000
0000
0000
0000
0000
0000
1100
0000
0000
0000
0000
0000
0000
0000
0010
0000
0000
0000
0000
0000
0000
0000
0001
0000
0000
0000
0000
0000
0000
0000
1100
0000
0000
0000
0000
0000
0000
0000
0000
0000
0000
0000
0001
0000
0000
0000
0000
0000
0000
0000
0000
0000
0000
0000
1100
0000
0000
0000
0000
0000
0010
0000
0000
0000
0000
0000
0101
0000
0000
0000
0000
0000
0000
0000
0000
0000
0000
0000
0110
0000
0000
0000
0000
0000
0000
0000
0000
0000
0000
0000
1001
0000
0000
0000
0000
0000
0000
0000
0000
0000
0000
0000
,
1010
0011
0110
1100
0101
0011
1001
1111
1010
0110
0101
0011
1001
1100
1011
1111
,
1101
0000
0010
0000
0100
0000
1011
0000
0100
1001
0010
0000
0100
0000
0001
1010
0100
0000
1011
0000
0100
0000
0010
0000
1202
0000
0000
0000
0000
0000
1000
0000
0000
0303
0000
0000
0212
0000
0000
0000
0000
0000
1000
0000
0000
0303
0000
0000
,
1001
0010
0100
0000
1001
0000
0010
0100
1011
0000
0010
0001
1000
0000
0010
0100
1011
0100
1000
0010
0101
0000
0010
0000
1001
0100
0010
0000
0110
0000
1000
0001
,
0110
0000
0001
0100
1010
0000
1000
0100
1011
0100
0010
0001
0110
0000
1000
0000
0110
0001
1000
0000
1011
0000
0100
0001
1110
0000
0100
1000
0011
0000
0100
0010
,
1101
0010
1000
0100
0010
0000
0001
0000
1101
0010
1000
0000
0110
0000
1000
0100
0011
0000
0100
0001
1010
0000
0100
1000
0111
1000
0100
0010
0101
0000
0010
0000
,
1100
0001
1000
0000
0110
0000
0010
0100
1011
0000
0001
0100
1010
0000
0001
0010
1001
0010
0100
1000
0011
0000
0100
0000
1011
0100
1000
0000
0110
0000
1001
0100
,
1010
0100
0001
0000
1100
0000
0010
1000
0111
0000
0010
0000
0100
1000
0010
0100
1011
0000
0100
0000
0011
0100
1000
0000
1110
0000
0010
0001
1100
0000
0010
0000
,
1100
0001
0010
0100
1010
0000
0100
0000
1011
0100
1000
0000
0011
0000
0100
0001
1010
0000
0001
0000
0101
0010
1000
0010
1101
0000
0010
0000
0101
1000
0010
0000
,
1100
0000
0010
0001
1100
0000
0001
0000
1110
0001
0010
1000
0100
0000
0010
0000
0111
1000
0010
0000
1100
0000
0010
0001
1010
0000
0100
0000
1010
0001
0100
0010
,
1001
0000
0000
0000
0000
0000
0000
0000
0000
0000
0000
0000
0100
0000
0000
0000
0000
0000
0010
0000
0000
0000
0000
0000
0001
0000
0000
0000
0000
0000
1000
0000
0000
0000
0000
0000
0100
0000
0000
0000
0000
0000
0010
0000
0000
0000
0000
0000
1001
0000
0000
0000
0000
0000
0000
0000
0000
0000
0000
0000
0010
0000
0000
0000
0000
0000
0100
0000
0000
0000
0000
0000
1000
0000
0000
0000
0000
0000
0001
0000
0000
0000
0000
0000
0010
0000
0000
0000
0000
0000
0100
0000
0000
0000
0000
0000
1011
0000
0000
0000
0000
0000
0000
0000
0000
0000
0000
0000
0000
0000
0000
0000
0000
0000
0000
0000
0000
0000
0000
0000
0010
0000
0000
0000
0100
0000
0000
0000
0010
0000
0000
0000
0100
0000
0000
0000
0010
0000
0000
0000
0100
0000
0000
0000
1001
0000
0000
0000
0000
0000
0000
0000
0000
0000
0000
0000
0000
0000
0000
0000
0000
0000
0000
0000
0000
0000
0000
0000
0110
0000
0000
0000
0000
0000
0000
0000
0000
0000
0000
0000
0110
0000
0000
0000
0000
0000
0000
0000
0000
0000
0000
0000
,
1111
0000
0000
1000
0000
0000
1110
0000
0000
0010
0000
0000
0111
0000
1000
0000
0100
0000
0010
0000
0001
0000
0010
0000
1101
0000
0000
0100
0000
0000
0111
0000
0000
0001
0000
0000
1001
0000
0100
0000
0010
0000
1101
0000
0010
0000
0100
0000
,
1001
0000
0000
1000
0000
0000
1110
0000
0000
0010
0000
0000
0111
0000
1000
0000
0010
0000
1101
0000
0010
0000
0001
0000
1110
0000
0000
1000
0000
0000
1101
0000
0000
0001
0000
0000
0111
0000
1000
0000
0001
0000
1110
0000
0001
1000
0100
0000
,
1011
0000
0000
0010
0000
0000
0110
0000
0000
0100
0000
0000
1101
0000
0010
0000
0001
0000
1110
0000
0001
0000
0100
0000
0011
0000
0000
0001
0000
0000
0111
0000
0000
0100
0000
0000
1011
0000
0100
0000
0010
0000
1101
0000
0010
0000
0001
0000
,
1010
0000
0000
0000
0000
0000
0000
0000
0000
0000
0000
0000
1000
0000
0000
0000
0000
0000
0000
0000
0000
0000
0000
0000
1101
0000
0000
0000
0000
0000
0000
0000
0000
0000
0000
0000
0100
0000
0000
0000
0000
0000
0000
0000
0000
0000
0000
0000
0111
0000
0000
0000
0000
0000
0000
0000
1000
0000
0000
0000
0000
0000
0000
0000
0001
0000
0000
0000
0000
0000
0000
0000
1110
0000
0000
0000
0000
0000
0000
0000
0001
0000
0000
0000
0000
0000
0000
0000
1000
0000
0000
0000
0000
0000
0000
0000
0111
0000
0000
0000
0000
0000
0000
0000
0000
0000
0000
0000
1000
0000
0000
0000
0000
0000
0000
0000
0000
0000
0000
0000
0101
0000
0000
0000
0000
0000
1000
0000
0010
0000
0000
0000
0100
0000
0000
0000
0001
0000
1000
0000
0000
0000
0000
0000
0110
0000
0000
0000
0000
0000
0000
0000
0000
0000
0000
0000
1001
0000
0000
0000
0000
0000
0000
0000
0000
0000
0000
0000
1111
0000
0000
0000
0000
0000
0000
0000
0000
0000
0000
0000
0110
0000
0000
0000
0000
0000
0000
0000
0000
0000
0000
0000
,
1111
1000
1110
0010
0111
0100
1100
0100
0111
0001
1101
0100
1110
0010
0011
1110
,
1111
1000
1101
0001
0111
0100
0111
0001
1111
1000
1101
1101
0111
0010
1111
1001
,
1111
0000
1111
0000
1111
0000
1111
1111
1111
0000
1111
0000
1111
1111
1111
1111
,
1001
0100
0010
0001
0100
0010
1100
0001
0010
0100
1000
0010
0101
1000
0010
0100
0001
0010
1001
0100
0010
1000
0010
0001
1100
0010
1100
0001
0010
0100
0011
0100
,
1011
0000
0000
0011
0000
0000
0011
0000
,
0000
0011
0000
0000
0011
0000
0000
0000
;
