#TITLE:Wi-Ex-Doc-Va;
#SUBTITLE:;
#ARTIST:Yahpp;
#TITLETRANSLIT:;
#SUBTITLETRANSLIT:;
#ARTISTTRANSLIT:;
#CREDIT:;
#BANNER:Wi-Ex-Doc-Va-banner.png;
#BACKGROUND:Wi-Ex-Doc-Va-bg.png;
#LYRICSPATH:;
#CDTITLE:;
#MUSIC:Wi-Ex-Doc-Va.ogg;
#OFFSET:-0.031;
#SAMPLESTART:125.255;
#SAMPLELENGTH:18.000;
#SELECTABLE:YES;
#BPMS:0.000=195.000,159.000=97.500,161.000=195.000,211.500=120.900,214.000=195.000,358.000=97.500,364.000=195.000,482.500=780.000,487.250=195.000;
#STOPS:151.000=0.153
,154.500=0.155
,196.000=0.153
,199.500=0.155
,203.000=0.153
,487.250=0.310
;
#BGCHANGES:;
// cache tags:
#FIRSTBEAT:16.000;
#LASTBEAT:522.000;
#SONGFILENAME:Songs/Index Tournament 1/Wi-Ex-Doc-Va/Wi-Ex-Doc-Va.sm;
#HASMUSIC:1;
#HASBANNER:1;
#MUSICLENGTH:166.272;
// end cache tags

//---------------dance-single - I. Pyles----------------
#NOTES:
     dance-single:
     I. Pyles:
     Challenge:
     15:
     1.000,1.000,0.535,0.818,1.000,1475.000,89.000,136.000,0.000,10.000:

0000
0000
0000
0000
,
0000
0000
0000
0000
,
0000
0000
0000
0000
,
0000
0000
0000
0000
,
1012
0000
0000
0000
0000
0000
0000
0003
,
2100
0002
0000
0000
0000
0000
0000
3003
,
0112
0000
0000
0000
0000
0000
0000
0003
,
1001
0000
1100
0000
0001
0001
0001
0001
,
1000
0000
0100
0010
0100
0000
0010
0001
1000
0000
1001
0000
0100
0001
1000
0010
,
0100
0000
0001
1000
0001
0000
1000
0100
0010
0000
0011
0000
1000
0100
0010
0001
,
1000
0000
0010
0100
0010
0000
0100
0001
1000
0000
1001
0000
0001
0100
0010
1000
,
0001
0000
1000
0100
1000
0000
0100
0010
0001
1000
0100
1000
0001
0000
0100
0000
,
1001
0000
0001
0100
0010
0000
1000
0001
0010
0000
0110
0000
0100
1000
0001
0100
,
0010
0000
1000
0100
0010
0000
0001
1000
0010
0000
0110
0000
0010
1000
0001
0010
,
0100
0000
1000
0001
0100
0000
0010
0100
0001
0000
0101
0000
0001
1000
0100
0010
,
0100
0000
0010
0001
1000
0000
0001
0100
0010
0100
0001
1000
0001
0000
0100
0000
,
2002
0000
0000
3003
1000
0000
0000
0000
1100
0000
0000
0000
1000
0000
0000
0000
2002
0000
0000
3003
1000
0000
0000
0000
1010
0000
0000
0000
1000
0000
0000
0000
,
2002
0000
0000
3003
0001
0000
0000
0000
0100
0000
0000
0000
0020
0000
0000
0000
0000
0000
0000
0000
0000
0000
0000
0000
0000
0000
0000
0000
0030
0000
0000
0000
,
0101
0000
0001
0000
1000
0000
0100
0010
0001
1000
0100
1000
0001
0000
0100
0000
,
0110
0000
0010
0000
1000
0000
0010
0100
0001
1000
0010
1000
0001
0000
0010
0000
,
2002
0000
0000
3003
0001
0000
0000
0000
0101
0000
0000
0000
0001
0000
0000
0000
2002
0000
0000
3003
0001
0000
0000
0000
0011
0000
0000
0000
0001
0000
0000
0000
,
2002
0000
0000
3003
1000
0000
0000
0000
0100
0000
0000
0000
0020
0000
0000
0000
0000
0000
0000
0000
0000
0000
0000
0000
0000
0000
0000
0000
0030
0000
0000
0000
,
1100
0000
1000
0000
0010
0000
0100
0001
1000
0100
1000
0001
0100
0000
0010
0000
,
1010
0010
0110
0001
1001
1000
1001
0001
,
2000
0000
0000
0000
3200
0000
0000
0300
,
0020
0000
0002
0000
1033
0000
0001
0100
0001
1000
0001
0100
0010
1000
0010
1000
,
0001
0000
1000
0100
1000
0000
0001
0010
0001
1000
0010
0100
0010
1000
0010
0100
,
0002
0000
0200
0000
0313
0000
1000
0100
1000
0001
1000
0100
0010
0001
0010
0001
,
1000
0001
0000
0001
0100
0000
0010
1000
0010
0100
0001
0100
0010
0100
0001
1000
,
0002
0000
2000
0000
3103
0000
0010
0001
1000
0100
0010
0001
1000
0100
1000
0001
,
1000
0000
0001
0100
0001
0000
1000
0010
1000
0001
0010
0100
1000
0001
0100
0001
,
2000
0000
0200
0000
3310
0000
0001
0010
0001
1000
0100
1000
0001
1000
0100
0010
,
0001
1000
0000
1000
0100
0000
0010
0001
0010
0100
0010
0001
1000
0100
1000
0001
,
2000
0000
0020
0000
3130
0000
0001
0100
0010
0100
0001
1000
0001
0100
0001
1000
,
0200
0000
0020
0000
0331
0000
1000
0001
1000
0100
0010
0100
1000
0001
0100
0001
,
2000
0000
0002
0000
3103
0000
0010
1000
0001
1000
0010
0100
0001
1000
0100
0010
,
0001
1000
0000
1000
0010
0000
0100
0001
1000
0001
1000
0100
0010
0001
1000
0100
,
0010
0000
0001
1000
0001
0000
1000
0100
1000
0001
1000
0100
0010
0000
1001
0000
,
0001
0000
0100
0000
0010
0100
0001
0100
0001
0100
0010
0000
1001
0000
0001
0100
,
0001
1001
1000
1001
2002
3003
0220
0000
,
0000
0000
0000
0330
1002
0000
0000
0000
1000
0103
1000
0001
1000
0100
1000
0100
,
1000
0001
0100
0001
2000
0000
0000
0000
3001
0100
0001
1000
0001
0100
0001
0100
,
0001
1000
0100
1000
0002
0000
0000
0000
1003
0100
1000
0001
1000
0100
1000
0100
,
1000
0001
0100
0001
1000
0100
0010
0001
1000
0100
1000
0001
0010
0001
1000
0100
,
0010
0001
1000
0100
0010
0000
0001
1000
0100
0000
0010
0000
0100
0000
1000
0001
,
0100
0000
0010
0000
0100
0001
1000
0010
1000
0001
1000
0010
0100
0001
1000
0001
,
0100
0010
0100
0001
1000
0000
0100
0010
0001
0000
1000
0000
0010
0000
1000
0010
,
0100
0000
0001
0000
1000
0100
0010
0001
1000
0100
1000
0001
0100
0001
1000
0001
,
1000
0010
0100
0001
1000
0000
0001
0100
0001
0000
0101
0000
1100
0000
1000
0100
,
1000
0000
1001
0000
0001
0010
0001
0000
0011
0000
1010
0000
1000
0010
1000
0000
,
1001
0000
1000
0001
1000
0000
1001
0000
1001
0000
0001
1000
0001
0000
1000
0100
,
0010
0001
1000
0001
1000
0001
1000
0100
0010
0001
1000
0001
1000
0001
0100
0010
,
0100
0001
1000
0000
2002
3003
0000
0000
2002
3003
2002
3003
0000
0000
2002
0000
,
0000
0000
0000
0000
0000
0000
0000
3003
1100
0000
0000
0000
1100
0000
0000
0000
,
1100
1100
1100
1100
,
1100
0000
1100
1001
0101
0000
0101
0000
,
0101
0101
0101
0101
,
0101
0000
0000
0000
0101
0000
0110
0000
1010
0000
0000
0010
1000
0000
0001
0100
,
0001
1000
0001
0100
0001
1000
0100
0010
0002
0003
0000
0010
0001
0000
1000
0100
,
0010
0100
1000
0001
1000
0100
0010
0001
2000
3000
0000
0001
1000
0000
0010
1000
,
0001
0100
0001
1000
0010
0100
0001
1000
0200
0300
0000
1000
0100
0000
0010
0001
,
1000
0100
1000
0001
0100
0010
1000
0001
0200
0300
0000
0001
0100
0000
0010
1000
,
0001
0100
0001
1000
0001
0100
0001
1000
0200
0300
0000
1000
0100
0000
0010
0001
,
1000
0100
1000
0001
1000
0001
0010
0100
2000
3000
0000
0100
1000
0000
0001
0010
,
0001
1000
0001
0010
0001
1000
0100
0010
0002
0003
0000
0010
0001
0000
1000
0100
,
0010
0001
1000
0010
1000
0001
0100
0001
2000
3000
0000
0001
1000
0000
0100
1000
,
0001
0010
0001
1000
0001
1000
0010
1000
0002
0003
0000
1000
0001
0000
0100
0001
,
1000
0010
1000
0001
1000
0100
1000
0100
0020
0030
0000
0100
0010
0000
0001
1000
,
0100
1000
0001
0010
0100
1000
0100
1000
0002
0003
0000
1000
0001
0000
0010
0001
,
1000
0000
0010
0000
1000
0000
0001
0000
0100
0000
0001
0000
1000
0000
0010
0000
0200
0300
0002
0003
0200
0300
0000
0000
0020
0030
2000
3000
0020
0030
0000
0000
,
0200
0300
0002
0003
0200
0300
0000
0000
0002
0003
2000
3000
0002
0003
0000
0000
0020
0030
0002
0003
0020
0030
0000
0000
0200
0300
2000
3000
0200
0300
0000
0000
,
2000
3000
0002
0003
2000
3000
0000
0000
0020
0030
2000
3000
0020
0030
0000
0000
0100
0000
0000
0000
0100
0000
0000
0000
0100
0000
0000
0000
0100
0000
0000
0000
,
0001
0000
0001
0000
0001
0000
0001
0000
1000
0100
1000
0100
1000
0100
1000
0100
,
1000
0100
1000
0100
1000
0100
1000
0100
0010
0000
0001
0000
1001
0000
0001
0100
,
0010
0000
1000
0010
1000
0010
0100
0000
0110
0000
0010
0000
1001
0000
1000
0100
,
0010
0000
0001
0010
0001
0010
0100
0000
0110
0000
0100
0000
1001
0000
1000
0001
,
0100
0000
0010
1000
0010
1000
0001
0000
1001
0000
0001
0000
0011
0000
0001
1000
,
0100
0000
0010
0001
0010
0001
1000
0000
1001
0000
1000
0000
1010
0000
0010
1000
,
0001
0000
0100
0001
0100
0001
1000
0000
1001
0000
0001
0000
0011
0000
0010
0001
,
1000
0000
0100
1000
0100
1000
0001
0000
1001
0000
1000
0000
1001
0000
1000
0001
,
1000
0000
0001
0100
0001
0100
0010
0000
1001
0000
0001
0000
1001
0000
0001
0100
,
0010
0000
1000
0010
0100
0001
1000
0000
0001
0100
0010
0100
0001
1000
0001
0100
,
0010
0000
1000
0001
0010
0001
0010
0000
0100
1000
0001
1000
0100
1000
0001
0010
,
0001
0000
1000
0001
0100
0001
0100
0000
0010
1000
0001
0100
0010
1000
0001
1000
,
0010
0000
1000
0100
0010
0100
0010
0000
0001
1000
0100
1000
0001
1000
0100
0010
,
0001
0000
1000
0010
0100
0010
0100
0000
0001
0100
0010
1000
0001
1000
0001
0100
,
0010
0000
1000
0001
0010
0100
1000
0000
0001
0000
0100
0000
0001
0000
1000
0000
,
0001
0000
0100
0000
0001
0000
0000
0000
2002
3003
0000
2002
3003
0000
2002
3003
,
0000
0000
2002
3003
0000
0000
2002
3003
2002
3003
0001
0000
0100
0000
0100
0000
,
0010
0010
1000
1000
0200
0000
0000
0000
,
0000
0000
0000
0000
,
1321
0000
0000
0000
0000
0000
0000
0000
0000
0000
0000
0000
0000
0000
0000
0030
,
1000
0100
1000
0100
1000
0001
1000
0001
1000
0100
1000
0100
0010
0001
0010
0001
,
1000
0010
1000
0001
0100
0001
1000
0001
0010
0001
1000
0100
1000
0001
1000
0001
,
1000
0010
1000
0010
1000
0001
1000
0001
0100
0001
0100
0001
1000
0010
1000
0010
,
0100
0001
0100
0010
1000
0001
0100
0001
1000
0100
1000
0001
0010
0001
1000
0001
,
0010
0001
0010
0001
0010
0100
0010
0100
1000
0100
1000
0100
1000
0001
1000
0001
,
1000
0100
0010
0001
1000
0001
1000
0001
1000
0010
1000
0010
0100
0001
1000
0001
,
0010
0001
1000
0001
0010
0001
1000
0010
1000
0001
1000
0010
1000
0001
1000
0100
,
0020
0030
0002
0003
2000
3000
0000
0000
0000
0000
0000
0000
0020
0030
2000
3000
0002
0003
0000
0000
0020
0030
0002
0003
2000
3000
0020
0030
2000
3000
0002
0003
,
0020
0030
0200
0300
2000
3000
0000
0000
0000
0000
0000
0000
0002
0003
2000
3000
0200
0300
0000
0000
2000
3000
0002
0003
0200
0300
0002
0003
2000
3000
0200
0300
,
0020
0030
0002
0003
2000
3000
0000
0000
0000
0000
0000
0000
0020
0030
2000
3000
0002
0003
0000
0000
0020
0030
0002
0003
2000
3000
0020
0030
2000
3000
0002
0003
,
0100
0010
0100
0010
1000
0010
1000
0010
0100
0001
0100
0001
1000
0001
1000
0001
,
1000
0100
1000
0100
1000
0100
1000
0100
1000
0100
1000
0100
1000
0100
1000
0100
,
1000
0001
1000
0001
1000
0001
1000
0001
1000
0001
1000
0001
1000
0001
1000
0001
,
0100
0001
0100
0001
0100
0001
0100
0001
0100
0001
0100
0001
0100
0001
0100
0001
,
1000
0010
0100
0001
1000
0001
0100
0001
1000
0100
0010
0001
1000
0100
1000
0001
,
1000
0001
1000
0100
1000
0100
0010
0001
1000
0001
1000
0001
0100
0010
1000
0010
,
1000
0001
1000
0001
0010
0001
1000
0001
0010
0100
1000
0001
1000
0100
1000
0001
,
1000
0100
0010
0001
1000
0100
1000
0001
1000
0100
0010
0001
1000
0001
1000
0010
,
1000
0010
0100
0001
1000
0001
1000
0010
1000
0010
0100
0001
1000
0010
0100
0001
,
1000
0001
1000
0100
1000
0001
1000
0100
1000
0100
0010
0001
1000
0001
1000
0100
,
1000
0100
0010
0001
0010
0001
1000
0001
1000
0010
1000
0001
1000
0010
0100
0001
,
0100
0010
1000
0001
0100
0001
1000
0001
1000
0100
0010
0001
1000
0100
1000
0001
,
1000
0100
0010
0001
1000
0100
1000
0001
0100
0001
1000
0010
0100
0010
0100
0001
,
1000
0010
0100
0001
1000
0001
0100
0001
1000
0001
1000
0100
1000
0100
0010
0001
,
1000
0100
1000
0001
0100
0001
1000
0100
0010
0001
1000
0001
1000
0100
0010
0001
,
1000
0100
1000
0001
1000
0100
1000
0001
0100
0010
0100
0001
1000
0100
1000
0001
,
0010
0100
1000
0001
1000
0001
1000
0100
0010
0001
1000
0100
1000
0001
1000
0100
,
0020
0030
0000
0000
,
0000
0000
0000
0000
,
0000
0000
0000
0000
,
1000
0100
0010
0001
1000
0001
1000
0100
0010
0001
1000
0001
1000
0100
0010
0001
,
1000
0100
1000
0001
1000
0001
0100
0001
1000
0001
0100
0001
1000
0010
0100
0001
,
1000
0001
1000
0010
0100
0001
1000
0001
1000
0010
0100
0001
1000
0100
1000
0001
,
1000
0100
1000
0001
1000
0100
0010
0001
1000
0001
1000
0010
0100
0001
0100
0010
,
1000
0001
1000
0100
1000
0001
0010
0001
1000
0100
0010
0100
0010
0001
1000
0001
,
1000
0100
0010
0001
1000
0100
0010
0001
1000
0010
0100
0001
1000
0010
0100
0001
,
1000
0010
1000
0001
1000
0010
1000
0001
0100
0010
0100
0001
0100
0010
0100
0001
,
1000
0100
0010
0001
0010
0100
1000
0001
0100
0010
1000
0010
0100
0001
0100
0010
,
2000
0000
3000
0000
;
