#TITLE:Una Paja;
#SUBTITLE:-DJ Torta Mix-;
#ARTIST:Jowell & Randy;
#TITLETRANSLIT:;
#SUBTITLETRANSLIT:;
#ARTISTTRANSLIT:;
#CREDIT:;
#BANNER:banner.JPG;
#BACKGROUND:;
#LYRICSPATH:;
#CDTITLE:!tizaTitle.png;
#MUSIC:Dj Torta - La Paja ( Dj Torta Remix ) Himno de las Justas 2009.ogg;
#OFFSET:-0.060;
#SAMPLESTART:67.701;
#SAMPLELENGTH:15.000;
#SELECTABLE:YES;
#BPMS:0.000=177.000;
#STOPS:32.000=0.200
,33.500=0.120
,34.000=0.140
,34.500=0.080
,34.750=0.080
,35.000=0.080
,35.250=0.080
,35.500=0.220
,35.750=0.220
,227.000=0.120
,227.125=0.260
,227.250=0.120
,227.375=0.120
,227.500=0.120
,227.625=0.120
,227.750=0.260
,227.875=0.260
,454.000=0.080
,454.250=0.080
,454.500=0.080
,454.750=0.080
;
#BGCHANGES:;
// cache tags:
#FIRSTBEAT:32.000;
#LASTBEAT:472.000;
#SONGFILENAME:Songs/Reggaeton and more/Una Paja/Una Paja.sm;
#HASMUSIC:1;
#HASBANNER:1;
#MUSICLENGTH:163.200;
// end cache tags

//---------------dance-single - ----------------
#NOTES:
     dance-single:
     :
     Challenge:
     9:
     0.691,1.000,0.380,0.025,0.386,723.000,62.000,4.000,4.000,0.000:

0000
0000
0000
0000
,
0000
0000
0000
0000
,
0000
0000
0000
0000
,
0000
0000
0000
0000
,
0000
0000
0000
0000
,
0000
0000
0000
0000
,
0000
0000
0000
0000
,
0000
0000
0000
0000
,
1001
0000
0000
0000
1000
0000
0010
0000
0101
0000
0001
0010
0100
1000
0001
1000
,
0001
0000
1000
0100
0010
0001
1000
0010
,
0100
0001
1000
0100
0010
0001
1000
0010
,
0100
0001
1000
0001
1000
0000
1001
0000
,
0000
0000
1010
0110
,
0101
0000
1000
0100
0010
0100
1000
0001
,
0100
0010
0100
0001
0010
0100
0010
0001
,
1000
0100
1000
0100
1000
0000
0001
0000
0100
0010
0100
0010
0100
0000
0010
0000
,
1000
0100
1000
0100
0010
0001
0010
0001
1000
0001
1000
0001
0100
0001
0100
0001
,
1000
0000
0001
0010
0100
1000
0001
0100
,
0010
1000
0100
0001
1000
0010
0001
0100
,
1000
0001
0000
0010
0000
1000
0100
0010
,
0100
1000
0010
0100
0001
0000
1001
0000
,
1000
0000
0001
0010
0100
1000
0100
0001
,
1000
0010
0001
0100
0010
1000
0010
0100
,
0001
1000
1001
0000
0101
0000
0110
0010
,
1000
0100
0010
0100
1000
0000
1001
0000
,
1000
0010
0000
0010
0100
0000
0001
0000
0010
0000
0100
0000
0010
0000
0001
0000
,
1000
0010
0000
0100
0001
0000
0010
0000
0100
0000
1100
0000
0101
0000
0000
0000
,
1000
0001
0000
0001
0100
0000
0010
0000
1000
0010
0000
0100
0001
0000
0010
0000
,
0100
0000
0000
1000
0100
0000
1000
0000
0010
0000
0100
0000
0001
0000
0100
0001
,
0100
0010
1000
0100
0001
1000
0010
0001
,
0100
1000
0001
0010
1000
0100
0010
0001
,
1000
0001
1000
0001
1000
0000
0001
0000
0100
0010
0100
0010
0100
0000
0010
0000
,
1000
0100
0010
0100
1000
0100
0010
0001
0010
0100
1000
0100
0010
0001
0010
0100
,
1000
0000
0010
0010
0010
0000
0001
0001
,
1000
0010
0000
0100
0001
0000
0100
0000
0010
0000
0000
0000
1000
0000
0000
0000
,
0000
0000
1000
0100
0001
0010
1000
0100
,
0001
0010
1000
0100
0001
0000
1001
0000
,
0000
0000
0000
0001
0100
0000
0010
1000
,
0100
1100
0011
0000
,
0000
0000
0000
0000
0000
0000
1000
0010
,
0001
1000
0100
0001
1000
0000
0001
0000
,
1001
0000
1000
0100
0001
0010
1000
0100
,
0001
0010
1000
0100
0001
0010
1000
0100
,
0001
0010
0000
0000
0000
0000
0000
0000
,
0000
0000
0000
0000
,
0000
0000
0001
0100
1000
0010
0001
0100
,
1000
0010
0001
0100
1000
0010
0001
0100
,
1000
0010
0000
0000
0000
0000
0000
0000
,
0000
0000
0000
0000
,
0000
0000
1000
0010
0001
1000
0100
0001
,
0010
1000
0001
0100
1000
0010
0001
1000
,
0100
0001
0000
0000
0000
0000
0000
0000
,
0000
0000
0000
0000
,
0000
0000
1000
0100
0001
1000
0010
0001
,
0100
1000
0001
0010
1000
0100
0001
1000
,
0010
0000
0000
0000
0000
0000
0001
0000
0000
0000
0000
0000
0000
0000
0000
0000
0000
0000
0000
0000
0000
0000
0000
0000
0000
0000
0000
0000
0000
0000
0000
0000
0000
0000
0000
0000
0000
1000
0000
0000
0000
0000
0000
0001
0000
0000
0000
0000
,
0000
0000
0000
0000
0000
0000
0000
0000
0000
0000
0000
0000
0000
0000
0000
0000
0000
0000
0000
0000
0000
0000
0000
0000
1000
0100
0010
0001
0010
0100
1000
0001
,
1000
0000
0000
0100
0010
0000
0001
0000
0100
0000
1000
0000
0001
0000
0010
0000
,
1000
0000
0000
0100
0010
0000
0100
0000
1000
0000
1010
0000
0101
0000
0000
0000
,
1000
0100
0000
0100
1000
0000
0010
0000
0100
0001
0000
0001
0100
0000
0010
0000
,
1000
0010
0000
0010
0100
0000
0001
0000
1000
0100
0000
0010
0001
0000
0010
0100
,
1000
0010
0001
1000
0100
0001
1000
0010
,
0001
1000
0100
0001
1000
0010
0001
1000
,
0100
0001
1000
0001
1000
0000
0100
0000
0010
0001
0010
0100
1000
0000
0100
0000
,
0010
0001
0010
0100
0010
0001
0010
0100
1000
0100
0010
0100
1000
0100
0010
0002
,
2000
0000
0000
0000
0000
0000
0000
3003
,
0000
0000
1000
0100
0010
0100
1000
0001
,
0010
0100
0010
0001
0000
1001
0000
0000
,
0000
0001
0010
0100
1000
0100
0000
1000
,
0010
0000
0000
1000
0100
0010
0100
1000
,
0001
0000
1001
0000
1000
1000
0000
0001
,
0001
0110
0000
0000
,
1000
0100
0010
0100
1000
0000
1001
0000
0001
0010
0100
0010
0001
0000
1001
0000
,
1000
0100
0010
0100
1000
0010
0100
0010
1000
0001
0010
0100
0010
0001
0100
0010
,
0100
0000
0101
0000
1010
0000
1000
0100
,
0001
0010
0001
0100
0000
1000
0000
0000
,
0000
0000
1000
0100
0001
1000
0010
0001
,
1000
0000
1001
0000
0000
0001
0100
0010
,
1000
0100
0010
0001
0010
0100
1000
0010
,
0100
0001
0100
0010
0000
1000
0000
0000
,
1100
0100
0010
0001
0100
0010
1000
0100
,
1100
0000
0000
0000
0000
0000
1001
0000
0000
0000
0000
0000
0001
0000
0100
0000
0010
0000
1000
0000
0000
0100
0000
0000
,
0010
0000
0001
0000
0010
0000
0100
0000
0000
0010
0000
0000
0001
0000
0000
0100
0000
0000
0010
0000
0000
0100
0000
0000
,
0001
0000
1001
0000
0000
0000
1000
0010
,
0101
0000
0000
0000
0000
0000
1001
0000
0000
0000
0000
0000
0001
0000
0100
0000
0010
0000
1000
0000
0000
0100
0000
0000
,
0010
0000
0001
0000
1000
0000
0010
0000
0000
0100
0000
0000
1000
0000
0100
0000
0001
0000
0010
0000
0000
0100
0000
0000
,
1000
0000
0100
0000
0010
0000
0001
0000
0000
0010
0000
0000
0100
0000
0000
1000
0000
0000
0010
0000
0000
0100
0000
0000
,
0101
0000
1010
0000
0100
0000
0011
0100
,
0010
0000
0000
1001
0000
0000
1000
0100
0010
0100
1000
0001
,
0010
0000
0100
0000
1000
0000
0010
0000
0100
0000
0010
0000
1000
0000
0000
1000
0000
0000
1000
0000
0000
1000
0000
0000
,
1001
0000
0000
0000
0000
0000
0101
0000
0000
0000
0000
0000
0001
0000
0010
0000
0001
0000
0010
0000
0000
0001
0000
0000
,
0100
0000
0010
0000
0100
0000
0010
0000
0000
0100
0000
0000
0010
0000
1000
0000
0010
0000
1000
0000
0010
0000
0100
0000
,
0001
0000
1000
0000
0001
0000
0010
0000
0100
0000
1000
0000
0100
0000
0010
0000
0001
0000
0010
0000
0000
0100
0000
0000
,
1100
1001
0101
0110
,
1001
0000
0110
1000
0001
0000
0110
0000
,
1001
1000
0100
0010
,
0000
0000
1000
0010
0001
0000
0010
1000
,
0100
0010
0001
0010
0100
1000
0010
0000
0000
0101
0000
0000
,
0000
0000
1000
0100
0010
0001
1000
0010
,
0100
0001
1000
0100
0010
0001
1000
0010
,
0100
0001
0000
0000
1000
0010
1000
0000
,
0000
0000
0000
0001
0000
0000
0100
0000
0000
0010
0000
0000
1000
0000
0000
0000
0000
0000
1000
0000
0001
0000
1000
0000
,
0001
0000
0001
0010
0100
1000
0001
0100
,
0010
1000
0100
0010
0001
0010
0100
1000
,
0001
1000
0000
0000
0000
0000
0000
0000
,
0000
0000
0000
0000
,
0000
0000
1100
0100
0010
0001
0101
0010
,
1000
0100
1100
1000
0001
1000
0101
0001
,
0010
0100
0000
0000
0000
1000
0100
0010
,
0001
0000
0010
0000
0100
0000
0000
0000
0000
1000
0000
0000
0000
0000
0000
0000
0000
0000
0000
0000
0000
0000
0000
0000
,
0000
0000
1000
0100
1100
1100
1000
0001
,
0101
0101
0001
0010
0011
0011
0001
1000
,
1010
1010
0000
0000
1000
0000
0100
0010
,
0001
0000
0000
0000
0000
0000
1001
0000
0010
0010
0010
0010
0010
0000
0000
0000
,
2002
0000
0000
0000
,
0000
0000
0000
0000
,
0000
0000
0000
0000
,
0000
0000
0000
3003
,
MMMM
0000
0000
0000
;
