#TITLE:Darkmoon Rave;
#SUBTITLE:;
#ARTIST:Zero Bass;
#TITLETRANSLIT:;
#SUBTITLETRANSLIT:;
#ARTISTTRANSLIT:;
#CREDIT:Dancing Monkeys v1.04;
#BANNER:DarkMoon Rave - BN.png;
#BACKGROUND:DarkMoon Rave - BG.png;
#LYRICSPATH:;
#CDTITLE:;
#MUSIC:Darkmoon Rave.mp3;
#OFFSET:-1.570;
#SAMPLESTART:41.063;
#SAMPLELENGTH:12.000;
#SELECTABLE:YES;
#BPMS:0.000=151.929;
#STOPS:175.000=1.580
,175.000=1.580
,175.000=1.580
,175.000=1.580
,175.000=1.580
,175.000=1.580
,175.000=1.580
;
#BGCHANGES:;
// cache tags:
#FIRSTBEAT:0.000;
#LASTBEAT:227.000;
#SONGFILENAME:Songs/keyboard/DarkMoon Rave/Darkmoon Rave.sm;
#HASMUSIC:1;
#HASBANNER:1;
#MUSICLENGTH:122.749;
// end cache tags

//---------------dance-single - Basic----------------
#NOTES:
     dance-single:
     Basic:
     Easy:
     2:
     0.156,0.183,0.000,0.000,0.000,134.000,0.000,0.000,0.000,0.000:
0000
0000
0000
0000
0000
0000
0000
0000
,
0000
0000
0000
0000
0000
0000
0000
0000
,
0000
0000
0000
0000
0000
0000
0000
0000
,
0000
0000
0000
0000
0000
0000
0000
0000
,
0000
0000
0000
0000
0000
0000
0000
0000
,
0000
0000
0000
0000
0000
0000
0000
0000
,
0000
0000
0000
0000
0000
0000
0000
0000
,
0000
0000
0000
0000
0000
0000
0000
0000
,
0000
0000
0000
0000
0000
0000
0000
0000
,
0000
0000
0000
0000
0000
0000
0000
0000
,
0000
0000
0000
0000
0000
0000
0000
0000
,
0000
0000
0000
0000
0001
0000
0000
0000
,
1000
0000
0010
0000
0001
0000
0100
0000
,
1000
0000
0001
0000
0100
0000
0010
0000
,
0000
0000
1000
0000
0001
0000
0100
0000
,
0000
0000
1000
0000
0001
0000
0010
0000
,
0000
0000
1000
0000
0001
0000
0100
0000
,
0000
0000
0001
0000
1000
0000
0100
0000
,
0000
0000
1000
0000
0001
0000
0010
0000
,
0000
0000
1000
0000
0001
0000
0100
0000
,
0000
0000
1000
0000
0001
0000
0100
0000
,
0000
0000
1000
0000
0001
0000
0100
0000
,
0000
0000
0001
0000
1000
0000
0100
0000
,
0000
0000
0001
0000
1000
0000
0010
0000
,
0000
0000
1000
0000
0001
0000
0100
0000
,
0000
0000
0001
0000
1000
0000
0010
0000
,
0000
0000
1000
0000
0001
0000
0010
0000
,
0000
0000
0001
0000
1000
0000
0100
0000
,
0001
0000
0000
0000
1000
0000
0000
0000
,
1000
0000
0000
0000
0001
0000
0000
0000
,
0001
0000
1000
0000
0100
0000
0000
0000
,
1000
0000
0100
0000
1000
0000
0001
0000
,
0001
0000
0000
0000
1000
0000
0000
0000
,
0001
0000
0000
0000
0000
0000
0100
0000
,
0001
0000
0000
0000
1000
0000
0000
0000
,
0001
0000
0010
0000
0001
0000
0010
0000
,
0001
0000
0000
0000
1000
0000
0000
0000
,
0001
0000
0000
0000
0000
0000
0100
0000
,
0001
0000
1000
0000
0100
0000
0000
0000
,
1000
0000
0100
0000
1000
0000
0001
0000
,
0001
0000
0000
0000
1000
0000
0000
0000
,
0001
0000
0000
0000
0000
0000
0100
0000
,
0001
0000
0000
0000
1000
0000
0000
0000
,
1000
0000
0001
0000
0010
0000
0001
0000
,
0001
0000
0000
0000
1000
0000
0010
0000
,
1000
0000
0010
0000
0001
0000
0100
0000
,
0000
0000
1000
0000
0001
0000
0100
0000
,
0000
0000
1000
0000
0001
0000
0010
0000
,
0000
0000
1000
0000
0001
0000
0010
0000
,
1000
0000
0010
0000
0001
0000
0100
0000
,
0000
0000
1000
0000
0001
0000
0100
0000
,
0000
0000
1000
0000
0001
0000
0100
0000
,
1000
0000
0010
0000
0001
0000
0100
0000
,
0000
0000
1000
0000
0001
0000
0100
0000
,
0000
0000
0001
0000
1000
0000
0100
0000
,
0000
0000
0001
0000
1000
0000
0010
0000
,
0001
0000
1000
0000
0000
0000
0000
0000
,;

//---------------dance-single - Standard----------------
#NOTES:
     dance-single:
     Standard:
     Medium:
     5:
     0.269,0.298,0.024,0.000,0.000,228.000,3.000,0.000,0.000,0.000:
1000
0000
0000
0000
0000
0000
0000
0000
,
1000
0000
0000
0000
0000
0000
0000
0000
,
0001
0000
0000
0000
0000
0000
0000
0000
,
0001
0000
0000
0000
0000
0000
0000
0000
,
1000
0000
0000
0000
0000
0000
0000
0000
,
0001
0000
0000
0000
0000
0000
0000
0000
,
0001
0000
0000
0000
0000
0000
0000
0000
,
0001
0000
0000
0000
0000
0000
0000
0000
,
0001
0000
0000
0000
0000
0000
0000
0000
,
0001
0000
0000
0000
0000
0000
0000
0000
,
0001
0000
0000
0000
0000
0000
0000
0000
,
0000
0000
0000
0000
1000
0000
0000
0001
,
1000
0001
0100
0010
1000
0000
0100
0000
,
0001
1000
0001
0000
1000
0000
0100
0000
,
0001
0100
0010
0000
0100
0000
0001
0000
,
1000
0010
0100
0000
0010
0000
1000
0000
,
0001
0100
0010
0000
0100
0000
0001
0000
,
1000
0010
0100
0000
0010
0000
1000
0000
,
1000
0100
0010
0000
0100
0000
1000
0000
,
0001
0100
0010
0000
0100
0000
0001
0000
,
0001
0010
0100
0000
0010
0000
0001
0000
,
0001
0100
0010
0000
0100
0000
0001
0000
,
1000
0100
0010
0000
0100
0000
1000
0000
,
0001
0100
0010
0000
0100
0000
0001
0000
,
1000
0100
0010
0000
0100
0000
1000
0000
,
0001
0010
0100
0000
0010
0000
0001
0000
,
0001
0010
0100
0000
0010
0000
0001
0000
,
0001
0100
0010
0000
0100
0000
0001
0000
,
1000
0001
0000
0000
0010
0000
0001
0000
,
1000
0001
0000
0000
0010
0000
0001
0000
,
1000
0001
0100
0000
0010
0000
0000
0000
,
0011
0000
1000
0000
0100
1000
0010
0000
,
1000
0001
0000
0000
0010
0000
0001
0000
,
0001
0000
0100
0000
0000
0000
0001
0000
,
1000
0001
0000
0000
0010
0000
0001
0000
,
1001
0000
0010
0001
0100
0000
0001
1000
,
1000
0001
0000
0000
0010
0000
0001
0000
,
0001
0000
0100
0000
0000
0000
0001
0000
,
1000
0001
0100
0000
0010
0000
0000
0000
,
0011
0000
1000
0000
0100
1000
0010
0000
,
1000
0001
0000
0000
0010
0000
0001
0000
,
0001
0000
0100
0000
0000
0000
0001
0000
,
1000
0001
0000
0000
0010
0000
0001
0000
,
0001
0010
1000
0010
0001
0010
0001
0100
,
1000
0000
0100
0000
0010
0000
0001
1000
,
1000
0001
0100
0010
1000
0000
0100
0000
,
0001
0100
0010
0000
0100
0000
0001
0000
,
1000
0100
0010
0000
0100
0000
1000
0000
,
0001
0010
0100
0000
0010
0000
0001
0000
,
1000
0001
0100
0010
1000
0000
0100
0000
,
0001
0100
0010
0000
0100
0000
0001
0000
,
0001
0100
0010
0000
0100
0000
0001
0000
,
1000
0001
0100
0010
1000
0000
0100
0000
,
0001
0100
0010
0000
0100
0000
0001
0000
,
0001
0010
0100
0000
0010
0000
0001
0000
,
0001
0010
0100
0000
0010
0000
0001
0000
,
0001
0000
0100
0000
0000
0000
0000
0000
,;

//---------------dance-single - Heavy----------------
#NOTES:
     dance-single:
     Heavy:
     Hard:
     8:
     0.382,0.370,0.033,0.000,0.000,324.000,4.000,0.000,0.000,0.000:
1000
0000
0000
0000
0000
0000
0000
0000
,
1000
0000
0000
0000
0000
0000
0000
0000
,
0001
0000
0000
0000
0000
0000
0000
0000
,
1000
0000
0000
0000
0000
0000
0000
0000
,
1000
0000
0000
0000
0000
0000
0000
0000
,
0001
0000
0000
0000
0000
0000
0000
0000
,
0001
0000
0000
0000
0000
0000
0000
0000
,
0001
0000
0000
0000
0000
0000
0000
0000
,
1000
0000
0000
0000
0000
0000
0000
0000
,
1000
0000
0000
0000
0000
0000
0000
0000
,
1000
0000
0000
0000
0000
0000
0000
0000
,
1000
0000
0000
0100
0010
0100
0000
1000
,
1000
0001
0010
0001
0100
0000
0001
1000
,
1000
0001
0100
0001
0100
0001
0100
0010
,
0001
0100
0001
0000
0100
0010
0100
0010
,
1000
0100
1000
0000
0100
0010
0100
0010
,
1000
0010
1000
0000
0010
0100
0010
0100
,
0001
0100
0001
0000
0100
0010
0100
0010
,
1000
0010
1000
0000
0010
0100
0010
0100
,
0001
0010
0001
0000
0010
0100
0010
0100
,
0001
0100
0001
0000
0100
0010
0100
0010
,
0001
0010
0001
0000
0010
0100
0010
0100
,
1000
0010
1000
0000
0010
0100
0010
0100
,
0001
0100
0001
0000
0100
0010
0100
0010
,
1000
0010
1000
0000
0010
0100
0010
0100
,
0001
0010
0001
0000
0010
0100
0010
0100
,
1000
0010
1000
0000
0010
0100
0010
0100
,
1000
0100
1000
0000
0100
0010
0100
0010
,
1000
0100
1000
0000
0001
0001
0010
0100
,
0001
0100
0001
0000
1000
1000
0010
0100
,
0001
0100
0001
1000
0100
0010
1000
0000
,
0101
0000
0010
0001
0100
1000
0100
0010
,
1000
0100
1000
0000
0001
0001
0010
0100
,
1000
0001
0100
0000
0100
0000
0010
0100
,
1000
0100
1000
0000
0001
0001
0010
0000
,
0110
0000
0100
0001
0100
0001
0100
0010
,
1000
0100
1000
0000
0001
0001
0010
0100
,
1000
0001
0100
0000
0100
0000
0010
0100
,
0001
0100
0001
1000
0100
0010
1000
0000
,
0101
0000
0010
0001
0100
1000
0100
0010
,
1000
0100
1000
0000
0001
0001
0010
0100
,
1000
0001
0100
0000
0100
0000
0010
0100
,
1000
0100
1000
0000
0001
0001
0010
0000
,
0011
0000
1000
0000
0100
0010
0001
0010
,
0001
0100
0001
0010
0100
1000
0001
0010
,
1000
0001
0010
0001
0100
0000
0001
1000
,
0001
0100
0001
0000
0100
0010
0100
0010
,
0001
0100
0001
0000
0100
0010
0100
0010
,
1000
0100
1000
0000
0100
0010
0100
0010
,
1000
0001
0010
0001
0100
0000
0001
1000
,
0001
0100
0001
0000
0100
0010
0100
0010
,
1000
0100
1000
0000
0100
0010
0100
0010
,
1000
0001
0010
0001
0100
0000
0001
1000
,
0001
0100
0001
0000
0100
0010
0100
0010
,
1000
0010
1000
0000
0010
0100
0010
0100
,
0001
0010
0001
0000
0010
0100
0010
0100
,
1000
0000
0100
0000
1000
0000
0010
0000
,
;
