#TITLE:サナ・モレッテ・ネ・エンテ;
#SUBTITLE:(BLT style);
#ARTIST:Togo Project feat. Sana;
#TITLETRANSLIT:Sana Mollete Ne Ente;
#SUBTITLETRANSLIT:;
#ARTISTTRANSLIT:;
#CREDIT:Arch0wl;
#BANNER:sanamolleteneentebltstyle-bn.png;
#BACKGROUND:sanamolleteneentebltstyle-bg.png;
#LYRICSPATH:;
#CDTITLE:!arch0wltitle.png;
#MUSIC:sanamolleteneentebltstyle.ogg;
#OFFSET:-2.797;
#SAMPLESTART:72.055;
#SAMPLELENGTH:22.895;
#SELECTABLE:YES;
#BPMS:0.000=90.000;
#STOPS:;
#BGCHANGES:0.000=sanamolleteneentebltstyle-bg.png=1.000=0=0=1,
99999=-nosongbg-=1.000=0=0=0 // don't automatically add -songbackground-
;
// cache tags:
#FIRSTBEAT:0.000;
#LASTBEAT:176.000;
#SONGFILENAME:Songs/Archmage and Dark0wl Hammer of Thor UltraHyperMegaPack/Sana Mollete Ne Ente (BLT Style)/sanamolleteneentebltstyle.sm;
#HASMUSIC:1;
#HASBANNER:1;
#MUSICLENGTH:105.000;
// end cache tags

//---------------dance-single - Arch0wl----------------
#NOTES:
     dance-single:
     Arch0wl:
     Hard:
     8:
     0.522,0.545,0.238,0.057,0.829,349.000,25.000,6.000,0.000,4.000:
1000
0100
0010
0001
0000
0010
0000
0100
0000
0010
0000
0000
0000
0000
0000
0000
,
1000
0100
0010
0001
0000
0010
0000
0100
0000
0000
0000
0000
0000
0000
0000
0000
,
1000
0100
0010
0001
0000
0010
0000
0100
0000
0010
0000
0000
0000
0000
0000
0000
,
1000
0100
0010
0001
0000
0010
0000
0100
0000
0000
0000
0000
0000
0000
0000
0000
,
1000
0000
0010
0000
1000
0000
0001
0100
0000
0010
0000
1000
0000
0010
0100
0001
,
0010
0000
1000
0000
0010
0000
0001
0100
0000
0000
0000
0000
0000
0000
0000
0000
,
0001
0000
0010
0000
0001
0000
1000
0010
0000
0100
0000
0010
0000
0000
0000
0000
,
0000
0000
1010
0000
1110
0000
0000
0011
0000
0000
0000
0000
1000
0100
0000
0000
,
0011
0000
0001
0011
0000
0001
0011
0000
0011
0000
0000
0011
0000
0000
1000
0000
,
0011
0000
0001
0011
0000
0011
0000
0000
0011
0000
0000
0000
1000
0100
0000
0000
,
1000
0010
0100
0001
0000
0010
0000
1000
0000
0010
0000
0000
0000
0000
0000
0000
,
0001
0100
0010
1000
0000
0100
0000
0010
0000
0000
0000
0000
0000
0000
0000
0000
,
0001
0100
0010
1000
0000
0010
0000
0001
0000
0010
0000
0000
0000
0000
0000
0000
,
1000
0010
0100
0001
0000
0010
0000
0100
0000
0000
0000
0000
0000
0000
0000
0000
,
1000
0000
0000
0000
0100
0000
0010
0100
0001
0000
0100
0001
0000
0100
0000
1000
,
0010
0001
1000
0100
0001
0010
0000
0110
0000
0000
0000
0000
0000
0000
0000
0000
,
0100
0000
1000
0000
0001
0100
0000
1000
0100
0000
0001
0010
0000
0100
0010
0001
,
1000
0000
1000
0000
0010
0010
0000
0010
0000
1001
0000
1001
1001
0010
0100
0001
,
0010
0000
0100
1000
0010
0100
0001
0010
0000
1000
0000
0010
0000
0100
1000
0010
,
0100
0000
0001
0100
0010
1000
0100
0010
0000
1000
0000
0010
0000
0100
1000
0010
,
0100
0000
0001
1000
0010
0100
0001
0010
0000
1000
0000
0010
0000
0100
1000
0010
,
0100
0000
0001
0100
0010
1000
0100
0010
0000
0001
0000
1000
0000
0000
0000
0000
,
0001
0100
0010
1000
0000
0100
0000
0001
0000
0100
0000
0000
0000
0000
0000
0000
,
1000
0010
0100
0001
0000
0010
0000
0100
0000
0000
0000
0000
0000
0000
0000
0000
,
1000
0010
0100
0001
0000
0100
0000
1000
0000
0100
0000
0000
0000
0000
0000
0000
,
0001
0100
0010
1000
0000
0100
0000
0010
0000
0000
0000
0000
0000
0000
0000
0000
,
0001
0000
0010
0000
1000
0000
0010
0000
0100
0000
0001
0100
0000
0001
0100
1000
,
0001
0000
0010
0000
1000
0000
0010
0001
0000
0000
0000
0000
0000
0000
0000
0000
,
1000
0000
0010
0000
0001
0000
0010
0000
0100
0000
1000
0100
0000
1000
0100
0001
,
1000
0000
0000
0000
0100
0000
0000
0000
0010
0000
0001
0000
0000
0000
0100
0000
0000
0000
0010
1000
0010
0000
0010
0000
0010
0000
1000
0000
0100
0000
0010
0000
,
0002
0000
0000
0000
0000
0000
0000
0000
0000
0000
0000
0003
0000
0001
0010
0100
,
2000
0000
0000
0000
0000
0000
0000
0000
0000
0000
0000
3000
0000
1000
0100
0010
,
0002
0000
0000
0000
0000
0000
0000
0000
0000
0000
0000
0003
0000
0001
0010
0100
,
2000
0000
0000
0000
0000
0000
0000
0000
0000
0000
0000
3000
0000
1000
0100
0010
,
0001
0000
1000
0100
0010
0000
1000
0100
0001
0000
1000
0100
0010
0000
1000
0100
,
0001
0000
1000
0100
0010
0000
1000
0100
0001
0000
0000
0000
0000
0000
0000
0000
,
1000
0000
0001
0100
1000
0000
0001
0100
0010
0000
0001
0100
1000
0000
0001
0100
,
0010
0000
0001
0100
1000
0000
0001
0100
0010
0000
0001
0100
1000
0100
0010
1000
,
0100
0010
0000
0100
0010
0000
0100
0010
0000
0100
0010
0000
0100
0010
0000
0100
,
0010
0001
0100
0010
0000
0100
0000
1000
0000
0000
0000
0000
0000
1000
0100
0001
,
0010
0000
0100
0010
0001
0000
0100
0001
0010
0000
0100
0010
0001
0000
0100
0001
,
0010
0000
0100
0010
0001
0000
0100
0001
0010
0000
0000
0000
0000
0000
0000
0000
,
0000
0000
0110
0000
1110
0000
0000
0011
0000
0000
0110
0000
1110
0000
0000
0011
,
0000
0000
0110
0000
1110
0000
0000
0022
0000
0000
0000
0000
0000
0000
0000
0000
,
0033
0000
0000
0000
;

//---------------dance-single - Arch0wl----------------
#NOTES:
     dance-single:
     Arch0wl:
     Challenge:
     12:
     1.000,1.000,1.000,0.533,1.000,550.000,138.000,56.000,0.000,6.000:
1000
0100
0010
0001
0000
0010
0000
0100
0000
0010
0000
0001
0000
0001
0010
0100
,
1000
0100
0010
0001
0000
0010
0000
0100
0000
0011
0000
0000
1100
0000
0000
0000
,
1000
0100
0010
0001
0000
0010
0000
0100
0000
0010
0000
0001
0000
0001
0010
0100
,
1000
0100
0010
0001
0000
0010
0000
0100
0000
0011
0000
0000
2200
0000
3300
0000
,
1001
0000
1010
0000
1001
0000
0001
0110
0000
0011
0000
1010
0000
0010
0100
0001
,
0110
0000
1100
0000
0110
0000
0001
0110
0000
0101
0000
0110
2000
0000
3000
0000
,
1001
0000
0110
0000
1001
0000
1000
0011
0000
1100
0000
0011
0100
0000
0100
1000
,
0000
0000
1010
0000
1110
0000
0000
0011
0000
0000
0000
0000
2000
0200
3000
0300
,
0011
0100
0110
0011
0100
0110
0011
0100
0011
0100
0100
0011
0100
0100
1010
0100
,
0011
0100
0110
0011
0100
0011
0100
0100
0011
0100
0100
0100
2000
0002
3000
0003
,
1001
0010
0100
1001
0010
0100
1001
0010
1001
0010
0010
1001
0010
0010
1100
0010
,
1001
0010
0100
1001
0010
1001
0010
0100
1001
0010
0010
1100
0020
0002
0030
0003
,
1001
0100
0010
1001
0100
0010
1001
0100
1001
0100
0010
1001
0100
0100
1010
0100
,
1001
0000
0100
0000
0010
0000
1001
0000
0100
0000
1001
0000
0100
0000
0010
0000
1001
0000
0100
0000
0100
0000
0010
0100
0010
0100
0010
0100
0010
0100
0010
0100
,
1001
0000
0000
0000
0100
0000
0010
0100
0001
0000
0100
0001
0000
0100
0000
1000
,
0010
0001
1000
0100
0001
0010
0000
0110
0000
0000
0000
0000
0000
0000
0000
0000
,
0100
0000
1000
0000
0001
0100
0000
1000
0100
0000
0001
0010
0000
0100
0010
0001
,
1100
0000
1000
0000
0010
0010
0000
0010
0000
1001
0000
1001
1001
0010
0100
0001
,
0020
0000
0100
0100
0001
0001
0130
1000
0000
0100
0000
0001
0000
0100
1000
0010
,
0200
0000
0001
0001
0010
0010
1300
0010
0000
0001
0000
0010
0000
0101
0110
1010
,
0201
0000
1000
1000
0010
0010
0301
0010
0000
0001
0000
0010
0000
1100
0110
0011
,
1200
0000
1000
1000
0010
0010
0301
0010
0000
1000
0000
0010
0000
0000
0000
0000
,
2000
3020
0230
0302
0103
0020
0130
2000
3100
0020
1030
0100
0010
0001
0100
0010
,
2000
3020
0230
0302
0013
0200
0310
2000
3010
0001
0110
0001
0110
0001
0010
0100
,
2000
3020
0230
0302
0103
0020
0130
2000
3100
0020
1030
0100
0010
0001
0100
0010
,
2000
3020
0230
0302
0013
0200
0310
2000
3010
0001
0110
0001
0110
0001
0010
0100
,
1000
0000
0100
0000
0001
0000
0100
0000
0010
0000
1000
0010
0000
1000
0010
0002
,
1000
0000
0100
0000
0010
0003
0100
0020
0000
0000
0130
0020
0000
0000
0130
0020
,
0001
0000
0130
0020
1000
0000
0100
0000
0001
0000
0130
0010
0000
0001
0010
1000
,
0100
0000
0000
0000
0010
0000
0000
0000
0100
0000
1000
0000
0000
0000
0010
0000
0000
0000
0100
0001
0100
0000
0100
0000
0100
0000
0001
0000
0010
0000
0100
0000
,
2000
0000
0100
0100
0001
0001
0010
0010
0000
0001
0000
3100
0000
1000
0100
0010
,
0002
0000
0100
0100
1000
1000
0010
0010
0000
1000
0000
0103
0000
0001
0010
0100
,
2000
0000
0100
0100
0001
0001
0010
0010
0000
0100
0000
3001
0000
1000
0100
0010
,
0002
0000
0100
0100
1000
1000
0010
0010
0000
0100
0000
1003
0000
1000
0100
0010
,
1001
1010
0101
0110
0001
1010
0001
0110
0000
1010
0001
0110
1001
0010
1001
1010
,
0100
0110
1001
0110
0001
1010
0001
0110
2000
0001
0000
0001
0001
0000
3001
0000
,
0001
0100
1000
0001
0010
1000
0001
0100
0001
0100
1000
0001
0010
1000
0001
0100
,
0001
0000
0100
0000
1000
0000
0001
0000
0010
0000
0001
0000
0010
0000
1000
0000
0100
0000
0010
0001
0010
0000
0010
0000
0010
0000
0100
0000
1000
0000
0001
0000
,
0100
1010
0100
1010
0101
0010
1010
0101
0010
1010
0101
0010
1010
0101
0010
1010
,
0101
0011
1100
0110
0001
0110
0001
0110
1000
0001
0010
0100
1000
1010
0110
0101
,
0011
0001
0001
0010
0001
0001
0010
0001
1010
0101
1001
0110
1001
0101
1001
0101
,
1010
0101
1001
0110
1001
0010
0101
1001
2200
0000
0000
0000
0000
0000
3310
0001
,
1000
0100
0110
0100
2110
0100
3100
0011
0100
0100
0110
0100
2110
0100
3100
0011
,
0100
0100
0110
0100
2110
0100
3100
1022
0000
0000
0000
0000
0000
0000
0000
0000
,
0033
0000
0000
0000
;
