#TITLE:Super Mario Bros;
#SUBTITLE:- Super Show!;
#ARTIST:Nintendo;
#TITLETRANSLIT:;
#SUBTITLETRANSLIT:;
#ARTISTTRANSLIT:;
#CREDIT:;
#BANNER:super.png;
#BACKGROUND:super-bg.png;
#LYRICSPATH:;
#CDTITLE:;
#MUSIC:super.mp3;
#OFFSET:-4.700;
#SAMPLESTART:34.646;
#SAMPLELENGTH:12.000;
#SELECTABLE:ROULETTE;
#BPMS:0.000=200.000;
#STOPS:;
#BGCHANGES:0.000=SuperMario.avi=1.000=0=0=1,
176.000=super-bg.png=1.000=0=0=1,
99999=-nosongbg-=1.000=0=0=0 // don't automatically add -songbackground-
;
// cache tags:
#FIRSTBEAT:0.000;
#LASTBEAT:180.000;
#SONGFILENAME:Songs/Anime Songs/Super Mario/super.sm;
#HASMUSIC:1;
#HASBANNER:1;
#MUSICLENGTH:58.908;
// end cache tags

//---------------dance-single - Challenge----------------
#NOTES:
     dance-single:
     Challenge:
     Challenge:
     8:
     0.681,0.688,0.068,0.119,0.000,270.000,4.000,7.000,0.000,0.000:

0001
0001
0000
0001
0000
1000
0001
0000
,
1001
0000
0110
0000
,
0001
1000
0100
0010
0001
1000
0010
0100
,
0001
1000
0100
0010
0001
1000
0010
0100
,
0001
1000
0100
0010
0001
1000
0010
0100
,
0001
1000
0100
0010
0001
1000
0010
0100
,
0001
1000
0010
0100
1000
0100
0001
1000
,
0100
0010
0001
0010
1000
0010
0100
1000
,
0001
0010
0010
1000
0001
0100
0001
1000
,
0010
0100
0001
1000
0100
0010
0001
0010
,
2002
0000
0000
3003
1000
0000
0000
0010
,
0000
0000
0000
0000
0001
0000
0000
1000
,
0000
0000
0000
0000
0000
1000
0001
0000
,
0010
0000
0100
0000
0001
1000
0000
0000
,
0001
1000
0010
0100
,
1000
0000
0001
0100
0000
1000
0010
0000
,
0001
1000
0000
0000
0001
1000
0010
0100
,
0001
1000
0010
0100
1000
0001
0010
0100
,
1000
0010
0001
0100
0001
1000
0010
0100
,
0001
1000
0010
0100
0001
0010
1000
0100
,
0001
0010
1000
0010
0001
0100
1000
0010
,
0100
0001
1000
0010
0100
0001
0100
0010
,
1000
0001
1000
1000
0000
0100
0100
0100
,
0000
0001
0001
0001
0010
0010
1000
1000
,
0000
0000
0001
0001
0100
0100
1000
1000
,
0010
0010
1000
0001
0100
0010
1000
0001
,
0100
1000
0000
0001
0000
0010
0000
1000
,
0001
0000
0100
1000
1000
0010
0000
0000
,
0001
1000
0010
0100
0001
1000
0100
0010
,
0001
1000
0010
0100
0001
1000
0100
0010
,
0001
1000
0010
0100
0001
1000
0100
0010
,
0001
1000
0001
1000
1000
0001
0010
0100
,
0010
0100
1000
0001
0100
0010
1000
0100
,
0010
0001
0020
0000
0030
0000
0200
0000
,
0300
0000
0001
1000
0000
0010
0000
1000
,
0001
0000
1000
0000
0100
0000
0100
0001
,
0000
0000
0000
0100
0001
1000
0010
0100
,
0001
1000
0010
0100
0001
1000
0100
0010
,
0001
1000
0100
0001
1000
0010
0000
0100
,
0000
0001
1000
0000
0100
0010
0000
1000
,
0001
0000
0000
0000
0100
1000
0000
0001
,
1000
0000
0100
0000
0100
1000
0001
0010
,
0100
1000
0010
0100
0001
0200
0000
0000
,
0000
0000
0000
0300
,
2002
0000
0000
0000
,
3003
0000
0000
0000;
