#TITLE:Dublin Delight;
#SUBTITLE:;
#ARTIST:Makke;
#TITLETRANSLIT:;
#SUBTITLETRANSLIT:;
#ARTISTTRANSLIT:;
#CREDIT:;
#BANNER:banner.png;
#BACKGROUND:back.png;
#LYRICSPATH:lyrics.lrc;
#CDTITLE:;
#MUSIC:Dublin Delight.mp3;
#OFFSET:-5.046;
#SAMPLESTART:43.292;
#SAMPLELENGTH:13.120;
#SELECTABLE:YES;
#BPMS:0.000=144.220;
#STOPS:;
#BGCHANGES:;
// cache tags:
#FIRSTBEAT:4.000;
#LASTBEAT:235.000;
#SONGFILENAME:Songs/newbie/dublindelight/steps.sm;
#HASMUSIC:1;
#HASBANNER:1;
#MUSICLENGTH:107.911;
// end cache tags

//---------------dance-single - by Cloud----------------
#NOTES:
     dance-single:
     by Cloud:
     Hard:
     9:
     0.455,0.572,0.111,0.185,0.561,312.000,12.000,20.000,0.000,0.000:
0000
0000
0000
0000
,
0010
0000
0000
0000
0000
0000
0000
0001
0100
0000
0000
0000
0000
0000
0000
0000
,
1000
0000
0000
0000
0000
0000
0000
0010
0100
0000
0000
0000
0000
0000
0000
0000
,
0001
0000
0000
0000
0000
0000
0000
1000
0010
0000
0000
0000
0000
0000
0000
0000
,
0100
0000
0000
0000
0000
0000
0000
0001
1000
0000
0000
0000
0000
0000
0000
0000
,
0001
0000
0000
0000
0100
0000
0000
0000
0010
0000
0000
1000
0001
0000
0000
0000
,
0020
0000
0000
0030
,
0001
0000
0000
0000
0010
0000
0000
0000
0100
0000
0000
1000
0010
0000
0000
0000
,
0100
0000
0000
0000
0001
0000
0000
0000
1000
0000
0000
0001
0010
0000
0000
0000
,
0100
0000
0000
0000
1000
0000
0000
0000
0001
0000
0000
0100
0001
0000
0000
0000
,
2000
0000
0000
3000
,
0001
0000
0000
0000
0010
0000
0000
0000
0100
0000
0000
0010
1000
0000
0000
0000
,
0010
0000
0000
0000
0001
0000
0000
0000
1000
0000
0000
0010
0100
0000
0000
0000
,
0010
0000
1000
0000
,
0001
0000
0000
0000
0000
0000
0000
0100
0010
0000
0000
0000
0000
0000
0000
0001
,
1000
0000
0000
0000
0100
0000
0000
0000
0010
0000
0000
0000
0001
0000
0000
0100
,
0010
0000
0000
0000
1000
0000
0000
0000
0100
0000
0000
0000
1000
0000
0000
0001
,
0010
0000
0000
0000
0100
0000
0000
0000
1000
0000
0000
0000
0100
0000
0000
0001
,
0100
0000
0000
1000
0100
0000
0000
0001
0100
0000
0000
0000
0000
0000
0000
1000
,
0010
0000
0000
0000
0100
0000
0000
0000
0001
0000
0000
0000
0100
0000
0000
0010
,
1000
0000
0000
0000
0001
0000
0000
0000
0010
0000
0000
0000
0000
0000
0000
0100
,
1000
0000
0000
0000
0010
0000
0000
0000
1000
0000
0000
0000
0001
0000
0000
0100
,
1000
0000
0000
0100
0010
0000
0000
0100
0001
0000
0000
0000
0000
0000
0000
0000
,
0001
0000
0000
0001
0100
0000
0000
0100
0010
0000
0000
0010
1000
0000
0000
1000
,
0100
0000
0000
0100
0010
0000
0000
0010
0001
0000
0000
0000
0000
0000
0000
0000
,
0010
0000
0000
0000
0000
0000
0000
0000
0000
0010
0000
0000
1000
0000
0000
0000
0000
0000
0000
0000
0000
1000
0000
0000
0001
0000
0000
0000
0100
0000
0000
0000
0001
0000
0000
0000
0100
0000
0000
0000
0000
0000
0000
0000
0000
0001
0000
0000
,
0010
0000
0000
0010
0100
0000
0000
0100
1000
0000
0000
0000
0000
0000
0000
0000
,
0010
0000
0000
0010
1000
0000
0000
1000
0001
0000
0000
0001
1000
0000
0000
1000
,
0100
0000
0000
0000
0000
0000
0000
0000
0000
0100
0000
0000
0010
0000
0000
0000
0000
0000
0000
0000
0000
0010
0000
0000
0100
0000
0000
0000
0000
0000
0000
0000
0000
0100
0000
0000
1000
0000
0000
0000
0100
0000
0000
0000
1000
0000
0000
0000
,
0100
0000
0010
0001
0010
0001
0010
0000
0100
0010
0100
0010
,
0100
0000
1000
0001
1000
0001
1000
0000
0000
0000
0000
0000
,
0100
0000
0000
0010
0020
0000
0000
0001
0031
0000
0000
1000
0100
0000
0000
1000
,
0020
1000
1000
1030
,
0200
0000
0000
0001
0302
0000
0000
1000
1003
0000
0000
0010
0100
0000
0000
0100
,
0002
0000
0000
0010
0023
0000
0000
0100
0130
0000
0000
1000
0001
0000
0000
0001
,
0200
0000
0000
0010
0320
0000
0000
0100
0130
0000
0000
0010
1000
0000
0000
0010
,
0200
0001
0001
0301
,
0020
0000
0000
1000
2030
0000
0000
0010
3010
0000
0000
0100
0001
0000
0000
0001
,
0020
0000
0000
0100
0230
0000
0000
0010
0310
0000
0000
1000
0001
0000
0000
0001
,
2000
0000
0100
0000
,
0010
0000
0000
0000
3000
0000
0000
0001
0100
0000
0000
0000
0000
0000
0000
0100
,
0010
1000
0002
0000
,
0010
0000
0000
0000
0100
0000
0000
0000
1003
0000
0000
0000
0000
0000
0000
0010
,
1000
0000
0000
0000
0100
0000
0000
0000
0010
0000
0000
0000
0001
0000
0000
1000
,
0001
0000
0000
0100
0001
0000
0000
0010
0001
0000
0000
0000
0000
0000
0000
0100
,
0010
1010
0100
0011
,
2000
0000
0000
0000
0000
0000
0000
0000
3010
0000
0000
0000
0000
0000
0000
0100
,
1000
0000
0000
0000
1100
0000
0000
0000
0101
0000
0000
0000
1001
0000
0000
0100
,
0010
0000
0000
1000
0010
0000
0000
0001
0010
0000
0000
0000
0000
0000
0000
0000
,
1001
0000
0000
1000
0100
0000
0000
0100
0010
0000
0000
0010
0100
0000
0000
0100
,
1000
0000
0000
1000
0010
0000
0000
0010
0100
0000
0000
0000
0000
0000
0000
0000
,
1100
0000
0000
0000
0000
0000
0000
0000
0000
1000
0000
0000
0001
0000
0000
0000
0000
0000
0000
0000
0000
0001
0000
0000
1000
0000
0000
0000
0010
0000
0000
0000
1000
0000
0000
0000
0010
0000
0000
0000
0000
0000
0000
0000
0000
0100
0000
0000
,
0001
0000
0000
0001
1000
0000
0000
1000
0100
0000
0000
0000
0000
0000
0000
0000
,
0101
0000
0000
0001
0100
0000
0000
0100
0001
0000
0000
0001
1000
0000
0000
1000
,
0010
0000
0000
0000
0000
0000
0000
0000
0000
0010
0000
0000
0100
0000
0000
0000
0000
0000
0000
0000
0000
0100
0000
0000
0001
0000
0000
0000
0000
0000
0000
0000
0000
0001
0000
0000
0010
0000
0000
0000
0100
0000
0000
0000
0010
0000
0000
0000
,
0100
0000
1000
0010
1000
0100
1000
0000
0001
0100
0001
0010
,
0001
0000
1000
0001
1000
0001
1000
0000
0000
0000
0000
0000
,
1010
0000
0101
0000
,
1001
0000
0000
0000
0000
0000
0000
1000
0220
0000
0000
0000
0330
0000
0000
0000
;

//---------------dance-single - by Cloud----------------
#NOTES:
     dance-single:
     by Cloud:
     Medium:
     7:
     0.387,0.436,0.306,0.213,0.218,236.000,33.000,23.000,0.000,0.000:
0000
0000
0000
0000
,
0010
0000
0000
0000
0000
0000
0000
0010
1000
0000
0000
0000
0000
0000
0000
0000
,
0100
0000
0000
0000
0000
0000
0000
0100
0001
0000
0000
0000
0000
0000
0000
0000
,
1000
0000
0000
0000
0000
0000
0000
1000
0010
0000
0000
0000
0000
0000
0000
0000
,
0001
0000
0000
0000
0000
0000
0000
0001
0100
0000
0000
0000
0000
0000
0000
0000
,
0001
0000
0000
0000
0010
0000
0000
0000
0100
0000
0000
1000
0100
0000
0000
0000
,
0020
0000
0000
0030
,
1000
0000
0000
0000
0001
0000
0000
0000
0010
0000
0000
0100
0010
0000
0000
0000
,
0100
0000
0000
0000
1000
0000
0000
0000
0010
0000
0000
0100
0010
0000
0000
0000
,
0100
0000
0000
0000
0001
0000
0000
0000
0010
0000
0000
1000
0001
0000
0000
0000
,
2000
0000
0000
3000
,
0001
0000
0000
0000
0100
0000
0000
0000
0010
0000
0000
1000
0010
0000
0000
0000
,
0100
0000
0000
0000
0001
0000
0000
0000
0100
0000
0000
1000
0100
0000
0000
0000
,
0010
0000
0100
0000
,
0010
0000
0000
0000
0000
0000
0000
0100
0010
0000
0000
0000
0000
0000
0000
0001
,
1000
0000
0000
0000
0010
0000
0000
0000
0100
0000
0000
0000
0001
0000
0000
0100
,
0010
0000
0000
0000
1000
0000
0000
0000
0100
0000
0000
0000
0010
0000
0000
0100
,
1000
0001
0010
0001
,
0100
0000
0000
0000
0100
0000
0000
0000
1001
0000
0000
0000
0000
0000
0000
0001
,
0100
0000
0000
0000
0010
0000
0000
0000
1000
0000
0000
0000
0001
0000
0000
0100
,
0010
0000
0000
0000
1000
0000
0000
0000
0001
0000
0000
0000
0000
0000
0000
0010
,
1000
0010
0100
0001
,
1000
1000
0110
0000
,
0001
0000
0000
0001
0010
0000
0000
0000
0100
0000
0000
0100
1000
0000
0000
0000
,
1100
0110
0011
0000
,
0100
0000
0000
0100
0001
0000
0000
0000
1010
0000
0000
0000
1010
0000
0000
0000
,
0100
0000
0000
0100
0010
0000
0000
0000
1001
0000
0000
0000
0000
0000
0000
0000
,
0010
0000
0000
0010
1000
0000
0000
0000
1000
0000
0000
1000
0100
0000
0000
0000
,
0011
1010
0101
0000
,
1000
0000
0000
1000
0100
0000
0000
0000
0001
0000
0000
0001
0010
0000
0000
0000
,
1001
0110
1001
0000
,
0002
0000
0000
0000
0023
0000
0000
0000
0130
0000
0000
1000
0200
0000
0000
0000
,
0320
1000
1000
1030
,
0200
0000
0000
0000
2300
0000
0000
0000
3010
0000
0000
0010
0200
0000
0000
0000
,
0302
0000
0000
0000
0023
0000
0000
0000
0130
0000
0000
1000
0002
0000
0000
0000
,
0203
0000
0000
0000
0320
0000
0000
0000
0130
0000
0000
0010
1000
0000
0000
0000
,
0200
0010
0010
0310
,
0020
0000
0000
0000
0032
0000
0000
0000
0103
0000
0000
0001
1000
0000
0000
0000
,
2000
0000
0000
0000
3002
0000
0000
0000
0013
0000
0000
0100
1000
0000
0000
0000
,
0002
0000
0100
0000
,
0010
0000
0000
0000
0003
0000
0000
1000
0100
0000
0000
0000
0000
0000
0000
0001
,
0100
0010
0200
0000
,
0001
0000
0000
0000
0010
0000
0000
0000
1300
0000
0000
0000
0000
0000
0000
0010
,
0001
0100
0010
1000
,
0101
0000
0000
0000
1010
0000
0000
0000
0011
0000
0000
0000
0000
0000
0000
0001
,
0010
0100
0010
0001
,
2000
0000
3100
0000
,
0011
0000
0000
0000
1100
0000
0000
0000
0110
0000
0000
0000
1001
0000
0000
0100
,
0010
0000
0000
0100
0010
0000
0000
0100
0010
0000
0000
0000
0000
0000
0000
0000
,
0100
0000
0000
0100
0010
0000
0000
0000
0010
0000
0000
0010
0100
0000
0000
0000
,
1001
1100
0101
0000
,
1000
0000
0000
1000
0001
0000
0000
0000
0110
0000
0000
0000
0110
0000
0000
0000
,
0001
0000
0000
0001
1000
0000
0000
0000
0110
0000
0000
0000
0000
0000
0000
0000
,
0010
0000
0000
1000
0010
0000
0000
0000
0100
0000
0000
0001
0100
0000
0000
0000
,
1010
0101
1100
0000
,
0001
0000
0000
1000
0001
0000
0000
0000
1000
0000
0000
0001
1000
0000
0000
0000
,
0011
1100
1001
0000
,
0010
0000
0100
0000
,
0001
0000
0000
0000
0000
0000
0000
1000
0200
0000
0000
0000
0300
0000
0000
0000
;

//---------------dance-single - by Cloud----------------
#NOTES:
     dance-single:
     by Cloud:
     Easy:
     5:
     0.338,0.436,0.398,0.269,0.000,183.000,43.000,29.000,0.000,0.000:
0000
0000
0000
0000
,
0100
0000
1000
0000
,
0100
0000
0010
0000
,
0001
0000
1000
0000
,
0001
0000
0100
0000
,
0001
0010
0100
0110
,
0220
0000
0000
0330
,
1000
0001
0010
0110
,
0001
1000
0100
1001
,
0010
0100
0010
0011
,
0022
0000
0000
0033
,
1000
0100
0010
1001
,
0001
0010
0100
1001
,
0010
0000
0010
0000
,
0010
0000
0110
0000
,
1000
0100
1000
0001
,
0010
0001
0100
0010
,
1000
0001
1000
0010
,
0100
0010
1001
0000
,
0100
0001
0100
0010
,
1000
0001
0110
0000
,
1000
0010
0100
0001
,
0100
0100
1001
0000
,
0100
0010
0001
1000
,
0110
1001
0101
0000
,
0100
0010
0100
1001
,
0001
1000
0110
0000
,
0010
1000
0001
0100
,
1001
0110
1100
0000
,
0001
0011
1000
1100
,
0010
0010
1001
0000
,
2000
0000
0020
3000
0200
0030
0002
0300
,
0020
0000
0000
0033
,
0200
0000
2000
0300
0001
3000
0210
0000
,
0302
0023
0130
2001
,
0002
3000
0200
0003
0020
0300
2000
0030
,
0002
0000
0000
3003
,
0200
0302
1003
1001
,
0020
0230
0310
0110
,
2000
0000
0100
0000
,
0100
0000
3100
0000
,
0100
0010
0002
0000
,
1000
1000
1003
0000
,
0001
0100
0010
1000
,
0001
0010
1001
0000
,
0010
0100
0010
0110
,
0002
0000
0103
0000
,
1000
0001
0100
1001
,
0010
0100
1001
0000
,
0010
1000
0001
0100
,
1001
0110
1010
0000
,
0100
0010
1000
0110
,
0010
0100
1001
0000
,
0001
0010
0100
1000
,
0110
1001
0011
0000
,
0100
0101
0010
1010
,
0100
0001
0110
0000
,
0001
0000
0001
0000
,
0001
0000
2002
3003
;

//---------------dance-single - by Cloud----------------
#NOTES:
     dance-single:
     by Cloud:
     Beginner:
     2:
     0.184,0.218,0.056,0.176,0.000,114.000,6.000,19.000,0.000,0.000:
0000
0000
0000
0000
,
0100
0000
0000
0000
,
0010
0000
0000
0000
,
1000
0000
0000
0000
,
0100
0000
0000
0000
,
0001
0000
0001
0000
,
0002
0000
0000
0003
,
1000
0000
1000
0000
,
0100
0000
0100
0000
,
0010
0000
0010
0000
,
0020
0000
0000
0030
,
0100
0000
0100
0000
,
0001
0000
0001
0000
,
0100
0000
0100
0000
,
0100
0000
0110
0000
,
1000
0000
0100
0000
,
0010
0000
0001
0000
,
1000
0000
0001
0000
,
0100
0100
0100
0000
,
0010
0000
0001
0000
,
1000
0000
0010
0000
,
1000
0000
0100
0000
,
0010
0010
0010
0000
,
0100
0000
0001
0000
,
1000
1000
1000
0000
,
0100
0000
0001
0001
,
0000
0000
0110
0000
,
0010
0000
0001
0000
,
0100
0100
0100
0000
,
0001
0000
1000
0000
,
0010
0000
1001
0000
,
2000
0000
0200
3000
,
0020
0000
0000
0330
,
0200
0000
2000
0300
,
0020
3000
0200
0030
,
0002
0300
2000
0003
,
0020
0000
0000
3030
,
0200
0000
0002
0300
,
0020
0003
0200
0030
,
2000
0000
0000
0000
,
0000
0000
3300
0000
,
0100
0000
0001
0000
,
1000
1000
1000
0000
,
0010
0000
0001
0000
,
0100
0100
0100
0000
,
1000
0000
0010
0000
,
1000
0000
0001
0000
,
1000
0000
0100
0000
,
0010
0010
0010
0000
,
0100
0000
0010
0000
,
0100
0100
0100
0000
,
0001
0000
0010
0010
,
0000
0000
1001
0000
,
0100
0000
0010
0000
,
1000
1000
1000
0000
,
0010
0000
1000
0000
,
0001
0000
0110
0000
,
0100
0000
0100
0000
,
0100
0000
2002
3003
;
