#TITLE:Infernoplex;
#SUBTITLE:;
#ARTIST:Dimrain47;
#TITLETRANSLIT:;
#SUBTITLETRANSLIT:;
#ARTISTTRANSLIT:;
#CREDIT:;
#BANNER:infernoplexbn.png;
#BACKGROUND:infernoplexbg.png;
#LYRICSPATH:;
#CDTITLE:;
#MUSIC:Infernoplex.ogg;
#OFFSET:-1.398;
#SAMPLESTART:35.734;
#SAMPLELENGTH:12.000;
#SELECTABLE:YES;
#BPMS:0.000=175.000,160.000=87.500,166.000=175.000,560.000=87.500,571.000=175.000;
#STOPS:;
#BGCHANGES:;
// cache tags:
#FIRSTBEAT:0.000;
#LASTBEAT:639.000;
#SONGFILENAME:Songs/cedric step/Infernoplex/infernoplex.sm;
#HASMUSIC:1;
#HASBANNER:1;
#MUSICLENGTH:227.699;
// end cache tags

//---------------dance-single - ----------------
#NOTES:
     dance-single:
     :
     Challenge:
     13:
     1.000,1.000,0.154,0.400,1.000,1514.000,35.000,91.000,30.000,1.000:
1000
0010
0010
1000
0100
0010
0001
0010
,
0100
1000
1000
0010
0100
0001
0001
0100
,
0010
1000
1000
0001
0010
0100
1000
0100
,
0010
0100
0100
0010
0100
1000
0001
0010
,
0100
1100
0001
0011
,
0001
0000
0110
0000
0010
1000
0010
0001
,
0010
0110
0010
1100
,
1000
0100
0010
0100
0010
0100
0010
0100
0010
0000
0001
0000
1000
0010
0100
0010
,
1000
0100
0010
0001
0010
0100
1000
0001
1000
0010
1000
0001
0100
0010
1000
0001
,
1000
0010
0100
0001
0100
0010
1000
0001
1000
0010
0100
0001
1000
0001
1000
0100
,
0010
0001
1000
0100
1000
0001
0010
0100
1000
0001
1000
0010
0100
0001
0010
0100
,
1000
0001
1000
0010
0100
0001
0100
0010
1000
0001
0010
0100
1000
0001
0100
0001
,
0100
0010
1000
0100
0010
0000
0001
0010
0100
0000
1000
0100
0010
0001
1000
0010
,
1000
0001
0100
0010
1000
0001
0010
0001
1000
0100
1000
0001
1000
0001
0100
0010
,
0100
0001
1000
0010
1000
0001
0010
0001
1000
0100
1000
0001
0100
0001
0100
0010
,
1000
0001
1000
0010
0100
0001
0100
0010
1000
0001
0010
0001
1000
0100
0010
0001
,
2000
0010
0100
0010
,
3002
0000
0203
0000
,
0320
0001
0100
1000
,
0230
0000
0000
0000
0000
0000
0000
0000
0302
0000
0000
0000
0000
0000
0000
0003
,
1000
0001
0100
0000
0000
0010
1000
0000
,
0010
0000
0100
0000
0001
0000
1000
0001
0000
0001
0000
0100
0001
1000
0010
0100
,
0010
1000
0100
0000
0000
0010
0001
0000
,
1000
0100
0010
0100
1000
0010
0100
0001
1000
0000
0100
0000
0010
0001
0010
0100
,
0010
0100
1100
0000
1000
0001
1001
0000
,
0001
0000
0100
0000
0110
0000
0010
0000
1000
0000
0001
0000
0100
0000
0010
1000
,
0001
1000
1100
0000
0010
0100
0110
0000
,
0001
1000
1010
0010
0100
0001
2000
0000
,
3002
0000
0000
0000
0000
0000
0000
0000
0000
0000
0000
0000
0000
0000
1003
0100
,
0020
0000
0000
0000
0000
0030
0001
1000
0020
0000
0000
0000
1030
0000
0001
0100
,
0001
0100
0010
1000
0010
1000
0001
0100
0010
1000
0001
0010
0001
1000
0100
1000
,
0001
0100
0001
0100
0010
1000
0001
1000
0100
0010
0001
1000
0100
1000
0001
1000
,
0100
0010
0001
1000
0010
1000
0001
0010
0100
1000
0001
1000
0010
0100
0001
1000
,
0100
0010
0001
1000
0010
0100
0001
1000
0010
0100
0001
0010
0100
1000
0001
0010
,
0100
0010
0001
1000
0001
0010
0100
0010
0001
1000
0001
0010
0100
1000
0001
1000
,
0010
0100
0001
1000
0001
1000
0010
0100
0001
1000
0010
0100
0010
0100
0001
1000
,
0010
0100
0001
0100
0010
0000
1000
0001
0010
0000
0100
1000
0100
0010
0001
0010
,
0100
1000
0001
1000
0010
0100
0001
0010
0100
1000
0001
0100
0010
0100
0001
1000
,
0010
0100
0001
0010
0001
1000
0100
1000
0001
0010
0001
0010
0100
1000
0001
1000
,
0100
0010
0001
1000
0010
1000
0001
0100
0001
1000
0100
1000
0001
0010
0100
1000
,
0001
1000
0000
1000
0001
0100
0000
0100
0001
0000
0100
0001
0011
0010
0001
0100
,
0001
0100
0001
1000
0010
1000
0010
0100
0001
0100
0010
1000
0001
0010
0001
0010
0002
0000
0000
0000
0000
0000
0000
0000
0000
0000
0000
0000
0000
0000
0000
0000
,
0000
0000
0203
0000
,
0320
0000
0230
0000
,
0000
0000
0302
0000
,
0000
0000
0000
0000
0000
0000
0000
0003
1000
0100
1000
0100
1000
0100
1000
0100
,
0010
0100
0010
0100
0010
0100
0010
0100
0010
0001
0010
0001
0010
0001
0010
0001
,
0100
0001
0100
0001
0100
0001
0100
0001
0100
0010
0100
0010
0100
0010
0100
0010
,
1000
0010
1000
0010
1000
0010
1000
0010
1000
0100
0010
0001
1000
0100
0010
0001
,
1000
0100
0010
0001
1000
0100
0010
0001
2000
0000
0000
0000
0001
0000
0000
0000
,
3001
0100
0010
1000
0002
0000
0100
0000
,
0103
0010
1000
0010
0200
0000
1000
0000
,
0310
0000
1000
0000
0010
0000
0001
0000
0020
0000
0000
0000
0100
0000
0000
0030
,
1000
0001
0100
0010
1000
0100
0011
0001
,
0010
0100
1100
0100
1000
0100
1001
1000
,
0001
0100
0101
0100
0001
1000
1010
0010
,
0100
0010
0110
0100
0001
1000
0001
0100
,
0001
1000
0010
0100
0010
1000
0001
0100
0020
0000
0000
0000
0000
0000
2030
0000
,
0000
3001
0100
0010
2000
0000
0000
3200
,
0000
0000
0301
0000
0100
0000
1000
0000
0020
0000
0000
0000
0000
0030
0100
0001
,
1000
0010
0100
0001
0100
0001
1000
0001
1000
0010
0100
0010
0100
0001
1000
0001
,
1000
0010
0100
0001
1000
0100
1000
0001
2000
0000
0000
0000
0000
0000
3002
0000
,
0000
0000
0200
0003
0000
0000
0310
0000
2000
0000
0000
0000
0000
0000
3002
0000
,
0000
0000
2003
0000
0000
0000
3010
0000
0100
0010
1000
0010
0100
0001
0100
0010
,
1000
0001
1000
0001
0010
0100
1000
0001
0020
0000
0000
0000
0000
0030
0100
1000
,
0100
0010
0001
0000
1001
0000
1000
0000
2000
0000
0000
0000
0000
0000
3002
0000
,
0000
0203
0000
0310
0002
0000
0000
0023
,
0000
2030
0000
3100
0020
0000
2030
0000
,
3020
0032
0203
0320
,
2030
0000
3200
0000
0302
0000
0000
0203
,
0000
2300
0000
3010
0200
0000
0000
0301
,
0000
2000
0000
3010
0200
0000
0320
0000
,
2030
3002
0023
0230
,
2300
0000
3100
0000
0101
0100
0100
0010
,
1000
0010
0001
0010
0110
0100
0100
0001
,
1000
0010
0100
0001
0011
0001
0001
0010
,
0001
0100
0010
1000
1010
1000
1000
0100
,
0001
0100
1000
0100
0010
0001
0110
0000
,
0000
0000
1000
0000
1001
0000
0000
0000
1000
0000
0010
0000
1010
0000
1000
0001
,
0000
0001
0000
1000
0010
0100
0001
0100
0010
0000
1000
0000
0100
0000
0000
0000
,
0000
0000
0001
0000
0011
0000
0000
0000
1000
0100
1000
0100
0010
0001
0010
0001
,
1000
0010
1000
0010
0100
0001
0100
0001
0100
0001
1000
0010
0100
0010
1000
0001
,
1000
0001
0010
0100
1000
0100
1000
0001
0010
0001
0010
0001
1000
0010
1000
0010
,
0100
0001
0100
0001
1000
0100
1000
0100
0010
0001
1000
0001
0100
0010
1000
0010
,
1000
0001
0100
0001
1000
0010
1000
0010
0100
0001
1000
0001
0010
0100
1000
0001
,
0010
0100
1000
0001
0010
0100
1000
0001
1000
0000
0010
0100
0001
0000
0010
0001
,
0100
0000
1000
0001
0100
0010
0100
0010
1000
0001
0100
0010
1000
0010
0100
0001
,
1000
0100
1000
0001
0010
0001
1000
0001
1000
0010
0100
0001
1000
0100
1000
0001
,
0010
0001
1000
0010
1000
0001
0100
0001
1000
0100
1000
0100
0010
0100
1000
0100
,
0010
0001
0010
0100
0010
0001
0010
0100
0010
0000
0001
0000
0010
0000
1000
0000
,
0010
0001
0100
1000
0100
0010
0100
0001
,
1000
0100
1000
0010
0001
0010
0100
1000
,
0100
0010
1000
0100
1000
0010
1000
0100
,
0010
0001
0100
0010
1000
0001
1000
0100
,
1000
0001
0010
0100
0010
0001
0010
1000
,
0010
0001
0100
0010
1000
0100
0010
0001
,
0100
0001
1000
0100
0010
0001
0100
0010
,
1000
0000
0100
0000
1000
0000
0001
0000
1000
0000
1000
0010
1000
0000
0001
0100
,
0001
0000
0100
0010
0100
0001
0100
0001
0010
0000
0001
0010
0001
0000
1000
0100
,
1000
0000
0001
1000
0001
1000
0001
1000
0010
0000
1000
0010
1000
0000
0001
0100
,
0001
0000
0100
0010
0100
0010
0100
0001
0100
0000
0001
0010
0001
0000
0010
0100
,
0010
0000
0100
1000
0100
0010
0100
1000
0100
0000
1000
0001
1000
0000
0100
0010
,
0100
0000
0010
0001
0010
0100
0010
0001
1000
0000
0001
1000
0001
0000
1000
0010
,
1000
0000
0001
0100
0001
0100
0010
0100
0010
0000
0100
0010
0100
0000
0010
0100
,
0010
0000
0100
0001
0100
0001
0100
0001
0100
0000
0010
1000
0010
0000
1000
0010
,
1000
0000
0001
0100
0001
0100
0010
1000
0010
0000
0100
0001
0100
0000
0010
1000
,
0010
0000
1000
0001
0010
0001
0010
0001
1000
0000
0100
1000
0100
0000
0010
0001
,
0010
0000
0100
1000
0001
1000
0001
1000
0100
0000
0010
0001
0010
0000
0001
1000
,
0001
0000
1000
0010
0100
0010
0100
0010
1000
0000
0001
0100
0001
0000
0100
0010
,
0100
0000
0001
0100
0010
0100
0010
0100
0001
0000
0100
0010
1000
0000
0100
0010
,
0001
0000
0010
0100
1000
0100
0010
0001
1000
0000
0001
1000
0100
0000
0010
0001
,
1000
0000
0001
0010
0100
1000
0001
1000
0001
0000
1000
0001
1000
0000
0010
1000
,
0010
0000
1000
0001
0100
0010
0100
0010
0100
0000
0001
0010
0001
0000
1000
0100
,
1000
0000
0010
1000
0010
1000
0001
1000
0001
0000
1000
0001
0010
0000
0100
1000
,
0100
0000
0010
0001
1000
0001
1000
0001
0100
0000
0010
0100
0010
0000
0100
0001
,
1000
0000
0010
1000
0010
1000
0001
0010
0001
0000
1000
0100
0010
0000
0001
1000
,
0100
0000
0010
0001
1000
0001
0010
0100
1000
0000
0001
0010
0100
0000
1000
0100
,
1000
0000
1000
0010
0100
0001
0100
0001
0010
0001
0010
0001
0010
0001
0010
0001
,
0010
0001
0010
0001
0010
0001
0010
0001
1000
0010
1000
0010
1000
0010
1000
0010
,
1000
0010
1000
0010
1000
0010
1000
0010
1000
0001
0100
0010
1000
0001
0100
0010
,
1000
0001
0100
0010
1000
0001
0100
0010
1000
0000
0001
0000
0010
0000
0100
0000
,
1000
0001
0010
0100
2000
0000
0000
0000
,
0000
0000
0000
0000
0000
3000
0001
0100
0020
0000
0000
0000
0000
0000
0000
0000
,
0000
0100
0100
0031
1000
0010
0100
0001
,
0100
0010
1000
0100
0010
0001
0010
0100
,
1000
0001
0100
0010
0200
0000
0000
0302
,
0000
0000
0000
0000
2000
3000
0000
0000
0203
0300
0002
0003
2000
3000
0000
0000
,
0020
0030
0200
0000
0302
0000
0000
0000
,
2003
0000
0000
3000
0001
0010
0001
0010
0200
0000
2300
0000
3020
0000
0230
0000
,
0320
2030
3200
0320
0032
0000
1000
0000
,
1000
0000
0000
0000
1000
0003
0010
0100
0020
0000
0000
0000
0100
0000
0000
0000
,
0100
1030
0100
0001
0010
0001
0010
0100
,
0010
0001
0100
0010
1000
0100
1000
0010
,
1000
0001
0100
0010
0200
0000
0000
0302
,
0000
0000
1003
0000
0010
0100
0010
0000
,
0220
0330
0000
0000
2002
0000
3003
0000
0201
0000
0000
0000
0000
0000
0000
0000
,
0320
0000
0000
0000
0030
0000
1000
0100
2000
0000
0000
0000
0000
0000
3000
0000
,
0001
0010
0001
0100
0220
0000
0000
0000
,
0000
0000
0000
0000
,
M00M
M00M
M00M
M00M
,
M00M
M00M
M00M
M00M
M00M
M00M
M00M
M00M
M00M
M00M
M00M
0000
0331
0010
0010
0001
,
0100
0010
1000
0100
1000
0010
0010
1000
0001
0100
0010
1000
0001
0100
0100
0001
,
0010
0100
1000
0001
1000
0100
0100
1000
0001
0100
0010
1000
1000
0000
0100
0000
,
1000
1000
0001
1000
0001
1000
0001
0010
,
0010
0001
0010
0100
0010
0001
1000
0100
,
0100
0010
0001
0100
0001
0100
0100
0010
,
1000
0010
1000
0010
1000
0010
0100
0000
,
0001
1000
0000
0010
0100
0010
1000
0000
,
0001
0000
0100
0001
0000
0001
1000
0000
0010
0000
0100
0010
1000
0000
0000
0000
,
0010
0100
0000
0100
0010
0100
0100
0000
,
0001
0000
0100
0000
0000
0000
0100
0000
0001
1000
0100
1000
0001
0000
0010
0000
,
0011
0000
0000
0100
1100
0000
1000
0010
,
0110
0000
0100
0001
0000
0001
0000
1000
0010
0100
0010
1000
0001
0000
1000
0000
,
1000
0000
0000
0100
0101
0000
0001
1000
,
0100
0010
0001
1000
0010
0100
0100
0001
,
1000
0100
0000
1000
0010
1000
1000
0001
,
0100
0000
0001
1000
0000
1000
0001
0000
1000
0000
0001
0000
0001
0000
0000
0000
,
1000
0000
0001
0000
0000
0000
0001
0000
1000
0000
0001
0000
1000
0100
0010
0100
,
1000
0100
0010
0001
0010
0100
0010
0001
0010
0100
1000
0100
2000
0000
0000
0000
,
0000
0000
0000
3000
;
