#TITLE:Doomsday Zone;
#SUBTITLE:Feels The Arrow;
#ARTIST:Sonic & Knuckles;
#TITLETRANSLIT:;
#SUBTITLETRANSLIT:;
#ARTISTTRANSLIT:;
#CREDIT:Ov3rHell3XoduZ;
#BANNER:../bn.png;
#BACKGROUND:../bg.png;
#LYRICSPATH:;
#CDTITLE:;
#MUSIC:Doomsday Zone.ogg;
#OFFSET:-0.190;
#SAMPLESTART:43.825;
#SAMPLELENGTH:11.940;
#SELECTABLE:YES;
#BPMS:0.000=139.550,32.000=149.550,33.000=139.550;
#STOPS:;
#BGCHANGES:;
// cache tags:
#FIRSTBEAT:1.000;
#LASTBEAT:288.000;
#SONGFILENAME:Songs/EXoduz' Feels The Arrow/Doomsday Zone - [Ov3rHell3XoduZ]/Sonic & Knuckles- Doomsday Zone.sm;
#HASMUSIC:1;
#HASBANNER:1;
#MUSICLENGTH:124.586;
// end cache tags

//---------------dance-single - Ov3rHell3XoduZ----------------
#NOTES:
     dance-single:
     Ov3rHell3XoduZ:
     Challenge:
     13:
     1.000,1.000,0.000,1.000,1.000,1203.000,0.000,217.000,0.000,0.000:

0000
0000
0000
0000
0000
0000
0000
0000
0000
0000
0000
0000
2000
0000
0000
3000
0000
0000
0200
0000
0000
0300
0000
0000
0020
0000
0000
0000
0000
0000
0000
0000
0000
0000
0000
0000
0000
0000
0000
0000
0000
0000
0031
0000
1000
0000
0100
0000
,
1000
0010
0100
0001
0010
0100
1000
0001
0100
0001
1000
0100
0010
0001
1000
0010
1000
0010
0100
0001
0010
0100
1000
0001
,
0100
0000
0001
0000
1000
0000
0001
0000
0010
0000
0100
0000
2000
0000
0000
3000
0000
0000
0200
0000
0000
0300
0000
0000
0020
0000
0000
0000
0000
0000
0000
0000
0000
0000
0000
0000
0000
0000
0000
0000
0000
0000
0031
0000
1000
0000
0100
0000
,
1000
0010
0100
0001
0010
0001
0010
0100
1000
0010
0100
0001
1000
0100
1000
0100
0010
0001
1000
0010
0100
0001
1000
0001
,
1000
0000
0010
0000
0100
0000
0001
0000
0010
0000
0100
0000
2000
0000
0000
3100
0000
0000
0010
0000
0000
0001
0000
0000
1000
0000
0000
0010
0000
0000
0200
0000
0000
0301
0000
0000
1000
0000
0000
0100
0000
0000
1000
0000
0000
0010
0000
0000
,
0200
0301
1000
0100
0010
0001
2000
3010
0100
0001
1000
0100
0020
0031
1000
0001
,
0020
0130
1000
0001
2000
3100
0010
0001
1000
0001
0100
0001
0100
0010
1000
0100
,
0010
0001
2000
3010
0100
0001
1000
0100
1000
0010
0100
0001
0020
0230
2300
3002
,
0203
0302
2003
3020
2030
3100
0010
0001
2000
3010
0100
0001
0020
0031
0010
0100
,
2000
3010
0100
0001
2000
3100
0010
0001
2000
3010
0100
0001
0020
0130
1000
0001
,
0200
0310
2000
3100
0020
0031
1000
0001
0200
0310
1000
0100
0020
0031
1000
0001
,
0020
0130
1000
0001
0200
0310
1000
0100
0020
0031
1000
0001
2000
3010
0100
0001
,
0020
0000
0000
0130
0000
0000
2000
0000
0000
3100
0000
0000
0010
0000
0001
0000
1000
0000
0001
0000
0100
0000
0010
0000
1000
0000
0100
0000
1000
0000
0100
0000
0010
0000
0001
0000
1000
0000
0010
0000
0100
0000
0001
0000
0010
0000
0001
0000
,
0010
0000
0100
0000
1000
0000
0010
0000
0100
0000
0001
0000
1000
0000
0001
0000
1000
0000
0010
0000
0100
0000
0001
0000
0010
0000
0001
0000
0010
0000
0100
0000
1000
0000
0001
0000
0200
0000
0000
0310
0000
0000
1000
0000
0000
0100
0000
0000
,
0020
0031
2000
3001
0020
0130
1000
0010
0200
0301
1000
0100
2000
3100
1000
0010
,
0200
0301
1000
0001
0020
0130
1000
0001
2000
3100
0010
0001
2000
3010
0100
0001
,
0020
0130
2000
3001
2000
3100
0010
0001
2000
3010
0100
0001
2000
3100
0010
0001
,
2000
3010
0100
0001
0020
0130
1000
0001
2000
3100
0010
0001
2000
3010
0100
0001
,
0020
0130
2000
3100
0020
0031
0100
0001
0020
0130
1000
0001
2000
3100
0010
0001
,
2000
3010
0100
0001
0020
0130
1000
0001
2000
3100
0010
0001
2000
3010
0100
0001
,
0020
0000
0000
0130
0000
0000
2000
0000
0000
3010
0000
0000
0200
0000
0301
0000
0010
0000
0100
0000
1000
0000
0001
0000
1000
0000
0100
0000
0010
0000
0001
0000
1000
0000
0010
0000
1000
0000
0010
0000
0100
0000
0001
0000
1000
0000
0100
0000
,
1000
0001
0100
0001
0010
0100
1000
0010
1000
0010
0100
0001
0010
0100
1000
0010
0100
0001
1000
0100
1000
0100
0010
0001
,
1000
0000
0010
0000
0100
0000
0001
0000
0010
0000
0001
0000
0020
0000
0000
0130
0000
0000
1000
0000
0000
0001
0000
0000
2000
0000
0000
3100
0000
0000
0010
0000
0000
0001
0000
0000
2000
0000
0000
3010
0000
0000
0100
0000
0000
0001
0000
0000
,
2000
3100
0010
0001
2000
3010
0100
0010
0200
0301
0010
0100
2000
3100
1000
0010
,
0200
0301
0020
0130
2000
3001
0100
0001
2000
3100
0010
0100
2000
3010
1000
0010
,
2000
3100
0010
0001
0200
0301
0010
0001
0020
0130
1000
0001
2000
3100
0010
0001
,
2000
3010
0200
0301
2000
3001
0100
0001
0020
0130
1000
0001
2000
3100
1000
0100
,
0020
0031
1000
0001
2000
3010
0100
0001
0020
0130
1000
0001
0200
0301
1000
0100
,
0020
0000
0000
0031
0000
0000
2000
0000
0000
3100
0000
0000
2000
0000
3010
0000
0100
0000
0001
0000
1000
0000
0100
0000
1000
0000
0100
0000
0010
0000
0001
0000
1000
0000
0010
0000
0100
0000
0001
0000
0010
0000
0001
0000
0010
0000
0100
0000
,
1000
0010
0100
0001
1000
0100
0010
0001
1000
0010
1000
0010
0100
0001
0010
0100
1000
0001
0100
0001
0100
0010
1000
0100
,
0010
0000
0001
0000
1000
0000
0001
0000
0010
0000
0001
0000
0020
0000
0000
0130
0000
0000
1000
0000
0000
0001
0000
0000
2000
0000
0000
3100
0000
0000
0010
0000
0000
0001
0000
0000
2000
0000
0000
3010
0000
0000
1000
0000
0000
0010
0000
0000
,
0200
0301
1000
0100
0020
0031
1000
0001
2000
3010
0100
0001
0020
0130
1000
0001
,
2000
3100
0020
0031
2000
3010
1000
0010
1000
0000
0100
0010
0000
0001
1000
0001
,
1000
0010
0100
0001
0000
0010
0100
1000
0010
0000
0100
0001
0000
0010
0100
1000
,
0010
0100
0001
1000
0000
0100
0010
0001
1000
0010
1000
0010
0000
0100
0001
1000
,
0100
0000
0000
0000
0000
0000
0010
0000
0000
0001
0000
0000
0000
0000
0000
1000
0000
0000
0100
0000
0000
0010
0000
0000
0001
0000
0000
1000
0000
0000
0010
0000
0100
0000
0001
0000
1000
0000
0100
0000
0010
0000
0001
0000
1000
0000
0010
0000
,
1000
0010
0100
0001
0010
0100
1000
0001
0100
0001
0100
0010
1000
0100
0010
0001
1000
0010
1000
0010
0100
0001
0010
0100
,
1000
0000
0001
0000
0100
0000
0010
0000
1000
0000
0100
0000
0010
0000
0001
0000
1000
0000
0001
0000
1000
0000
0010
0000
0100
0000
0001
0000
0010
0000
0100
0000
1000
0000
0001
0000
2000
0000
0000
3100
0000
0000
0010
0000
0000
0001
0000
0000
,
2000
3010
0100
0001
2000
3100
0010
0100
2000
3010
0100
0010
2000
3100
0010
0001
,
2000
3001
0100
0001
0200
0310
1000
0100
0020
0031
2000
3100
2000
3100
0010
0001
,
2000
3010
0100
0010
2000
3100
0010
0001
0020
0031
1000
0010
0200
0301
1000
0001
,
2000
0000
0000
3100
0000
0000
0010
0000
0000
0001
0000
0000
2000
0000
0000
3010
0000
0000
0100
0000
0000
0010
0000
0000
2000
0000
0000
3100
0000
0000
0020
0000
0000
0031
0000
0000
2000
0000
3100
0000
0010
0000
0001
0000
1000
0000
0010
0000
,
1000
0010
0100
0001
0010
0100
1000
0001
0100
0001
0100
0010
1000
0100
0010
0001
1000
0001
0010
0001
1000
0100
0010
0001
,
1000
0000
0010
0000
1000
0000
0010
0000
0100
0000
0001
0000
2000
0000
0000
3100
0000
0000
0010
0000
0000
0001
0000
0000
0020
0000
0000
0130
0000
0000
2000
0000
0000
3010
0000
0000
0200
0000
0000
0301
0000
0000
1000
0000
0000
0100
0000
0000
,
2000
3010
1000
0100
0020
0031
1000
0001
0200
0301
0010
0100
2000
3010
1000
0010
,
0200
0301
1000
0100
0020
0031
1000
0001
0020
0130
2000
3010
0200
0301
1000
0100
,
0020
0031
1000
0001
2000
3010
0100
0010
2000
3100
1000
0100
0020
0031
1000
0001
,
2000
3010
0100
0010
2000
3100
0010
0001
2000
3010
0200
0301
0020
0130
1000
0001
,
2000
3100
0010
0001
2000
3010
1000
0010
0200
0301
1000
0100
0020
0130
1000
0010
,
0200
0000
0000
0301
0000
0000
0100
0000
0000
0001
0000
0000
2000
0000
0000
3100
0000
0000
0010
0000
0000
0001
0000
0000
2000
0000
0000
3010
0000
0000
0200
0000
0000
0301
0000
0000
0020
0000
0130
0000
1000
0000
0010
0000
1000
0000
0010
0000
,
0100
0001
1000
0100
0010
0001
1000
0010
0100
0001
1000
0001
1000
0010
0100
0001
0010
0001
0010
0100
1000
0010
0100
0001
,
1000
0000
0100
0000
1000
0000
0100
0000
0010
0000
0001
0000
1000
0000
0010
0000
0100
0000
0001
0000
1000
0000
0001
0000
1000
0000
0010
0000
0100
0000
0001
0000
0010
0000
0100
0000
2000
0000
0000
3010
0000
0000
0100
0000
0000
0001
0000
0000
,
2000
3100
1000
0100
0020
0031
1000
0010
0200
0301
1000
0001
2000
3100
0010
0100
,
2000
3010
0100
0010
2000
3100
0010
0100
0020
0031
2000
3100
2000
3010
0100
0001
,
2000
3100
1000
0010
2000
3001
0100
0001
2000
3100
1000
0010
0200
0301
0100
0001
,
0020
0130
1000
0001
2000
3100
1000
0100
0020
0031
2000
3010
2000
3010
0100
0001
,
2000
3100
1000
0010
0200
0301
0010
0001
0020
0130
1000
0001
2000
3100
0010
0001
,
2000
0000
0000
3010
0000
0000
0100
0000
0000
0001
0000
0000
2000
0000
0000
3100
0000
0000
2000
0000
0000
3010
0000
0000
0200
0000
0000
0301
0000
0000
0020
0000
0000
0130
0000
0000
2000
0000
3100
0000
0010
0000
0001
0000
1000
0000
0010
0000
,
1000
0010
0100
0001
0010
0100
1000
0001
0100
0010
1000
0100
0010
0001
1000
0010
0100
0001
0010
0100
0010
0001
1000
0010
,
0100
0000
0001
0000
1000
0000
0100
0000
0010
0000
0001
0000
1000
0000
0010
0000
0100
0000
0001
0000
0010
0000
0100
0000
1000
0000
0010
0000
0100
0000
0001
0000
1000
0000
0100
0000
0020
0000
0000
0031
0000
0000
1000
0000
0000
0001
0000
0000
,
2000
3100
0010
0100
2000
3010
0100
0010
2000
3100
0010
0001
2000
3010
1000
0010
,
0200
0301
0010
0001
0020
0130
1000
0001
2000
3010
0200
0301
2000
3010
1000
0010
,
1000
0000
0100
0010
0000
0001
1000
0001
1000
0010
0100
0001
0000
0010
0100
1000
,
0010
0000
0100
0001
0000
0010
0100
1000
0010
0100
0001
1000
0000
0100
0010
0001
,
1000
0010
1000
0010
0000
0100
0001
1000
0100
0000
0010
0001
0000
1000
0100
0010
,
0001
0000
0000
1000
0000
0000
0010
0000
0100
0000
0001
0000
1000
0000
0100
0000
1000
0000
0100
0000
0010
0000
0001
0000
1000
0000
0010
0000
0100
0000
0001
0000
1000
0000
0001
0000
1000
0000
0010
0000
0100
0000
0001
0000
0010
0000
0100
0000
,
1000
0010
0100
0001
1000
0100
1000
0100
0010
0001
1000
0010
0100
0001
0010
0001
0010
0100
1000
0010
0100
0001
1000
0100
,
0010
0100
1000
0010
0100
0001
2000
0000
0000
0000
0000
0000
3200
0000
0000
0000
0000
0000
0320
0000
0000
0000
0000
0000
,
0032
2003
3020
0230
,
0302
2003
3002
0000
0023
0000
0230
0000
,
2300
3002
2003
3200
,
0320
0032
2003
0000
0000
0000
0000
0000
,
3000
0000
0000
0000
;
