#TITLE:Last Testament;
#SUBTITLE:;
#ARTIST:Archi;
#TITLETRANSLIT:;
#SUBTITLETRANSLIT:;
#ARTISTTRANSLIT:;
#CREDIT:;
#BANNER:lasttestamentbn.png;
#BACKGROUND:lasttestamentbg.png;
#LYRICSPATH:;
#CDTITLE:;
#MUSIC:lasttestament.ogg;
#OFFSET:-0.031;
#SAMPLESTART:274.298;
#SAMPLELENGTH:12.540;
#SELECTABLE:YES;
#BPMS:0.000=210.000;
#STOPS:;
#BGCHANGES:;
// cache tags:
#FIRSTBEAT:16.000;
#LASTBEAT:1078.000;
#SONGFILENAME:Songs/Index Tournament 1/Last Testament/lasttestament.sm;
#HASMUSIC:1;
#HASBANNER:1;
#MUSICLENGTH:308.715;
// end cache tags

//---------------dance-single - I. Pyles----------------
#NOTES:
     dance-single:
     I. Pyles:
     Challenge:
     18:
     1.000,1.000,0.110,0.211,1.000,3827.000,34.000,65.000,0.000,0.000:

0000
0000
0000
0000
,
0000
0000
0000
0000
,
0000
0000
0000
0000
,
0000
0000
0000
0000
,
1000
0100
1000
0001
0010
0100
0010
0001
1000
0010
1000
0001
0010
0100
1000
0001
,
1000
0100
1000
0001
0010
0100
0010
0001
1000
0010
1000
0001
0100
0010
1000
0001
,
1000
0010
1000
0001
0100
0010
0100
0001
1000
0100
1000
0001
0100
0010
1000
0001
,
1000
0010
1000
0001
0100
0010
0100
0001
1000
0100
1000
0001
0010
0100
1000
0001
,
1000
0100
1000
0001
0010
0100
0010
0001
1000
0010
1000
0001
0010
0100
1000
0001
,
1000
0100
1000
0001
0010
0100
0010
0001
1000
0010
1000
0001
0100
0010
1000
0001
,
1000
0010
1000
0001
0100
0010
0100
0001
1000
0100
1000
0001
0100
0010
1000
0001
,
1000
0010
1000
0001
0100
0010
0100
0001
1000
0100
1000
0001
0010
0100
1000
0001
,
1000
0001
0010
0100
0010
0001
0100
0001
1000
0001
0010
0100
0010
0001
0100
0001
,
1000
0001
0010
0100
0010
0001
0100
0001
1000
0001
0010
0001
1000
0010
1000
0001
,
0100
0010
0100
0001
1000
0100
0010
0001
0100
0010
0100
0001
1000
0100
0010
0001
,
0100
0010
0100
0001
1000
0100
0010
0001
0100
0010
1000
0010
0100
0001
1000
0100
,
1000
0001
0010
0100
1000
0001
0100
0001
1000
0001
0010
0100
1000
0001
0100
0001
,
1000
0001
0010
0100
1000
0001
0100
0001
1000
0001
0100
0010
1000
0001
0010
0001
,
1000
0001
0100
0010
0100
0001
0010
0001
1000
0001
0100
0010
0100
0001
0010
0001
,
1000
0001
0100
0010
0100
0001
0010
0001
1000
0001
0100
0001
1000
0100
1000
0001
,
0010
0100
0010
0001
1000
0010
0100
0001
0010
0100
0010
0001
1000
0010
0100
0001
,
0010
0100
0010
0001
1000
0010
0100
0001
0010
0100
1000
0100
0010
0001
1000
0010
,
1000
0001
0100
0010
1000
0001
0010
0001
1000
0001
0100
0010
1000
0001
0010
0001
,
1000
0001
0100
0010
1000
0001
0010
0001
1000
0001
0010
0100
1000
0001
0100
0001
,
1000
0001
0010
0100
0010
0001
0100
0001
1000
0001
0010
0100
0010
0001
0100
0001
,
1000
0001
0010
0100
0010
0001
0100
0001
1000
0001
0010
0001
1000
0010
1000
0001
,
0100
0010
0100
0001
1000
0100
0010
0001
0100
0010
0100
0001
1000
0100
0010
0001
,
0100
0010
0100
0001
1000
0100
0010
0001
0100
0010
1000
0010
0100
0001
1000
0100
,
1000
0001
0010
0100
1000
0001
0100
0001
1000
0001
0010
0100
1000
0001
0100
0001
,
1000
0001
0010
0100
1000
0001
0100
0001
1000
0001
0100
0010
1000
0001
0010
0001
,
1000
0001
0100
0010
0100
0001
0010
0001
1000
0001
0100
0010
0100
0001
0010
0001
,
1000
0001
0100
0010
0100
0001
0010
0001
1000
0001
0100
0001
1000
0100
1000
0001
,
0010
0100
0010
0001
1000
0010
0100
0001
0010
0100
0010
0001
1000
0010
0100
0001
,
0010
0100
0010
0001
1000
0010
0100
0001
0010
0100
1000
0100
0010
0001
1000
0010
,
1000
0001
0100
0010
1000
0001
0010
0001
1000
0001
0100
0010
1000
0001
0010
0001
,
1000
0001
0100
0010
1000
0001
0010
0001
1000
0001
0010
0100
1000
0001
0100
0001
,
1000
0001
0010
0100
0010
0001
0100
0001
1000
0001
0010
0100
0010
0001
0100
0001
,
1000
0001
0010
0100
0010
0001
0100
0001
1000
0001
0010
0001
1000
0010
1000
0001
,
0100
0010
0100
0001
1000
0100
0010
0001
0100
0010
0100
0001
1000
0100
0010
0001
,
0100
0010
0100
0001
1000
0100
0010
0001
0100
0010
1000
0010
0100
0001
1000
0100
,
1000
0001
0010
0100
1000
0001
0100
0001
1000
0001
0010
0100
1000
0001
0100
0001
,
1000
0001
0010
0100
1000
0001
0100
0001
1000
0001
0100
0010
1000
0001
0010
0001
,
1000
0001
0100
0010
0100
0001
0010
0001
1000
0001
0100
0010
0100
0001
0010
0001
,
1000
0001
0100
0010
0100
0001
0010
0001
1000
0001
0100
0001
1000
0100
1000
0001
,
0010
0100
0010
0001
1000
0010
0100
0001
0010
0100
0010
0001
1000
0010
0100
0001
,
0010
0100
0010
0001
1000
0010
0100
0001
0010
0100
1000
0100
0010
0001
1000
0010
,
1000
0001
0100
0010
1000
0001
0010
0001
1000
0001
0100
0010
1000
0001
0010
0001
,
1000
0001
0100
0010
1000
0001
0010
0001
1000
0001
0010
0100
1000
0001
0100
0001
,
1000
0001
0010
0100
0010
0001
0100
0001
1000
0001
0010
0100
0010
0001
0100
0001
,
1000
0001
0010
0100
0010
0001
0100
0001
1000
0001
0010
0001
1000
0010
1000
0001
,
0100
0010
0100
0001
1000
0100
0010
0001
0100
0010
0100
0001
1000
0100
0010
0001
,
0100
0010
0100
0001
1000
0100
0010
0001
0100
0010
1000
0010
0100
0001
1000
0100
,
1000
0001
0100
0000
0001
0000
1000
0000
1001
0000
0001
0000
0100
0000
0010
0000
,
1000
0001
0100
0000
0001
0000
1000
0000
1001
0000
0001
0000
0010
0000
0100
0000
,
1000
0001
1000
0000
0010
0000
0100
0000
0101
0000
0001
0000
0100
0000
0010
0000
,
1000
0001
1000
0000
0010
0000
0100
0000
0101
0000
0001
0000
1000
0000
0100
0000
,
1000
0001
0010
0000
0100
0000
1000
0000
1001
0000
0001
0000
0100
0000
0010
0000
,
1000
0001
0010
0000
0100
0000
1000
0000
1001
0000
0001
0000
0010
0000
0100
0000
,
1000
0010
1000
0000
0001
0000
0100
0000
0110
0000
0010
0000
1000
0000
0001
0000
,
1000
0010
1000
0000
0001
0000
0100
0000
0110
0000
0010
0000
1000
0000
0001
0000
,
0200
0302
0023
0230
2300
3020
0230
0302
,
0023
0230
2300
3020
0230
0302
0023
0032
,
0203
0320
2030
3200
0320
0032
0203
0320
,
2030
3200
0320
0032
0203
0302
0023
0032
,
0203
0320
2030
3200
0320
0032
0203
0320
,
2030
3200
0320
0032
0203
0320
2030
3200
,
2300
3020
0230
0302
0023
0230
2300
3020
,
0230
0302
0023
0230
2300
3020
2030
3200
,
1300
0001
1000
0001
1000
0000
0100
0000
0110
0000
0100
0000
1000
0000
0001
0000
,
1000
0001
1000
0001
1000
0000
0100
0000
0110
0000
0100
0000
1000
0000
0010
0000
,
0100
0001
0100
0001
0100
0000
0010
0000
1010
0000
0010
0000
1000
0000
0010
0000
,
0100
0001
0100
0001
0100
0000
0010
0000
1010
0000
0010
0000
1000
0000
0100
0000
,
0010
0001
0010
0001
0010
0000
0100
0000
1100
0000
0100
0000
0010
0000
0100
0000
,
0010
0001
0010
0001
0010
0000
0100
0000
1100
0000
0100
0000
0010
0000
0001
0000
,
1000
0010
1000
0010
1000
0000
0001
0000
1001
0000
0001
0000
0100
0000
0001
0000
,
1000
0010
1000
0010
1000
0000
0001
0000
1001
0000
0001
0000
0010
0000
0100
0000
,
1000
0010
0100
0001
1000
0100
0010
0001
0100
0010
0100
0001
1000
0100
0010
0001
,
0100
0010
0100
0001
1000
0100
0010
0001
0100
0010
1000
0010
0100
0001
1000
0100
,
1000
0001
0010
0100
1000
0001
0100
0001
1000
0001
0010
0100
1000
0001
0100
0001
,
1000
0001
0010
0100
1000
0001
0100
0001
1000
0001
0100
0010
1000
0001
0010
0001
,
1000
0001
0100
0010
0100
0001
0010
0001
1000
0001
0100
0010
0100
0001
0010
0001
,
1000
0001
0100
0010
0100
0001
0010
0001
1000
0001
0100
0001
1000
0100
1000
0001
,
0010
0100
0010
0001
1000
0010
0100
0001
0010
0100
0010
0001
1000
0010
0100
0001
,
0010
0100
0010
0001
1000
0010
0100
0001
0010
0100
1000
0100
0010
0001
1000
0010
,
1000
0001
0100
0010
1000
0001
0010
0001
1000
0001
0100
0010
1000
0001
0010
0001
,
1000
0001
0100
0010
1000
0001
0010
0001
1000
0001
0010
0100
1000
0001
0100
0001
,
1000
0001
0010
0100
0010
0001
0100
0001
1000
0001
0010
0100
0010
0001
0100
0001
,
1000
0001
0010
0100
0010
0001
0100
0001
1000
0001
0010
0001
1000
0010
1000
0001
,
0100
0010
0100
0001
1000
0100
0010
0001
0100
0010
0100
0001
1000
0100
0010
0001
,
0100
0010
0100
0001
1000
0100
0010
0001
0100
0010
1000
0010
0100
0001
1000
0100
,
1000
0001
0010
0100
1000
0001
0100
0001
1000
0001
0010
0100
1000
0001
0100
0001
,
1000
0001
0010
0100
1000
0001
0100
0001
1000
0001
0100
0010
1000
0001
0010
0001
,
1000
0001
0100
0010
0100
0001
0010
0001
1000
0001
0100
0010
0100
0001
0010
0001
,
1000
0001
0100
0010
0100
0001
0010
0001
1000
0001
0100
0001
1000
0100
1000
0001
,
0010
0100
0010
0001
1000
0010
0100
0001
0010
0100
0010
0001
1000
0010
0100
0001
,
0010
0100
0010
0001
1000
0010
0100
0001
0010
0100
1000
0100
0010
0001
1000
0010
,
1000
0001
0100
0010
1000
0001
0010
0001
1000
0001
0100
0010
1000
0001
0010
0001
,
1000
0001
0100
0010
1000
0001
0010
0001
1000
0001
0010
0100
1000
0001
0100
0001
,
1000
0001
0010
0100
0010
0001
0100
0001
1000
0001
0010
0100
0010
0001
0100
0001
,
1000
0001
0010
0100
0010
0001
0100
0001
1000
0001
0010
0001
1000
0010
1000
0001
,
0100
0010
0100
0001
1000
0100
0010
0001
0100
0010
0100
0001
1000
0100
0010
0001
,
0100
0010
0100
0001
1000
0100
0010
0001
0100
0010
1000
0010
0100
0001
1000
0100
,
1000
0001
0010
0100
1000
0001
0100
0001
1000
0001
0010
0100
1000
0001
0100
0001
,
1000
0001
0010
0100
1000
0001
0100
0001
1000
0001
0100
0010
1000
0001
0010
0001
,
1000
0001
0100
0010
0100
0001
0010
0001
1000
0001
0100
0010
0100
0001
0010
0001
,
1000
0001
0100
0010
0100
0001
0010
0001
1000
0001
0100
0001
1000
0100
1000
0001
,
0010
0100
0010
0001
1000
0010
0100
0001
0010
0100
0010
0001
1000
0010
0100
0001
,
0010
0100
0010
0001
1000
0010
0100
0001
0010
0100
1000
0100
0010
0001
1000
0010
,
1000
0001
0100
0010
1000
0001
0010
0001
1000
0001
0100
0010
1000
0001
0010
0001
,
1000
0001
0100
0010
1000
0001
0010
0001
1000
0001
0010
0100
1000
0001
0100
0001
,
1000
0001
0010
0100
0010
0001
0100
0001
1000
0001
0010
0100
0010
0001
0100
0001
,
1000
0001
0010
0100
0010
0001
0100
0001
1000
0001
0010
0001
1000
0010
1000
0001
,
0100
0010
0100
0001
1000
0100
0010
0001
0100
0010
0100
0001
1000
0100
0010
0001
,
0100
0010
0100
0001
1000
0100
0010
0001
0100
0010
1000
0010
0100
0001
1000
0100
,
1000
0001
0010
0100
1000
0001
0100
0001
1000
0001
0010
0100
1000
0001
0100
0001
,
1000
0001
0010
0100
1000
0001
0100
0001
1000
0001
0100
0010
1000
0001
0010
0001
,
1000
0100
1000
0001
0010
0100
0010
0001
1000
0010
1000
0001
0010
0100
1000
0001
,
1000
0100
1000
0001
0010
0100
0010
0001
1000
0010
1000
0001
0100
0010
1000
0001
,
1000
0010
1000
0001
0100
0010
0100
0001
1000
0100
1000
0001
0100
0010
1000
0001
,
1000
0010
1000
0001
0100
0010
0100
0001
1000
0100
1000
0001
0010
0100
1000
0001
,
1000
0100
1000
0001
0010
0100
0010
0001
1000
0010
1000
0001
0010
0100
1000
0001
,
1000
0100
1000
0001
0010
0100
0010
0001
1000
0010
1000
0001
0100
0010
1000
0001
,
1000
0010
1000
0001
0100
0010
0100
0001
1000
0100
1000
0001
0100
0010
1000
0001
,
1000
0010
1000
0001
0100
0010
0100
0001
1000
0100
1000
0001
0010
0100
1000
0001
,
1000
0100
1000
0000
0001
0000
0010
0000
0110
0000
0010
0000
0001
0000
1000
0000
,
0001
0100
0010
1000
0001
0010
0100
0010
,
0001
0100
0010
1000
0100
0010
0001
0100
,
0010
1000
0100
0010
0001
0100
0010
0100
,
0001
0100
0001
0000
1000
0000
0010
0000
0110
0000
0010
0000
1000
0000
0001
0000
,
1000
0010
0100
0001
1000
0100
0010
0100
,
1000
0010
0100
0001
0010
0100
1000
0010
,
0100
0001
0010
0100
1000
0010
0100
0010
,
1000
0100
1000
0000
0001
0000
0010
0000
0110
0000
0010
0000
0001
0000
1000
0000
,
0001
0100
0010
1000
0001
0010
0100
0010
,
0001
0100
0001
0000
1000
0000
0010
0000
0110
0000
0010
0000
1000
0000
0001
0000
,
1000
0100
0010
0001
1000
0010
0100
0010
,
1000
0100
1000
0000
0001
0000
0010
0000
0110
0000
0010
0000
0001
0000
1000
0000
,
0001
0100
0010
1000
0001
0010
0100
0010
,
0001
0100
0001
0000
1000
0000
0010
0000
0110
0000
0010
0000
1000
0000
0001
0000
,
1000
0010
0100
0001
1000
0100
0010
0100
,
1000
0010
1000
0010
1000
0000
0001
0000
0101
0000
0001
0000
0100
0000
0010
0000
,
1000
0010
1000
0010
1000
0000
0001
0000
0101
0000
0001
0000
0100
0000
0010
0000
,
1000
0100
0010
0001
0100
0010
1000
0100
,
0010
0001
0100
0010
1000
0100
0010
0100
,
1000
0100
1000
0100
1000
0000
0001
0000
0011
0000
0001
0000
0010
0000
0100
0000
,
1000
0100
1000
0100
1000
0000
0001
0000
0011
0000
0001
0000
0010
0000
0100
0000
,
1000
0010
0100
0001
0010
0100
1000
0010
,
0100
0001
0010
0100
1000
0010
0100
0010
,
1000
0010
1000
0010
1000
0000
0001
0000
0101
0000
0001
0000
0100
0000
0010
0000
,
1000
0010
1000
0010
1000
0000
0001
0000
0101
0000
0001
0000
0100
0000
0010
0000
,
1000
0001
1000
0000
0001
0000
0010
0000
0110
0000
0010
0000
0001
0000
1000
0000
,
0001
1000
0001
0000
1000
0000
0010
0000
0110
0000
0010
0000
1000
0000
0001
0000
,
1000
0100
1000
0100
1000
0000
0001
0000
0011
0000
0001
0000
0010
0000
0100
0000
,
1000
0100
1000
0100
1000
0000
0001
0000
0011
0000
0001
0000
0010
0000
0100
0000
,
1000
0001
1000
0000
0001
0000
0100
0000
0110
0000
0100
0000
0001
0000
1000
0000
,
0001
1000
0001
0000
1000
0000
0100
0000
0110
0000
0100
0000
1000
0000
0001
0000
,
1000
0100
0010
0001
1000
0100
1000
0100
0010
0001
0010
0100
1000
0010
0100
0001
,
1000
0010
1000
0010
0100
0001
0100
0010
1000
0100
0010
0001
1000
0100
1000
0001
,
1000
0010
0100
0001
1000
0010
1000
0010
0100
0001
0100
0010
1000
0100
0010
0001
,
1000
0100
1000
0100
0010
0001
0010
0100
1000
0010
0100
0001
1000
0010
1000
0001
,
1000
0100
0010
0001
1000
0100
1000
0100
0010
0001
0010
0001
1000
0100
0010
0001
,
1000
0100
1000
0100
0010
0001
0010
0100
1000
0010
0100
0001
1000
0010
1000
0001
,
1000
0100
0010
0001
1000
0100
1000
0100
0010
0001
0010
0001
1000
0100
0010
0001
,
1000
0100
1000
0100
0010
0001
0010
0001
1000
0100
0010
0001
1000
0100
1000
0001
,
1000
0010
0100
0001
1000
0010
1000
0010
0100
0001
0100
0010
1000
0100
0010
0001
,
1000
0100
1000
0100
0010
0001
0010
0100
1000
0010
0100
0001
1000
0010
1000
0001
,
1000
0100
0010
0001
1000
0100
1000
0100
0010
0001
0010
0100
1000
0010
0100
0001
,
1000
0010
1000
0010
0100
0001
0100
0010
1000
0100
0010
0001
1000
0100
1000
0001
,
1000
0010
0100
0001
1000
0010
1000
0010
0100
0001
0100
0001
1000
0010
0100
0001
,
1000
0010
1000
0010
0100
0001
0100
0010
1000
0100
0010
0001
1000
0100
1000
0001
,
1000
0010
0100
0001
1000
0010
1000
0010
0100
0001
0100
0001
1000
0010
0100
0001
,
1000
0010
1000
0010
0100
0001
0100
0001
1000
0010
0100
0001
1000
0010
1000
0001
,
1000
0100
1000
0100
0010
0001
0010
0001
1000
0010
1000
0010
0100
0001
0100
0001
,
1000
0100
1000
0100
0010
0001
0010
0001
1000
0100
1000
0001
0010
0100
0010
0001
,
1000
0010
1000
0010
0100
0001
0100
0001
1000
0010
1000
0001
0100
0010
0100
0001
,
1000
0010
1000
0010
0100
0001
0100
0001
1000
0010
1000
0001
0100
0010
0100
0001
,
1000
0010
1000
0010
0100
0001
0100
0001
1000
0100
1000
0100
0010
0001
0010
0001
,
1000
0010
1000
0010
0100
0001
0100
0001
1000
0100
1000
0001
0010
0100
0010
0001
,
1000
0010
1000
0010
0100
0001
0100
0001
1000
0010
1000
0001
0100
0010
0100
0001
,
1000
0010
1000
0010
0100
0001
0100
0001
1000
0010
1000
0001
0100
0010
0100
0001
,
1000
0100
1000
0100
0010
0001
0010
0001
1000
0010
1000
0010
0100
0001
0100
0001
,
1000
0100
1000
0100
0010
0001
0010
0001
1000
0100
1000
0001
0010
0100
0010
0001
,
1000
0010
1000
0010
0100
0001
0100
0001
1000
0010
1000
0001
0100
0010
0100
0001
,
1000
0010
1000
0010
0100
0001
0100
0001
1000
0010
1000
0001
0100
0010
0100
0001
,
1000
0010
1000
0010
0100
0001
0100
0001
1000
0100
1000
0100
0010
0001
0010
0001
,
1000
0010
1000
0010
0100
0001
0100
0001
1000
0100
1000
0001
0010
0100
0010
0001
,
1000
0010
1000
0010
0100
0001
0100
0001
1000
0010
1000
0001
0100
0010
0100
0001
,
1000
0010
1000
0010
0100
0001
0100
0001
1000
0010
1000
0001
0100
0010
0100
0001
,
1000
0010
1000
0010
0100
0001
0100
0001
1000
0100
1000
0100
0010
0001
0010
0001
,
1000
0010
1000
0010
0100
0001
0100
0001
1000
0010
1000
0001
0100
0010
0100
0001
,
1000
0100
1000
0100
0010
0001
0010
0001
1000
0100
1000
0001
0010
0100
0010
0001
,
1000
0100
1000
0100
0010
0001
0010
0001
1000
0100
1000
0001
0010
0100
0010
0001
,
1000
0010
1000
0010
0100
0001
0100
0001
1000
0100
1000
0100
0010
0001
0010
0001
,
1000
0010
1000
0010
0100
0001
0100
0001
1000
0100
1000
0001
0010
0100
0010
0001
,
1000
0010
1000
0010
0100
0001
0100
0001
1000
0010
1000
0001
0100
0010
0100
0001
,
1000
0010
1000
0010
0100
0001
0100
0001
1000
0010
1000
0001
0100
0010
0100
0001
,
1000
0010
1000
0010
0100
0001
0100
0001
1000
0100
1000
0100
0010
0001
0010
0001
,
1000
0010
1000
0010
0100
0001
0100
0001
1000
0010
1000
0001
0100
0010
0100
0001
,
1000
0100
1000
0100
0010
0001
0010
0001
1000
0100
1000
0001
0010
0100
0010
0001
,
1000
0100
1000
0100
0010
0001
0010
0001
1000
0100
1000
0001
0010
0100
0010
0001
,
1000
0010
1000
0010
0100
0001
0100
0001
1000
0100
1000
0100
0010
0001
0010
0001
,
1000
0010
1000
0010
0100
0001
0100
0001
1000
0100
1000
0001
0010
0100
0010
0001
,
1000
0010
1000
0010
0100
0001
0100
0001
1000
0010
1000
0001
0100
0010
0100
0001
,
1000
0010
1000
0010
0100
0001
0100
0001
1000
0010
1000
0001
0100
0010
0100
0001
,
1000
0010
1000
0010
0100
0001
0100
0001
1000
0100
1000
0100
0010
0001
0010
0001
,
1000
0010
1000
0010
0100
0001
0100
0001
1000
0010
1000
0001
0100
0010
0100
0001
,
1000
0100
1000
0100
0010
0001
0010
0001
1000
0100
1000
0001
0010
0100
0010
0001
,
1000
0100
1000
0100
0010
0001
0010
0001
1000
0100
1000
0001
0010
0100
0010
0001
,
1000
0010
1000
0010
0100
0001
0100
0001
1000
0100
1000
0100
0010
0001
0010
0001
,
1000
0010
1000
0010
0100
0001
0100
0001
1000
0100
1000
0001
0010
0100
0010
0001
,
1000
0010
1000
0010
0100
0001
0100
0001
1000
0010
1000
0001
0100
0010
0100
0001
,
1000
0010
1000
0010
0100
0001
0100
0001
1000
0010
1000
0001
0100
0010
0100
0001
,
1000
0010
1000
0010
0100
0001
0100
0001
1000
0100
1000
0100
0010
0001
0010
0001
,
1000
0010
1000
0010
0100
0001
0100
0001
1000
0010
1000
0001
0100
0010
0100
0001
,
1000
0100
1000
0100
0010
0001
0010
0001
1000
0100
1000
0001
0010
0100
0010
0001
,
1000
0100
1000
0100
0010
0001
0010
0001
1000
0100
1000
0001
0010
0100
0010
0001
,
1000
0010
1000
0010
0100
0001
0100
0001
1000
0100
1000
0100
0010
0001
0010
0001
,
1000
0010
1000
0010
0100
0001
0100
0001
1000
0100
1000
0001
0010
0100
0010
0001
,
1000
0010
1000
0010
0100
0001
0100
0001
1000
0010
1000
0001
0100
0010
0100
0001
,
1000
0010
1000
0010
0100
0001
0100
0001
1000
0010
1000
0001
0100
0010
0100
0001
,
1000
0010
1000
0010
0100
0001
0100
0001
1000
0100
1000
0100
0010
0001
0010
0001
,
1000
0010
1000
0010
0100
0001
0100
0001
1000
0010
1000
0001
0100
0010
0100
0001
,
1000
0100
1000
0100
0010
0001
0010
0001
1000
0100
1000
0001
0010
0100
0010
0001
,
1000
0100
1000
0100
0010
0001
0010
0001
1000
0100
1000
0001
0010
0100
0010
0001
,
1000
0010
1000
0010
0100
0001
0100
0001
1000
0100
1000
0100
0010
0001
0010
0001
,
1000
0010
1000
0010
0100
0001
0100
0001
1000
0100
1000
0001
0010
0100
0010
0001
,
1000
0010
1000
0010
0100
0001
0100
0001
1000
0010
1000
0001
0100
0010
0100
0001
,
1000
0010
1000
0010
0100
0001
0100
0001
1000
0010
1000
0001
0100
0010
0100
0001
,
1000
0010
1000
0010
0100
0001
0100
0001
1000
0100
1000
0100
0010
0001
0010
0001
,
1000
0010
1000
0010
0100
0001
0100
0001
1000
0010
1000
0001
0100
0010
0100
0001
,
1000
0100
1000
0100
0010
0001
0010
0001
1000
0100
1000
0001
0010
0100
0010
0001
,
1000
0100
1000
0100
0010
0001
0010
0001
1000
0100
1000
0001
0010
0100
0010
0001
,
1000
0010
1000
0010
0100
0001
0100
0001
1000
0100
1000
0100
0010
0001
0010
0001
,
1000
0010
1000
0010
0100
0001
0100
0001
1000
0100
1000
0001
0010
0100
0010
0001
,
1000
0010
1000
0010
0100
0001
0100
0001
1000
0010
1000
0001
0100
0010
0100
0001
,
1000
0010
1000
0010
0100
0001
0100
0001
1000
0010
1000
0001
0100
0010
0100
0001
,
1000
0100
1000
0001
0010
0100
0010
0001
1000
0010
1000
0001
0010
0100
1000
0001
,
1000
0100
1000
0001
0010
0100
0010
0001
1000
0010
1000
0001
0100
0010
1000
0001
,
1000
0010
1000
0001
0100
0010
0100
0001
1000
0100
1000
0001
0100
0010
1000
0001
,
1000
0010
1000
0001
0100
0010
0100
0001
1000
0100
1000
0001
0010
0100
1000
0001
,
1000
0100
1000
0001
0010
0100
0010
0001
1000
0010
1000
0001
0010
0100
1000
0001
,
1000
0100
1000
0001
0010
0100
0010
0001
1000
0010
1000
0001
0100
0010
1000
0001
,
1000
0010
1000
0001
0100
0010
0100
0001
1000
0100
1000
0001
0100
0010
1000
0001
,
1000
0010
1000
0001
0100
0010
0100
0001
1000
0100
1000
0001
0010
0100
1000
0001
,
1000
0100
1000
0001
0010
0100
0010
0001
1000
0010
1000
0001
0010
0100
1000
0001
,
1000
0100
1000
0001
0010
0100
0010
0001
1000
0010
1000
0001
0100
0010
1000
0001
,
1000
0010
1000
0001
0100
0010
0100
0001
1000
0100
1000
0001
0100
0010
1000
0001
,
1000
0010
1000
0001
0100
0010
0100
0001
1000
0100
1000
0001
0010
0100
1000
0001
,
1000
0100
1000
0001
0010
0100
0010
0001
1000
0010
1000
0001
0010
0100
1000
0001
,
1000
0100
1000
0001
0010
0100
0010
0001
1000
0010
1000
0001
0100
0010
1000
0001
,
1000
0010
1000
0001
0100
0010
0100
0001
1000
0100
1000
0001
0100
0010
1000
0001
,
1000
0010
1000
0001
0100
0010
0100
0001
1000
0100
1000
0001
0010
0100
1000
0001
,
1000
0001
0010
0100
0010
0001
0100
0001
1000
0001
0010
0100
0010
0001
0100
0001
,
1000
0001
0010
0100
0010
0001
0100
0001
1000
0001
0010
0001
1000
0010
1000
0001
,
0100
0010
0100
0001
1000
0100
0010
0001
0100
0010
0100
0001
1000
0100
0010
0001
,
0100
0010
0100
0001
1000
0100
0010
0001
0100
0010
1000
0010
0100
0001
1000
0100
,
1000
0001
0010
0100
1000
0001
0100
0001
1000
0001
0010
0100
1000
0001
0100
0001
,
1000
0001
0010
0100
1000
0001
0100
0001
1000
0001
0100
0010
1000
0001
0010
0001
,
1000
0001
0100
0010
0100
0001
0010
0001
1000
0001
0100
0010
0100
0001
0010
0001
,
1000
0001
0100
0010
0100
0001
0010
0001
1000
0001
0100
0001
1000
0100
1000
0001
,
0010
0100
0010
0001
1000
0010
0100
0001
0010
0100
0010
0001
1000
0010
0100
0001
,
0010
0100
0010
0001
1000
0010
0100
0001
0010
0100
1000
0100
0010
0001
1000
0010
,
1000
0001
0100
0010
1000
0001
0010
0001
1000
0001
0100
0010
1000
0001
0010
0001
,
1000
0001
0100
0010
1000
0001
0010
0001
1000
0001
0010
0100
1000
0001
0100
0001
,
1000
0001
0010
0100
0010
0001
0100
0001
1000
0001
0010
0100
0010
0001
0100
0001
,
1000
0001
0010
0100
0010
0001
0100
0001
1000
0001
0010
0001
1000
0010
1000
0001
,
0100
0010
0100
0001
1000
0100
0010
0001
0100
0010
0100
0001
1000
0100
0010
0001
,
1000
0001
1000
0001
1000
0001
1000
0001
1000
0001
1000
0001
1000
0001
1000
0001
,
2000
0000
0000
0000
,
0000
0000
3000
0000
;
