#TITLE:AAAA;
#SUBTITLE:The Master, VaL & Ginevra;
#ARTIST:SuperGreenX;
#TITLETRANSLIT:;
#SUBTITLETRANSLIT:;
#ARTISTTRANSLIT:;
#CREDIT:Original Song;
#BANNER:banner.png;
#BACKGROUND:AAAA-bg.jpg;
#LYRICSPATH:;
#CDTITLE:!a0Title.png;
#MUSIC:AAAA.mp3;
#OFFSET:-2.425;
#SAMPLESTART:90.700;
#SAMPLELENGTH:11.920;
#SELECTABLE:YES;
#DISPLAYBPM:93.000:186.000;
#BPMS:0.000=93.000,122.000=186.000,216.000=93.000,217.000=139.500,217.750=186.000,218.875=279.000,220.375=372.000,225.000=279.000,226.125=186.000,226.875=139.500,227.375=93.000,227.625=69.750,227.750=46.500,228.000=186.000,289.000=371.999,292.000=186.000,294.000=93.000,295.000=371.998,296.000=279.000,297.000=185.999,298.000=139.499,299.000=92.999,300.000=69.749;
#STOPS:228.000=0.484
,289.500=0.160
,290.000=0.160
,290.500=0.160
,291.000=0.160
,291.500=0.160
,295.000=1.280
,300.000=0.800
,300.125=0.800
;
#BGCHANGES:;
// cache tags:
#FIRSTBEAT:0.000;
#LASTBEAT:300.125;
#SONGFILENAME:Songs/new/AAAA/AAAA.sm;
#HASMUSIC:1;
#HASBANNER:1;
#MUSICLENGTH:143.341;
// end cache tags

//---------------dance-single - AAAA----------------
#NOTES:
     dance-single:
     AAAA:
     Hard:
     13:
     0.798,0.864,0.551,0.251,0.757,685.000,79.000,36.000,0.000,13.000:
1001
0100
0010
0100
0010
0100
0000
1001
,
0000
0000
0100
0000
0010
0000
0100
0000
0010
0000
0100
0000
0010
0000
0001
0010
,
0100
1000
0100
0010
0000
1001
0000
0110
,
0100
0010
1000
0010
0000
0100
1000
0100
,
0110
0000
0100
0000
0010
0000
0100
0010
0010
0000
0100
0000
0000
0000
1000
0000
,
0000
0100
0010
0100
0001
0100
0100
0010
,
0100
0000
1000
0000
0010
0000
0001
0010
0100
0000
1000
0000
0000
0000
0100
0010
,
0100
1000
0010
0100
0100
0100
0010
1000
,
2000
0010
0100
0000
0000
0000
0010
0000
0100
0000
0010
0000
3001
0010
0100
1000
,
0100
0001
0000
0110
0100
0011
0100
1100
,
0000
0110
0010
1010
0000
0011
0100
1010
,
0000
1001
0010
1010
0000
0101
0010
1010
,
0000
0000
1001
0100
0010
0100
1010
0000
0000
0000
1100
0000
0100
0000
0011
0000
,
0000
1100
0000
1011
0000
1000
0100
0010
,
0000
0001
0010
0100
0000
1010
0100
0011
,
0000
1100
0000
0011
0000
1100
0110
0011
,
0000
0110
2100
3210
0321
0000
1000
0130
,
0000
1100
0000
0011
2000
0010
0001
0010
,
0200
0000
3000
1000
0020
0000
0300
1000
,
0000
0100
2000
0000
3230
1000
1000
1000
,
0320
0001
0200
0031
2000
0310
0000
3010
,
0000
0110
0000
1001
0200
1000
0010
1000
,
0320
1000
2030
0010
0020
0000
3200
0000
,
0000
0000
0030
1320
2000
0000
3000
1000
,
0002
0000
0000
0000
0233
0000
1000
0300
1200
0000
1000
0300
0200
0300
0000
0000
,
2000
0000
0000
0000
,
0000
0000
0000
0000
0000
0000
0000
0100
,
0000
0100
0000
0100
0000
0100
0000
0100
,
0000
0100
0000
0100
0000
0100
0000
0100
,
0000
0100
0100
0000
0000
0100
0100
0000
3020
0100
0100
0000
0000
0100
0100
0000
,
0230
0000
1000
0000
1000
0000
0000
0000
0300
0000
0000
0000
0100
0010
0001
0010
0100
0000
0000
0000
0100
0000
0000
0000
0100
0000
0000
0000
0100
0000
0000
0000
,
0010
1001
0100
1001
0010
0100
0010
0001
,
0001
1000
0100
0010
0100
0001
0100
0010
,
1000
0110
0100
1001
0010
0100
0010
0100
,
0010
1100
0110
1010
0010
0101
0101
1100
,
0010
1001
0100
0110
0100
1001
0010
0110
,
0100
1100
0010
0011
0110
0110
0100
1001
,
0001
0110
1000
1001
0010
1100
0100
0011
,
1000
0100
0010
0001
0010
0100
1000
0001
0100
0000
1000
0100
1000
0000
0010
0100
,
0001
0000
0001
1000
0100
0000
1000
0010
0100
0000
0001
0100
0010
0000
1000
0100
,
1000
0000
1000
0010
0100
0000
0001
0010
0100
0000
1000
0010
0100
0000
0001
0010
,
0100
0000
0010
0100
0001
0000
0100
0010
1000
0000
0100
1000
0001
0000
0010
0001
,
1000
0000
0010
0100
0001
0000
0100
0010
1000
0000
1000
0100
1000
0000
0100
1000
,
0100
0010
0001
0010
0100
1000
0100
0010
0100
0000
0010
0001
0010
0000
0100
1000
,
0100
0010
0000
0001
1000
0100
0010
0001
1000
0000
0010
0000
0100
0000
1000
0000
,
1000
0100
0010
0001
1000
0100
0010
0001
0010
0100
1000
0100
1000
0010
1000
0001
,
0010
0000
0001
0000
0010
0000
0100
0000
1000
0000
0000
0000
0000
0000
0000
1000
0100
0010
0000
0000
0000
0000
0000
0000
0001
0000
0000
0000
0010
0000
0000
0000
,
0100
0010
0100
0000
0100
0000
0010
0100
0000
0000
0110
0000
0000
0101
0000
0000
,
1100
0000
0000
0000
0000
0000
0110
0000
0000
0000
0000
0000
1001
0000
0000
0000
0000
1000
0100
0010
0000
0000
0000
0000
0001
0000
0000
0000
0010
0000
0000
0000
,
0100
0010
0100
0000
0010
0000
0001
0100
0000
0000
1010
0000
0000
0110
0000
0000
,
0011
0000
0000
0000
0000
0000
0110
0000
0000
0000
0000
0000
1001
0000
0000
0000
0000
0001
0010
0100
0000
0000
0000
0000
1000
0000
0000
0000
0100
0000
0000
0000
,
0010
0100
0010
0000
0010
0000
0100
0010
0000
0000
0011
0000
0000
1010
0000
0000
,
1100
0000
0000
0000
0000
0000
0101
0000
0000
0000
0000
0000
1001
0000
0000
0000
0000
1000
0010
0100
0000
0000
0000
0000
1000
0000
0000
0000
0001
0000
0000
0000
,
0010
0100
0010
0000
0100
0000
1000
0000
0001
0010
0100
1000
0100
0010
0001
0010
,
0002
0000
0000
0000
0000
0000
0000
0000
2203
0000
0000
0000
0000
0000
0320
0000
0000
0000
0000
0000
0000
0000
0000
0032
0000
0000
0000
0000
0000
0000
0000
0000
,
0000
0000
0000
0023
0000
0000
0000
0000
0000
0000
0000
0000
0000
0000
0000
0000
0000
0000
0000
0000
0000
0000
0000
0000
0000
0000
0000
0000
0000
0000
0000
0000
,
0000
0000
0000
0000
0000
0000
0000
0000
0030
0000
0000
0000
0000
0000
0000
0000
0000
0000
0000
0000
3000
0000
0000
0100
0000
0000
0010
0000
0001
0000
0010
0100
,
1000
0000
0010
0001
0010
0100
1000
0001
0010
0100
1000
0100
0010
0100
1000
0100
,
0010
0001
0010
0100
0010
0001
1000
0100
1000
0001
0010
0001
1000
0010
1000
0001
,
0100
0001
0010
0100
1000
0010
0100
0001
0010
0100
1000
0010
0100
0001
0100
0010
,
1000
0100
0010
0001
1000
0100
0010
0001
0010
0001
1000
0100
1000
0001
0100
0001
,
1000
0010
1000
0100
0010
0100
0010
0001
0010
0100
0010
0100
1000
0100
0010
0100
,
0010
0001
0010
0100
0010
0100
1000
0100
0010
0001
0100
0010
1000
0010
0100
0010
,
0100
0001
0010
0001
1000
0100
1000
0001
0100
0001
1000
0010
1000
0100
0010
0001
,
0010
0100
1000
0100
0010
0100
0010
0100
0010
0001
0010
0100
0010
0100
0010
0100
,
1000
0100
0010
0001
0100
0010
1000
0100
0010
0001
0010
0100
1000
0010
0100
0001
,
0100
0010
1000
0100
2000
0000
0000
0000
3000
0000
0000
0000
1000
0001
1000
0100
,
1000
0001
0100
0001
1000
0010
1000
0001
0010
0001
0010
0100
1000
0100
0010
0100
,
1000
0001
0010
0100
0010
0001
1000
0001
0100
0001
0010
0001
0100
0001
1000
0001
,
0010
0100
1000
0100
1000
0010
1000
0001
1000
0100
0010
0001
0100
0010
1000
0010
,
0100
0001
0100
0010
1000
0010
0100
0001
0010
0100
1000
0100
0010
0001
0100
0010
,
1000
0100
0010
0001
0010
0100
1000
0010
0100
0001
0010
0100
1000
0100
1000
0001
,
0010
0001
0010
0100
2000
0000
0100
0000
0100
0000
0100
0000
0100
0000
0100
0000
,
3100
0000
0000
0000
0000
0000
0000
0000
0000
0000
0000
0000
0000
0000
0000
0000
1000
0100
1000
0001
0010
0001
0010
0100
2002
0000
0000
0000
0000
0000
0000
0000
,
0000
0000
0000
0000
,
0000
3003
0000
0000
0000
0000
0000
0000
0000
0000
0000
0000
0000
0000
0000
0000
0000
0000
0000
0000
0000
0000
0000
0000
0000
0000
0000
0000
0000
0000
0000
0000
;

//---------------dance-single - AAAAA----------------
#NOTES:
     dance-single:
     AAAAA:
     Challenge:
     14:
     0.889,0.916,0.649,0.551,0.865,719.000,93.000,79.000,0.000,32.000:
1001
0100
0010
0100
0010
0100
0000
1001
,
0000
0000
0100
0000
0010
0000
0100
0000
0010
0010
0100
0000
0010
0000
0001
0010
,
0100
0000
1000
0000
0000
0100
0010
0000
0000
0000
1001
0000
0000
0000
0110
0000
,
0100
0000
0010
0000
1000
0100
0010
0000
0000
0010
0100
0000
1000
0000
0100
0000
,
0110
0000
0100
0000
0010
0000
0100
0010
0010
0000
0100
0000
0000
0100
1000
0000
,
0000
0000
0100
0000
0010
0000
0100
0000
0001
0010
0100
0000
0100
0000
0010
0000
,
0100
0000
1000
0000
0010
0000
0001
0010
0100
0000
1000
0000
0000
0000
0100
0010
,
0100
1000
0010
0100
0100
0100
0010
1000
,
2000
0010
0100
0000
0000
0000
0010
0000
0100
0000
0010
0000
3001
0010
0100
1000
,
0100
0001
0100
0110
0100
0011
0100
1100
,
0000
1000
0110
0000
0010
0000
1010
0000
0000
0100
0011
0000
0100
0000
1010
0000
,
0000
0100
1001
0000
0010
0000
1010
0000
0000
0010
0101
0000
0010
0000
1010
0000
,
0000
0000
1001
0100
0010
0100
1010
0000
0000
0000
1100
0000
0100
0000
0011
0000
,
0000
0010
1100
0000
0000
0100
1011
0000
0000
0000
1000
0000
0100
0000
0010
0000
,
0000
0000
0001
0100
0010
0001
0100
0000
0000
0000
1010
0000
0100
0000
0011
0000
,
0000
0011
1100
0000
0000
0110
0011
0000
0000
0000
1100
0000
0110
0000
0011
0000
,
0000
0110
2100
3210
0321
0000
1000
0130
,
0000
1100
0000
0011
2001
0010
0001
0010
,
0200
0000
3000
1000
0020
0000
0300
1000
,
1000
0100
2000
0000
3230
1000
1000
1000
,
1320
0001
0200
0031
2000
0310
0100
3010
,
0000
0110
0000
1001
0200
1000
0010
1000
,
0320
1000
2030
0010
0020
0000
3200
0000
,
0000
0000
0030
1320
2000
0000
3000
1000
,
0002
0000
0000
0000
0233
0000
1000
0300
0201
0000
1000
0300
0201
0300
0000
0000
,
2002
0000
0000
0000
,
0000
0000
0000
0000
0000
0000
0000
0203
,
0300
0200
0300
0200
0300
0200
0300
0200
,
0300
0200
0300
0200
0300
0200
0300
0200
,
0300
0100
0200
0000
0300
0100
0200
0000
3320
0100
0200
0000
0300
0100
0200
0000
,
0332
0000
1000
0000
2000
0000
0000
0000
3003
0000
0100
0000
0100
0010
0001
0010
0100
0000
0000
0000
0100
0000
0000
0000
1010
0000
0000
0000
0100
0000
0000
0000
,
0010
1001
0100
1001
0010
0100
0010
1001
,
0001
1100
0110
0011
0100
1001
0100
0110
,
1000
0110
0100
1001
0010
0100
0010
0100
,
0010
1100
0110
1010
0010
0101
0101
1100
,
0010
1001
0100
0110
0100
1001
0010
0110
,
0100
1100
0010
0011
0110
0110
0100
1001
,
0001
0110
1000
1001
0010
1100
0100
0011
,
1000
0100
0010
0001
0010
0100
1000
0100
0020
0000
0030
0000
1000
0100
0010
0000
,
0001
0010
0001
0000
1000
0100
1000
0000
0100
0010
0001
0000
0010
0100
1000
0000
,
1000
0100
1000
0000
0001
0010
0001
0000
1000
0010
1000
0000
0001
0100
0001
0000
,
1000
0100
0010
0000
0001
0010
0100
0000
1000
0010
0100
0000
0001
0100
0010
0000
,
1000
0100
0010
0000
0001
0010
0100
0000
1000
0100
1000
0100
1000
0000
0001
0010
,
0100
0010
0001
0010
0100
0010
0100
0010
0100
0000
1000
0100
1000
0000
0001
0100
,
0001
0000
0000
0010
0001
0010
0001
0000
0001
0000
0010
0000
0100
0000
1000
0000
,
0100
1000
0010
0100
0001
0010
0010
0001
0100
0010
1000
0100
1000
0100
0010
0010
,
0001
0000
0010
0000
0100
0000
1000
0000
1000
0000
0000
0000
0000
0000
0000
1000
0100
0010
0000
0000
0000
0000
0000
0000
0001
0000
0010
0000
0100
0000
0010
0000
,
0001
1000
0100
0010
0100
1000
0100
0010
0000
0000
0220
0000
0300
0232
0000
0300
,
2203
0000
0000
0000
0300
0000
3220
0000
0000
0000
0030
0000
1310
0000
0000
0000
0000
1000
0100
0010
0000
0000
0000
0000
1000
0000
0100
0000
0010
0000
0001
0000
,
0010
0100
1000
0100
0010
0001
0010
0100
0000
0000
2020
0000
0030
3220
0000
0030
,
0322
0000
0000
0000
0030
0000
0223
0000
0000
0000
0030
0000
1310
0000
0000
0000
0000
0001
0010
0100
0000
0000
0000
0000
0001
0000
0010
0000
0001
0000
1000
0000
,
0100
1000
0001
0100
0001
1000
0010
1000
0000
0000
0022
0000
0030
2023
0000
3000
,
2230
0000
0000
0000
0300
0000
3202
0000
0000
0000
0003
0000
1301
0000
0000
0000
0000
1000
0010
0100
0000
0000
0000
0000
1000
0000
0100
0000
0010
0000
0000
0000
,
0001
0100
0010
0000
1000
0100
0010
0000
0001
0010
0100
1000
0100
0010
0001
0010
,
2200
0000
0000
0000
0320
0000
0000
0000
0032
0000
0000
0000
0000
0000
0023
0000
0000
0000
0000
0000
0000
0000
0000
0032
0000
0000
0000
0000
0000
0000
0000
0000
,
0000
0000
0000
0023
0000
0000
0000
0000
0000
0000
0000
0000
0000
0000
0000
0000
0000
0000
0000
0000
0230
0000
0000
0000
0000
0000
0000
0000
0000
0000
0000
0000
,
0000
0000
0000
0000
0000
0000
0000
0000
0000
0000
0000
0000
0302
0000
0000
0000
0000
0000
0000
0000
0000
0000
0000
0000
0000
0000
0000
0000
0000
0000
0000
0000
0000
0000
0000
0000
0000
0000
0000
0000
3003
0000
0000
0000
0000
0000
1000
0000
0000
0100
0000
0000
0010
0000
0000
0000
0001
0000
0000
0000
0010
0000
0100
0000
,
1000
0000
0010
0001
0010
0100
1000
0001
0010
0100
1000
0100
0010
0100
1000
0100
,
0010
0001
0010
0100
0010
0001
1000
0100
1000
0001
0010
0001
1000
0010
1000
0001
,
0100
0001
0010
0100
1000
0010
0100
0001
0010
0100
1000
0010
0100
0001
0100
0010
,
1000
0100
0010
0001
1000
0100
0010
0001
0010
0001
1000
0100
1000
0001
0100
0001
,
1000
0010
1000
0100
0010
0100
0010
0001
0010
0100
0010
0100
1000
0100
0010
0100
,
0010
0001
0010
0100
0010
0100
1000
0100
0010
0001
0100
0010
1000
0010
0100
0010
,
0100
0001
0010
0001
1000
0100
1000
0001
0100
0001
1000
0010
1000
0100
0010
0001
,
0010
0100
1000
0100
0010
0100
0010
0100
0010
0001
0010
0100
0010
0100
0010
0100
,
1000
0100
0010
0001
0100
0010
1000
0100
0010
0001
0010
0100
1000
0010
0100
0001
,
0100
0010
1000
0100
2000
0000
0000
0000
3000
0000
0000
0000
1000
0001
1000
0100
,
1000
0001
0100
0001
1000
0010
1000
0001
0010
0001
0010
0100
1000
0100
0010
0100
,
1000
0001
0010
0100
0010
0001
1000
0001
0100
0001
0010
0001
0100
0001
1000
0001
,
0010
0100
1000
0100
1000
0010
1000
0001
1000
0100
0010
0001
0100
0010
1000
0010
,
0100
0001
0100
0010
1000
0010
0100
0001
0010
0100
1000
0100
0010
0001
0100
0010
,
1000
0100
0010
0001
0010
0100
1000
0010
0100
0001
0010
0100
1000
0100
1000
0100
,
0010
0001
0010
0100
2001
0000
0010
0000
0001
0000
0010
0000
0100
0000
0010
0000
,
3001
0000
0000
0000
0000
0000
0000
0000
0000
0000
0000
0000
0000
0000
0000
0000
1000
0100
1000
0001
0010
0001
0010
0100
2002
0000
0000
0000
0000
0000
0000
0000
,
0000
0000
0000
0000
,
0000
3003
0000
0000
0000
0000
0000
0000
0000
0000
0000
0000
0000
0000
0000
0000
0000
0000
0000
0000
0000
0000
0000
0000
0000
0000
0000
0000
0000
0000
0000
0000
;

//---------------dance-single - AAAAAA----------------
#NOTES:
     dance-single:
     AAAAAA:
     Edit:
     16:
     1.000,1.000,1.000,1.000,1.000,766.000,164.000,382.000,0.000,317.000:
2001
3210
1320
0231
1320
1230
0300
2002
,
3003
0000
0210
0000
0321
0000
1230
0000
1310
0010
0201
0000
0321
0000
1032
0010
,
1203
0000
2310
0000
3000
0100
0021
0000
0030
0000
2001
0000
3000
0000
0120
0000
,
1230
0000
0321
0000
2130
0100
3021
0000
0030
0010
0210
0000
2310
0000
3102
0000
,
0123
0000
1230
0000
0321
0000
1230
0010
0321
0000
1230
0000
0300
0100
2010
0000
,
3000
0000
1210
0000
0321
0000
1230
0000
0312
0010
1203
0000
2310
0000
3021
0000
,
1230
0000
2310
0000
3120
0000
1032
0010
0213
0000
2301
0000
3000
0000
2101
0001
,
3201
2310
3120
0231
1320
0231
1320
0231
,
2310
0010
0200
0000
0300
0000
0020
0000
0230
0000
0320
0000
3132
0010
1203
1000
,
0321
0132
2013
3120
1230
0321
0132
1203
,
0300
1000
0210
0000
1302
0000
1203
0000
0300
0100
0021
0000
0231
0000
1320
0000
,
0030
0100
2001
0000
3102
0000
1023
0000
0030
0010
0201
0000
1302
0000
1023
0000
,
0030
0000
1002
0100
1023
0100
0231
0000
0300
0000
2100
0000
3210
0000
0312
0000
,
0003
0010
1200
0000
0300
0100
1021
0000
0030
0000
2011
0000
3201
0000
1320
0000
,
0030
0000
0012
0100
1023
0001
0231
0000
0300
0000
2110
0000
3201
0000
0321
0000
,
0030
0011
1200
0000
0300
0110
0021
0000
0030
0000
2100
0000
3210
0000
0321
0000
,
0030
0120
2130
3210
0322
0003
2000
3231
,
0300
1200
0300
0021
2032
0023
0032
0023
,
0230
0000
3000
2000
3020
0000
0300
0002
,
2003
3200
2300
0000
3230
0002
2003
3002
,
0323
2000
3200
0032
2003
0320
0230
3320
,
0030
0000
1110
0000
0000
0010
1011
0000
0200
0000
2000
0000
3020
0000
2030
0000
,
3320
0002
2033
0200
0320
0000
3200
0000
,
0000
0000
0030
0322
2003
0000
0000
3200
,
0302
0000
0000
0000
0233
0000
2000
0300
3202
0000
2003
0300
3220
0300
0030
0000
,
2002
0000
0000
0000
,
0000
0000
0000
0000
0000
0000
0000
0200
,
0300
0200
0300
0200
0300
0200
0300
0200
,
0300
0000
0200
0000
0300
0000
0200
0000
0300
0000
0200
0000
0300
0020
0230
0000
,
0300
0020
0230
0000
0300
0020
0230
0000
3323
2000
3200
0000
0300
2000
3200
0000
,
0332
0000
0200
0000
2300
0000
0000
0000
3003
0000
0100
0000
0100
0010
0001
0010
0200
0000
0010
0000
0002
0000
0000
0000
2300
0000
0010
0000
0203
0000
0000
0000
,
3020
0001
2300
0000
0230
0010
3002
0000
0320
1000
0230
0000
0023
0001
2300
0000
,
3232
0010
2300
0000
0203
0010
3322
0000
0203
1000
0032
0000
2003
0001
3020
0000
,
2030
0001
0320
0000
3200
0001
2030
0000
0320
0001
3200
0000
0032
0010
2000
0000
,
3023
0001
2300
0000
3200
0001
2030
0000
3020
0001
2300
0000
0032
0010
3200
0000
,
0023
1000
0302
0000
2030
0100
0023
0000
3200
1000
0032
0000
2300
0100
0023
0000
,
3002
1000
0230
0000
2003
0010
3002
0000
2300
0100
0023
0000
3200
0001
2030
0000
,
0302
0010
3200
0000
0023
1000
0032
0000
0320
0100
2003
0000
0230
0010
3002
0000
,
2303
3200
0320
0032
0023
0230
2300
3200
0320
0030
0001
0001
0001
0000
0010
0010
,
0010
0000
0100
0100
0100
0000
1111
0000
0010
0010
0010
0000
1000
1000
1000
0000
,
0001
0001
0001
0000
1111
0000
0010
0010
0010
0000
1000
1000
1000
0000
0001
0001
,
0001
0000
1111
0000
1000
1000
1000
0000
0100
0100
0100
0000
0010
0010
0010
0000
,
1111
0000
0001
0001
0001
0000
0100
0100
0100
0000
0001
0010
0100
0000
0100
1000
,
0100
0010
0001
0010
0100
0010
0100
0010
0100
0000
0011
1100
0011
0000
1001
0110
,
1001
0000
0110
0000
0000
0000
0010
0000
0001
0000
0010
0000
0001
0000
0000
0000
0011
0000
0000
0010
0110
0000
0000
0000
1100
0000
0000
0000
1001
0000
0000
0000
,
0100
1000
0010
0100
0001
0010
0010
0001
0100
0010
1000
0100
1000
0100
0010
0010
,
0001
0000
0010
0000
0100
0000
1000
0000
1001
0000
0000
0000
0000
0000
0000
1000
0010
0100
0001
0000
0000
0000
0000
0000
0001
0000
0010
0000
0100
0000
0010
0000
,
0001
1000
0100
0010
0100
1000
0100
0010
0000
0000
0220
0000
0300
0232
0000
0300
,
2203
0000
0000
0000
0300
0000
3220
0000
0000
0000
0030
0000
1311
0000
0000
0000
0000
1000
0100
0010
0001
0000
0000
0000
1000
0000
0100
0000
0010
0000
0001
0000
,
0010
0100
1000
0100
0010
0001
0010
0100
0000
0000
2020
0000
0030
3220
0000
0030
,
0322
0000
0000
0000
0030
0000
0223
0000
0000
0000
0030
0000
1311
0000
0000
0000
0000
0001
0010
0100
1000
0000
0000
0000
0001
0000
0010
0000
0001
0000
1000
0000
,
0100
1000
0001
0100
0001
1000
0010
1000
0000
0000
0022
0000
0030
2023
0000
3000
,
2230
0000
0000
0000
0300
0000
3202
0000
0000
0000
0003
0000
1311
0000
0000
0000
0000
1000
0100
0010
0001
0000
0000
0000
1000
0100
1000
0000
0001
0010
0001
0000
,
1000
0010
1000
0000
0001
0100
0001
0000
1000
0100
1000
0000
0001
0010
0001
0000
0010
0000
0100
0000
1000
0000
0100
0000
0001
0000
0100
0000
1000
0000
0100
0000
,
2011
0000
0000
0000
0110
0000
0000
0000
0011
0000
0000
0000
0000
0000
0101
0000
0000
0000
0000
0000
0000
0000
0000
0011
0000
0000
0000
0000
0000
0000
0000
0000
,
0000
0000
0000
0110
0000
0000
0000
0000
0000
0000
0000
0000
0000
0000
0000
0000
0000
0000
0000
0000
0011
0000
0000
0000
0000
0000
0000
0000
0000
0000
0000
0000
,
0000
0000
0000
0000
0000
0000
0000
0000
0000
0000
0000
0000
0101
0000
0000
0000
0000
0000
0000
0000
0000
0000
0000
0000
0000
0000
0000
0000
0000
0000
0000
0000
0000
0000
0001
0000
0000
0000
0010
0000
3000
0000
0100
0000
0000
0000
1000
0000
0000
0100
0000
0000
0010
0000
0000
0000
0001
0000
0000
0000
0010
0000
0100
0000
,
1000
0000
0000
0000
1000
0100
1000
0010
1000
0001
1000
0010
1000
0100
1000
0001
,
0010
0001
0100
0001
1000
0001
0100
0001
0010
0001
1000
0100
1000
0010
1000
0001
,
1000
0010
1000
0100
1000
0001
0010
0001
0100
0001
1000
0001
0100
0001
0010
0001
,
1000
0100
1000
0010
1000
0001
1000
0010
1000
0100
0010
0001
0100
0010
0100
0001
,
0100
0010
0100
0001
0100
0010
0100
0001
1000
0010
0100
0010
1000
0010
0100
0010
,
1000
0010
0100
0010
1000
0001
1000
0001
1000
0001
0100
0010
0100
0010
0100
0001
,
1000
0001
1000
0001
0100
0010
0100
0010
0100
0001
1000
0001
1000
0001
0100
0010
,
0100
0010
0100
0001
1000
0001
0100
0010
0100
0001
1000
0001
0100
0010
0100
0001
,
1000
0001
0100
0010
0100
0001
0100
0010
1000
0010
0100
0001
0010
0100
1000
0100
,
0010
0001
0010
0200
2000
0000
0000
0000
0000
3300
0000
0000
2000
3002
2000
3203
,
2000
0302
3203
0002
2300
3023
2000
0032
3023
0032
0020
0203
2330
0200
3320
0200
,
2030
0302
3020
0233
0020
0302
2033
0002
3203
0002
0323
0002
0233
0002
2303
0002
,
3020
0203
2330
3200
2000
3320
2000
3032
2000
0203
3020
0302
0230
0023
2330
0020
,
3200
0332
0200
0023
2330
0020
3200
0032
0320
0203
2330
0200
3020
0302
0230
0023
,
2300
0230
3020
0332
0020
0203
2030
0320
3200
0032
0320
0203
2330
3200
2300
0200
,
3020
0000
0332
0000
0020
0000
0133
0000
2002
0000
0000
3000
2023
0000
0000
3000
2032
0000
0000
3000
2023
0000
0000
3000
2230
0000
0000
3000
2320
0000
0000
3000
,
2031
0000
0000
0000
0000
0000
0000
0000
0000
0000
0000
0000
0000
0000
0000
0000
0001
0010
0100
0010
0001
0010
0100
0010
0002
0000
0000
0000
0000
0000
0000
0000
,
0000
0000
0000
0000
,
0000
3003
0000
0000
0000
0000
0000
0000
0000
0000
0000
0000
0000
0000
0000
0000
0000
0000
0000
0000
0000
0000
0000
0000
0000
0000
0000
0000
0000
0000
0000
0000
;

//---------------dance-single - Copied from AAAA----------------
#NOTES:
     dance-single:
     Copied from AAAA:
     Medium:
     9:
     0.550,0.523,0.363,0.223,0.066,467.000,52.000,32.000,0.000,2.000:
1001
0100
0010
0100
0010
0100
0000
1001
,
0000
0100
0010
0100
0010
0100
0010
0001
,
0100
1000
0100
0010
0000
1001
0000
0110
,
0100
0010
1000
0010
0000
0100
1000
0100
,
0110
0100
0010
0100
0010
0100
0000
1000
,
0000
0100
0010
0100
0001
0100
0100
0010
,
0100
1000
0010
0001
0100
1000
0000
0100
,
0100
1000
0010
0100
0100
0100
0010
1000
,
2000
0100
0000
0010
0100
0010
3001
0100
,
0100
0001
0000
0110
0100
0011
0100
1100
,
0000
0110
0010
1010
0000
0011
0100
1010
,
0000
1001
0010
1010
0000
0101
0010
1010
,
0000
1001
0010
1010
0000
1100
0100
0011
,
0000
1100
0000
1011
0000
1000
0100
0010
,
0000
0001
0010
0100
0000
1010
0100
0011
,
0000
1100
0000
0011
0000
1100
0110
0011
,
0000
0110
2000
3200
0320
0000
1000
0130
,
0000
1100
0000
0011
2000
0010
0001
0010
,
0200
0000
3000
1300
0020
0000
0000
1030
,
0000
0100
2000
0000
3200
1300
1000
1000
,
0020
0031
0200
0301
2000
0010
0000
3010
,
0000
0110
0000
1001
0200
1000
0310
1000
,
0020
1000
2030
3010
0020
0000
0200
0000
,
0000
0000
0030
0320
2000
0000
3000
1030
,
0002
0000
0000
0000
1203
0000
1300
0000
1200
0000
1300
0000
0200
0300
0000
0000
,
2000
0000
0000
0000
,
0000
0000
0000
0000
0000
0000
0000
0100
,
0000
0100
0000
0100
0000
0100
0000
0100
,
0000
0100
0000
0100
0000
0100
0000
0100
,
0000
0100
0000
0100
3020
0100
0000
0100
,
0230
0000
1000
0000
0300
0000
0100
0001
1000
0000
0100
0000
0010
0000
0001
0000
,
0010
0100
1000
0100
1000
0001
0010
0001
,
0010
0100
1000
0100
0010
0001
0010
0100
,
0010
0001
1000
0100
0010
0100
1000
0100
,
1000
0001
0010
0001
0010
0100
0010
0100
,
1000
0100
0010
0100
0010
0001
0100
0010
,
0100
0010
1000
0100
0010
0001
0010
0100
,
1000
0010
0100
0001
0010
0100
1000
0100
,
0001
0100
1000
0100
0001
0100
1000
0000
,
1000
0100
1000
0000
0001
0010
0001
0000
,
1000
0010
1000
0000
0001
0100
0001
0000
,
0100
0010
0100
0000
0010
0100
0010
0000
,
1000
0100
0010
0000
0001
0010
0100
0000
,
1000
0010
0100
0000
0001
0100
0010
0000
,
0100
0010
0100
0000
0000
1000
0100
0010
,
0001
0010
0100
1000
0100
0000
0010
0000
0001
0000
1000
0000
0100
0000
0010
0000
,
0001
0010
0100
0000
1000
0000
0001
0010
,
0100
0000
1000
0000
0100
0000
0010
0000
0000
0000
0110
0000
0000
0101
0000
0000
,
1100
0000
0000
0110
0000
0000
1001
0000
0000
0100
0000
0000
0001
0000
0010
0000
,
1000
0000
0010
0000
0001
0000
0010
0000
0000
0000
1010
0000
0000
0110
0000
0000
,
0011
0000
0000
0110
0000
0000
1001
0000
0000
0010
0000
0000
1000
0000
0100
0000
,
0010
0000
0001
0000
0010
0000
0100
0000
0000
0000
0011
0000
0000
1010
0000
0000
,
1100
0000
0000
0101
0000
0000
1001
0000
0000
0010
0000
0000
1000
0000
0010
0000
,
0001
0000
0010
0000
0100
0000
1000
0000
0001
0000
0100
0000
0010
1000
0010
0001
,
0020
2030
0000
0000
,
0000
0000
0000
0000
,
0000
0000
0000
0000
0000
0000
0000
0000
0000
0000
3000
0000
0000
0001
0000
0010
,
1000
0000
1000
0100
0010
0001
0010
0100
,
1000
0100
0010
0001
0010
0100
1000
0100
,
1000
0100
1000
0010
0100
0010
0100
0010
,
1000
0010
1000
0001
1000
0001
1000
0100
,
0010
0001
0010
0100
1000
0100
0010
0100
,
1000
0001
0010
0100
0010
0001
0010
0001
,
0100
0001
1000
0001
0100
0001
0010
0001
,
0010
0100
1000
0100
1000
0010
1000
0001
,
1000
0010
1000
0100
1000
0100
0010
0001
,
0010
0100
2000
0000
3000
0000
1000
0010
,
0100
0001
0100
0010
0100
0010
1000
0100
,
0010
0001
0100
0010
1000
0100
0010
0001
,
0100
0010
1000
0100
0010
0001
0010
0100
,
1000
0010
0100
0001
0100
0010
1000
0010
,
0100
0001
0010
0100
1000
0100
1000
0001
,
0010
0001
2000
0000
0000
0000
0000
0000
,
3000
0000
0000
0000
0000
0000
0000
0000
0000
0000
0000
0000
0000
0000
0000
0000
1000
0100
0010
0000
0001
0000
0010
0000
2002
0000
0000
0000
0000
0000
0000
0000
,
0000
0000
0000
0000
,
0000
3003
0000
0000
0000
0000
0000
0000
0000
0000
0000
0000
0000
0000
0000
0000
0000
0000
0000
0000
0000
0000
0000
0000
0000
0000
0000
0000
0000
0000
0000
0000
;

//---------------dance-single - ----------------
#NOTES:
     dance-single:
     :
     Easy:
     6:
     0.350,0.419,0.216,0.223,0.049,288.000,31.000,32.000,0.000,0.000:
0000
0100
0000
0010
0000
0100
0000
1001
,
0000
0100
0000
0100
0000
0100
0000
0001
,
0100
1000
0000
0010
0000
1001
0000
0110
,
0000
0010
0000
0010
0000
0100
1000
0100
,
0000
0100
0000
0100
0000
0100
0000
1000
,
0000
0100
0000
0100
0000
0100
0001
0010
,
0000
1000
0000
0001
0000
1000
0000
0100
,
0010
1000
0000
0100
0000
0100
0000
2000
,
3000
0200
0300
0020
0030
0010
0000
0100
,
0000
0001
0000
0110
0000
0011
0000
1100
,
0000
0110
0000
1010
0000
0011
0000
1010
,
0000
1001
0000
1010
0000
0101
0000
1010
,
0000
1001
0000
1010
0000
1100
0000
0011
,
0000
1100
0000
1001
0000
1000
0100
0010
,
0000
0001
0000
0100
0000
1010
0000
0011
,
0000
1100
0000
0011
0000
1100
0000
0011
,
0000
0110
0000
0200
0320
0030
1000
0100
,
0000
1100
0000
0011
2000
0000
0000
0000
,
3200
0000
0320
0000
,
0000
2030
3200
0000
,
0320
0000
0230
0000
2300
0000
0000
3000
,
0000
0110
0000
1001
0200
0000
0000
0000
,
0320
0000
2030
0000
3020
0200
0000
0000
,
0000
0000
0330
0002
2000
0000
0000
3003
,
0020
0000
0000
0000
0230
0000
0300
0000
0200
0000
0300
0000
0200
0300
0000
0000
,
2000
0000
0000
0000
,
0000
0000
0000
0000
0000
0000
0000
0100
,
0000
0100
0000
0100
0000
0100
0000
0100
,
0000
0100
0000
0100
0000
0100
0000
0100
,
0000
0100
0000
0100
3020
0100
0000
0100
,
0230
0000
0001
0000
0300
0000
0001
0010
0100
0000
0000
0000
1000
0000
0000
0000
,
0100
0010
0001
0010
,
0100
1000
0010
1000
,
0010
1000
0010
1000
,
1000
0010
0100
0010
,
1000
0010
0010
0100
,
0100
1000
0010
0010
,
1000
0100
0010
1000
,
0001
1000
0001
1000
,
0010
1000
0001
0001
,
1000
1000
0001
0001
,
0100
0100
0010
0010
,
1000
0010
0001
0100
,
1000
0100
0001
0010
,
0100
0100
0010
0100
,
0001
0000
0100
0000
0001
1000
0100
0010
,
0001
0010
0100
0000
1000
0000
0001
0000
,
0100
0000
0000
0000
0100
0000
0000
0000
0000
0000
1000
0000
0000
0100
0000
0000
,
0010
0000
0000
0001
0000
0000
1000
0000
0000
0100
0000
0000
0010
0000
0000
0000
,
1000
0000
0000
0000
0010
0000
0000
0000
0000
0000
0001
0000
0000
0010
0000
0000
,
0100
0000
0000
1000
0000
0000
0001
0000
0000
0010
0000
0000
1000
0000
0000
0000
,
0100
0000
0000
0000
0001
0000
0000
0000
0000
0000
0001
0000
0000
0010
0000
0000
,
0100
0000
0000
0010
0000
0000
0001
0000
0000
0010
0000
0000
0100
0000
0000
0000
,
1000
0000
0100
0000
0010
0001
0010
0100
,
0020
2030
0000
0000
,
0000
0000
0000
0000
,
0000
0000
0000
0000
0000
0000
0000
0000
0000
0000
3000
0000
0000
0010
0000
0100
,
1000
1000
0010
0010
,
1000
0010
0010
1000
,
0001
1000
0100
0100
,
1000
1000
0001
1000
,
0010
0010
1000
0010
,
1000
0010
1000
0010
,
0100
1000
0100
0010
,
0010
1000
1000
0001
,
1000
0010
1000
0010
,
0010
2000
3000
1000
,
0100
0001
0100
1000
,
0010
0100
1000
0010
,
0100
1000
0010
0010
,
1000
0100
0100
1000
,
0100
0010
1000
1000
,
0010
2000
0000
0000
,
3000
0000
0000
0000
0000
0000
0000
0000
1000
0100
0010
0001
2000
0000
0000
0000
,
0000
0000
0000
0000
,
0000
3000
0000
0000
0000
0000
0000
0000
0000
0000
0000
0000
0000
0000
0000
0000
0000
0000
0000
0000
0000
0000
0000
0000
0000
0000
0000
0000
0000
0000
0000
0000
;

//---------------dance-solo - Copied from----------------
#NOTES:
     dance-solo:
     Copied from:
     Hard:
     6:
     0.350,0.419,0.216,0.223,0.049,288.000,31.000,32.000,0.000,0.000:
000000
010000
000000
001000
000000
010000
000000
100100
,
000000
010000
000000
010000
000000
010000
000000
000100
,
010000
100000
000000
001000
000000
100100
000000
011000
,
000000
001000
000000
001000
000000
010000
100000
010000
,
000000
010000
000000
010000
000000
010000
000000
100000
,
000000
010000
000000
010000
000000
010000
000100
001000
,
000000
100000
000000
000100
000000
100000
000000
010000
,
001000
100000
000000
010000
000000
010000
000000
200000
,
300000
020000
030000
002000
003000
001000
000000
010000
,
000000
000100
000000
011000
000000
001100
000000
110000
,
000000
011000
000000
101000
000000
001100
000000
101000
,
000000
100100
000000
101000
000000
010100
000000
101000
,
000000
100100
000000
101000
000000
110000
000000
001100
,
000000
110000
000000
100100
000000
100000
010000
001000
,
000000
000100
000000
010000
000000
101000
000000
001100
,
000000
110000
000000
001100
000000
110000
000000
001100
,
000000
011000
000000
020000
032000
003000
100000
010000
,
000000
110000
000000
001100
200000
000000
000000
000000
,
320000
000000
032000
000000
,
000000
203000
320000
000000
,
032000
000000
023000
000000
230000
000000
000000
300000
,
000000
011000
000000
100100
020000
000000
000000
000000
,
032000
000000
203000
000000
302000
020000
000000
000000
,
000000
000000
033000
000200
200000
000000
000000
300300
,
002000
000000
000000
000000
023000
000000
030000
000000
020000
000000
030000
000000
020000
030000
000000
000000
,
200000
000000
000000
000000
,
000000
000000
000000
000000
000000
000000
000000
010000
,
000000
010000
000000
010000
000000
010000
000000
010000
,
000000
010000
000000
010000
000000
010000
000000
010000
,
000000
010000
000000
010000
302000
010000
000000
010000
,
023000
000000
000100
000000
030000
000000
000100
001000
010000
000000
000000
000000
100000
000000
000000
000000
,
010000
001000
000100
001000
,
010000
100000
001000
100000
,
001000
100000
001000
100000
,
100000
001000
010000
001000
,
100000
001000
001000
010000
,
010000
100000
001000
001000
,
100000
010000
001000
100000
,
000100
100000
000100
100000
,
001000
100000
000100
000100
,
100000
100000
000100
000100
,
010000
010000
001000
001000
,
100000
001000
000100
010000
,
100000
010000
000100
001000
,
010000
010000
001000
010000
,
000100
000000
010000
000000
000100
100000
010000
001000
,
000100
001000
010000
000000
100000
000000
000100
000000
,
010000
000000
000000
000000
010000
000000
000000
000000
000000
000000
100000
000000
000000
010000
000000
000000
,
001000
000000
000000
000100
000000
000000
100000
000000
000000
010000
000000
000000
001000
000000
000000
000000
,
100000
000000
000000
000000
001000
000000
000000
000000
000000
000000
000100
000000
000000
001000
000000
000000
,
010000
000000
000000
100000
000000
000000
000100
000000
000000
001000
000000
000000
100000
000000
000000
000000
,
010000
000000
000000
000000
000100
000000
000000
000000
000000
000000
000100
000000
000000
001000
000000
000000
,
010000
000000
000000
001000
000000
000000
000100
000000
000000
001000
000000
000000
010000
000000
000000
000000
,
100000
000000
010000
000000
001000
000100
001000
010000
,
002000
203000
000000
000000
,
000000
000000
000000
000000
,
000000
000000
000000
000000
000000
000000
000000
000000
000000
000000
300000
000000
000000
001000
000000
010000
,
100000
100000
001000
001000
,
100000
001000
001000
100000
,
000100
100000
010000
010000
,
100000
100000
000100
100000
,
001000
001000
100000
001000
,
100000
001000
100000
001000
,
010000
100000
010000
001000
,
001000
100000
100000
000100
,
100000
001000
100000
001000
,
001000
200000
300000
100000
,
010000
000100
010000
100000
,
001000
010000
100000
001000
,
010000
100000
001000
001000
,
100000
010000
010000
100000
,
010000
001000
100000
100000
,
001000
200000
000000
000000
,
300000
000000
000000
000000
000000
000000
000000
000000
100000
010000
001000
000100
200000
000000
000000
000000
,
000000
000000
000000
000000
,
000000
300000
000000
000000
000000
000000
000000
000000
000000
000000
000000
000000
000000
000000
000000
000000
000000
000000
000000
000000
000000
000000
000000
000000
000000
000000
000000
000000
000000
000000
000000
000000
;
