#TITLE:Papercut;
#SUBTITLE:Hybrid Theory (2000);
#ARTIST:Linkin Park;
#TITLETRANSLIT:;
#SUBTITLETRANSLIT:;
#ARTISTTRANSLIT:;
#CREDIT:;
#BANNER:banner.png;
#BACKGROUND:papercutbg.png;
#LYRICSPATH:;
#CDTITLE:!cdtitle.png;
#MUSIC:Papercut.mp3;
#OFFSET:-1.164;
#SAMPLESTART:87.080;
#SAMPLELENGTH:25.600;
#SELECTABLE:YES;
#BPMS:0.000=75.075,12.000=150.150,172.000=75.075,188.000=150.150;
#STOPS:;
#BGCHANGES:108.000=papercutbackground3.png=1.000=0=0=1,
188.000=papercutbackground2.png=1.000=1=0=1,
99999=-nosongbg-=1.000=0=0=0 // don't automatically add -songbackground-
;
// cache tags:
#FIRSTBEAT:0.000;
#LASTBEAT:333.000;
#SONGFILENAME:Songs/Astronomic Metal Collection 2/(moches) Papercut/Papercut.sm;
#HASMUSIC:1;
#HASBANNER:1;
#MUSICLENGTH:147.304;
// end cache tags

//---------------dance-single - ----------------
#NOTES:
     dance-single:
     :
     Hard:
     11:
     1.000,1.000,1.000,0.794,0.577,767.000,542.000,117.000,82.000,101.000:
1000
1000
1000
0100
0001
1000
0100
1000
0100
1000
1000
1000
0001
1000
1000
0001
,
1010
0000
0000
0000
1100
0000
0000
0000
1001
0000
0000
0000
1100
0000
0000
0000
0101
0000
0000
0000
1100
0000
0000
0000
0110
0000
0000
0000
1100
0000
0000
0000
0110
0000
0000
0000
1100
0000
0000
0000
1001
0000
0000
0000
1100
0000
0000
0000
0101
0000
0000
0000
1200
0300
0000
0000
1020
0030
0000
0000
1002
0003
0000
0000
,
1020
0030
0000
0000
1200
0300
0000
0000
2001
3000
0000
0000
1100
0000
0000
0000
0101
0000
0000
0000
1100
0000
0000
0000
0110
0000
0000
0000
1100
0000
0000
0000
0110
0000
0000
0000
1100
0000
0000
0000
1001
0000
0000
0000
1100
0000
0000
0000
0101
0000
0000
0000
1200
0000
0000
0000
0010
0000
0000
0000
1000
0000
0000
0000
,
1311
0110
0110
0002
1100
0123
1000
0231
,
0010
0000
0000
0000
0001
0000
0000
0300
1100
0000
0000
0000
0000
0000
0000
0000
1200
0000
0000
0000
0000
0000
0000
0000
0000
0000
0000
0000
0000
0000
0000
0000
1301
0000
0000
0000
0000
0000
0000
0000
1100
0000
0000
0000
0000
0000
0000
0000
0010
0000
0000
0000
0000
0000
0000
0000
1100
0000
0000
0000
0000
0000
0000
0000
,
1011
0110
0110
0002
1100
0123
1000
0231
,
0010
0000
0000
0000
0001
0000
0000
0300
1100
0000
0000
0000
0000
0000
0000
0000
1200
0000
0000
0000
0000
0000
0000
0000
0000
0000
0000
0000
0000
0000
0000
0000
1301
0000
0000
0000
0000
0000
0000
0000
1100
0000
0000
0000
0000
0000
0000
0000
0010
0000
0000
0000
0000
0000
0000
0000
1100
0000
0000
0000
0000
0000
0000
0000
,
1011
0110
0110
0002
1100
0123
1000
0231
,
0010
0000
0000
0000
0001
0000
0000
0300
1100
0000
0000
0000
0000
0000
0000
0000
1200
0000
0000
0000
0000
0000
0000
0000
0000
0000
0000
0000
0000
0000
0000
0000
1301
0000
0000
0000
0000
0000
0000
0000
1100
0000
0000
0000
0000
0000
0000
0000
0010
0000
0000
0000
0000
0000
0000
0000
1100
0000
0000
0000
0000
0000
0000
0000
,
1011
0110
0110
0002
1100
0123
1000
0231
,
0010
0000
0000
0000
0001
0000
0000
0300
1100
0000
0000
0000
0000
0000
0000
0000
1200
0000
0000
0000
0000
0000
0000
0000
0000
0000
0000
0000
0000
0000
0000
0000
1301
0000
0000
0000
0000
0000
0000
0000
1010
0000
0000
0000
0000
0000
0000
0000
1010
0000
0000
0000
0000
0000
0000
0000
0110
0000
0000
0000
0000
0000
0000
0000
,
1101
0000
1010
0000
1010
0000
0100
0000
0011
0000
1010
0100
0000
0M00
1010
0001
,
0010
0001
1100
0000
1100
0000
0010
0000
1001
0000
1010
0001
1010
0000
0110
0000
,
1101
0001
1010
0000
1010
0000
0100
0000
0011
0000
1010
0100
0000
0M00
1010
0001
,
0010
0001
1100
0010
1100
0001
0000
0010
1001
0100
1010
0000
1010
0000
0110
0000
,
1101
0001
1010
0001
1010
0100
000M
1000
0011
0100
1010
0001
0000
000M
1010
0001
,
0010
0000
0000
0001
0000
0000
1100
0000
0000
0000
0000
0000
1100
0000
0000
0000
0010
0000
M00M
0000
0100
0000
0000
0000
1001
0000
0000
0000
0000
0000
1010
0000
0000
0000
0000
0000
1010
0000
0000
0000
0000
0000
0110
0000
0000
0000
0000
0000
,
1101
0000
0000
0000
0000
0000
0000
0000
1010
0000
0000
0000
0000
0000
0000
0000
1010
0000
0000
0000
0000
0000
0000
0000
0100
0000
0000
0000
0100
0000
0000
0000
0011
0000
0000
0000
0000
0000
0000
0000
1010
0000
0000
0000
0000
0000
0000
0000
M002
M000
M000
M000
M003
0000
0000
0000
1010
0000
0000
0000
0001
0000
0000
0000
,
0010
0000
0000
0001
1000
0000
0110
0000
0001
0000
0000
0000
0110
0000
0000
0000
1000
0000
0M0M
0000
0010
0000
0000
0000
1001
0000
0100
0000
1000
0000
0101
0000
1000
0000
0100
0000
1010
0000
0000
0000
0000
0000
0110
0000
0000
0100
0000
0000
,
1101
0000
1001
0100
1001
0000
0010
0000
0101
0000
0010
0000
MM00
0000
0001
0010
,
1101
0010
1100
0001
1100
0000
0010
0000
0101
0000
M0M0
0000
0001
0000
1000
0010
,
1101
0000
1001
0100
1001
0000
0010
0000
0101
0000
0010
0000
1000
0000
0001
0010
,
1101
0010
1100
0001
1100
0000
0010
0000
1001
0000
101M
0000
1M10
0000
M110
0000
,
11M0
0000
110M
0000
11M0
0000
00M0
0000
1101
0001
0010
0000
0001
0000
0010
0001
,
0010
0001
0110
0000
0110
0000
1000
0000
0101
0000
0110
0000
0110
0000
0110
0010
,
1101
0000
1010
0000
1010
0000
0100
0000
0011
0000
1010
0000
0100
0000
1010
0001
,
0010
0000
0000
0001
0000
0000
1100
0000
0000
0000
0000
0000
1100
0000
0000
0000
0000
0000
0010
0000
0001
0000
0010
0000
0001
0000
0010
0000
0002
0000
M000
0000
0000
0000
0000
0000
M000
0000
0000
0000
0000
0000
M003
0000
0000
0000
0000
0000
,
1011
0110
0110
0011
2100
3110
1100
0101
,
0110
0001
1100
0000
1100
0000
0210
0000
1301
0000
1100
0000
0110
0000
1100
0000
,
1011
0110
0120
0031
2100
3110
2010
3101
,
0110
0001
1100
0000
1100
0000
0210
0000
1301
0000
1100
0000
0110
0000
1100
0000
,
1011
0110
0120
0031
2100
3110
1100
0101
,
0110
0001
1100
0000
1100
0000
0210
0000
1301
0000
1100
0000
0110
0000
1100
0000
,
1011
0000
0110
1000
0110
0000
0101
0000
1100
0000
0110
0000
1000
0000
0101
0000
,
0010
0001
1100
0000
1100
0000
1010
0000
1001
0000
101M
0000
1M10
0000
M110
0000
,
11M0
110M
1211
0301
1100
0110
1100
0101
,
0110
0001
1100
0000
1100
0000
0210
0010
1301
0000
1100
0000
0110
0000
1100
0000
,
1011
0110
0120
0031
2100
3110
2010
3101
,
0110
0001
1100
0000
1100
0000
0210
0000
1301
0000
1100
0000
0110
0000
1100
0000
,
1011
0110
0120
0031
2100
3110
1100
0101
,
0110
0001
1100
0000
1100
0000
0210
0000
1301
0000
1100
0000
0110
0000
1100
0000
,
1011
0000
0110
1000
0110
0000
0101
0000
1100
0000
0110
0000
1000
0000
0101
0000
,
0010
0001
1100
0000
1100
0000
1010
0000
1001
0000
1010
0000
1010
0000
0110
0000
,
1100
1100
1100
00M0
0M01
10M0
000M
10M0
0M00
10M0
1M00
10M0
0M01
1010
1010
0110
,
1100
1100
1100
00M0
0M01
10M0
000M
10M0
0M00
10M0
1M00
10M0
0M01
1010
1010
0110
,
1100
1100
1100
00M0
0M01
10M0
000M
10M0
0M00
10M0
1M00
10M0
0M01
1010
1010
0110
,
1100
1100
1100
1100
1100
1100
1100
1100
1100
1100
1100
1100
1100
1100
1100
1100
,
1201
1310
1010
0000
0011
1100
0010
1100
,
0010
0100
1001
0000
1001
0000
0000
0000
2001
0000
3110
0000
1000
0000
0110
0000
,
1021
1130
1100
0000
1001
0110
1000
0110
,
1000
0001
1010
0000
1010
0000
0000
0000
1001
0000
1100
0000
0010
0000
1100
0000
,
1102
0003
0000
0000
0000
0000
0000
0000
1020
0030
0000
0000
0200
0300
0000
0000
2010
3000
0000
0000
0000
0000
0000
0000
0000
0000
0000
0000
0000
0000
0000
0000
0021
0030
0000
0000
0000
0000
0000
0000
2100
3000
0000
0000
0000
0000
0000
0000
0020
0030
0000
0000
0000
0000
0000
0000
1200
0300
0000
0000
0000
0000
0000
0000
,
0020
0030
0000
0000
0200
0300
0000
0000
2001
3000
0000
0000
0000
0000
0000
0000
1002
0003
0000
0000
0000
0000
0000
0000
0200
0300
0000
0000
0000
0000
0000
0000
1002
0003
0000
0000
0000
0000
0000
0000
0210
0300
0000
0000
0000
0000
0000
0000
2000
3000
0000
0000
0000
0000
0000
0000
0210
0300
0000
0000
0000
0000
0000
0000
,
1012
1103
1100
0020
1031
0210
1300
0102
,
1003
0100
1010
0000
1020
0000
0030
0000
1001
0000
2100
0000
3010
0000
1100
0000
,
1201
1310
1010
0000
0011
1100
0010
1100
,
0010
0100
1001
0000
1001
0000
0000
0000
1002
0000
0113
0000
1000
0000
0110
0000
,
1021
0000
0000
0000
1230
0300
0000
0000
1200
0000
0000
0000
0300
0000
0000
0000
1001
0000
0000
0000
0110
0000
0000
0000
1000
0000
0000
0000
0110
0000
0000
0000
,
1000
0001
1010
0000
1010
0000
0000
0000
1001
0000
1100
0000
0010
0000
1100
0000
,
1201
0300
0000
0000
0000
0000
0000
0000
2010
3000
0000
0000
0200
0300
0000
0000
1020
0030
0000
0000
0000
0000
0000
0000
0000
0000
0000
0000
0000
0000
0000
0000
0012
0003
0000
0000
0000
0000
0000
0000
1200
0300
0000
0000
0000
0000
0000
0000
0020
0030
0000
0000
0000
0000
0000
0000
1200
0300
0000
0000
0000
0000
0000
0000
,
0020
0030
0000
0000
0200
0300
0000
0000
1002
0003
0000
0000
0000
0000
0000
0000
1002
0003
0000
0000
0000
0000
0000
0000
0200
0300
0000
0000
0000
0000
0000
0000
1002
0003
0000
0000
0000
0000
0000
0000
0120
0030
0000
0000
0000
0000
0000
0000
2000
3000
0000
0000
0000
0000
0000
0000
0120
0030
0000
0000
0000
0000
0000
0000
,
1012
1103
1100
0020
1031
0210
1300
0102
,
1003
0100
1010
0000
1020
0000
0130
0000
1001
0000
2000
0000
3110
0000
1100
0000
,
1201
1310
1010
1001
0011
1100
0110
1100
,
1010
0100
1001
0000
1001
0000
1010
0000
2001
0000
3110
0000
1010
0000
0110
0000
,
1021
0000
0000
0000
0000
0000
0000
0000
1130
0000
0000
0000
0000
0000
0000
0000
1100
0000
0000
0000
0000
0000
000M
0M00
00M0
M000
0000
0000
0000
0000
0000
0000
1001
0000
0000
0000
0000
0000
0000
0000
0110
0000
0000
0000
0000
0000
0000
0000
1001
0000
0000
0000
0000
0000
0000
0000
0110
0000
0000
0000
0000
0000
0000
0000
,
1100
0001
1010
0000
1010
0000
0011
0000
1001
0000
1100
0000
0110
0000
1100
0000
,
1101
0000
0000
0000
0000
0000
0000
0000
1010
0000
0000
0000
0100
0000
0000
0000
1010
0000
0000
0000
0000
0000
M000
0M00
000M
00M0
0000
0000
0000
0000
0000
0000
0011
0000
0000
0000
0000
0000
0000
0000
1100
0000
0000
0000
0000
0000
0000
0000
0110
0000
0000
0000
0000
0000
0000
0000
1100
0000
0000
0000
0000
0000
0000
0000
,
1010
0100
1001
0000
1001
0000
0101
0000
1001
0000
0110
0000
1010
0000
0110
0000
,
1012
0000
1103
0010
1100
0000
0021
0000
1031
0000
0210
0000
1300
0000
0102
0000
,
1003
0100
1010
0000
1020
0000
1130
0000
1001
0000
2100
0001
3110
0001
1100
0000
,
1201
0000
0000
0000
0000
0000
0000
0000
1310
0000
0000
0000
0000
0000
0000
0000
1010
0000
0000
0000
0000
0000
00M0
0M00
000M
M000
0000
0000
0000
0000
0000
0000
0011
0000
0000
0000
0000
0000
0000
0000
1100
0000
0000
0000
0000
0000
0000
0000
0110
0000
0000
0000
0000
0000
0000
0000
1100
0000
0000
0000
0000
0000
0000
0000
,
1010
0100
1001
0000
1001
0000
1010
0000
1002
0000
0113
0000
1010
0000
0110
0000
,
1021
0000
0000
0000
0000
0000
0000
0000
1130
0000
0000
0000
0000
0000
0000
0000
1100
0000
0000
0000
0000
0000
000M
0M00
00M0
M000
0000
0000
0000
0000
0000
0000
1001
0000
0000
0000
0000
0000
0000
0000
0110
0000
0000
0000
0000
0000
0000
0000
1001
0000
0000
0000
0000
0000
0000
0000
0110
0000
0000
0000
0000
0000
0000
0000
,
1100
0001
1010
0000
1010
0000
0011
0000
1001
0000
1100
0000
0110
0000
1100
0000
,
1101
0000
0000
0000
0000
0000
0000
0000
1010
0000
0000
0000
0100
0000
0000
0000
1010
0000
0000
0000
0000
0000
0M00
M000
00M0
000M
0000
0000
0000
0000
0000
0000
0011
0000
0000
0000
0000
0000
0000
0000
1100
0000
0000
0000
0000
0000
0000
0000
0110
0000
0000
0000
0000
0000
0000
0000
1100
0000
0000
0000
0000
0000
0000
0000
,
1010
0100
1001
0000
1001
0000
0101
0000
1001
0000
0110
0000
1010
0000
0110
0000
,
1012
1103
1100
0020
1031
0210
1301
0102
,
1013
0100
1010
0000
1020
0000
0131
0000
1001
0000
1100
0000
0110
0000
1100
0000
,
1021
0030
0100
1010
1101
0000
0100
0101
,
2011
3010
0010
0110
1101
1000
1000
1010
,
1102
0000
0003
1000
0000
0000
0110
0000
1101
0000
1000
0000
0000
0000
0110
0000
,
1011
0000
0100
1100
1011
1010
1010
0110
,
1100
1100
1100
0000
0000
0000
0000
0000
;
