#TITLE:Better Off Alone;
#SUBTITLE:;
#ARTIST:Alice Deejay;
#TITLETRANSLIT:;
#SUBTITLETRANSLIT:;
#ARTISTTRANSLIT:;
#CREDIT:Cloud;
#BANNER:Bn-Red.png;
#BACKGROUND:Bg-Red.png;
#LYRICSPATH:;
#CDTITLE:;
#MUSIC:Alice Deejay - Better Off Alone.ogg;
#OFFSET:-0.451;
#SAMPLESTART:60.420;
#SAMPLELENGTH:16.000;
#SELECTABLE:YES;
#BPMS:0.000=136.990,68.000=68.495,100.000=136.990,260.000=68.495,290.000=136.990,419.000=68.495;
#STOPS:290.000=1.317
;
#BGCHANGES:;
// cache tags:
#FIRSTBEAT:4.000;
#LASTBEAT:421.000;
#SONGFILENAME:Songs/lvsb tourney pack/Cloud - Better Off Alone-ITGREADY/BOA.sm;
#HASMUSIC:1;
#HASBANNER:0;
#MUSICLENGTH:105.000;
// end cache tags

//---------------dance-single - Cloud----------------
#NOTES:
     dance-single:
     Cloud:
     Challenge:
     9:
     1.000,1.000,1.000,0.171,1.000,841.000,108.000,18.000,14.000,8.000:

0000
0000
0000
0000
,
0001
0000
0000
0000
,
0000
0000
0000
0000
0000
0000
0000
1000
,
0001
0000
0000
0000
,
0000
0000
0000
0000
,
0001
0000
0000
0000
,
0000
0000
0000
0000
0000
0000
0000
1000
,
0001
0000
0000
0000
,
0200
0000
0000
0000
0000
0000
0000
0300
,
0010
1000
0100
0010
0001
0010
0100
1000
,
0010
0000
0100
0000
0001
0000
0010
0000
0100
0000
0000
0100
0000
0000
1000
0000
,
0010
0100
0010
1000
0100
0010
0001
0010
,
0100
0000
1000
0000
0010
0000
0100
0000
0001
0000
0000
0001
0000
0000
0010
0000
,
0100
1000
0100
0010
0001
0100
0010
1000
,
0100
0000
1000
0000
0001
0000
0100
0000
0010
0000
0000
0010
0000
0000
1000
0000
,
0001
0010
0001
0100
0010
1000
0100
1000
,
0020
0000
0000
0000
0000
0000
0000
0000
1030
0000
0000
1000
0000
0000
0100
0000
,
0010
0000
0000
0000
0010
0000
0001
0000
0000
0000
0100
0000
0000
0000
0010
0000
0000
0000
1000
0000
0000
0000
0100
0000
0010
0000
0000
0010
0000
0000
0001
0000
,
0100
0000
0000
0000
0100
0000
0010
0000
0000
0000
1000
0000
0000
0000
0100
0000
0000
0000
0010
0000
0000
0000
0001
0000
0100
0000
0000
0100
0000
0000
0010
0000
,
1000
0000
0000
0000
1000
0000
0100
0000
0000
0000
0010
0000
0000
0000
0001
0000
0000
0000
1000
0000
0000
0000
0100
0000
0010
0000
0000
0001
0000
0000
0100
0000
,
0010
0000
0000
0000
1000
0000
0100
0000
0000
0000
0010
0000
0000
0000
0100
0000
0000
0000
1000
0000
0000
0000
0010
0000
0001
0000
0000
0010
0000
0000
1000
0000
,
1100
0000
0100
0000
0010
0001
0010
0000
0001
0000
0100
0000
0010
0100
0010
0000
1000
0000
0100
0000
0010
0001
0010
0000
0100
0000
1000
0000
0001
0100
0001
0000
,
0010
0000
0100
0000
1000
0001
1000
0000
0010
0000
0100
0000
0001
0010
0001
0000
0100
0000
0010
0000
1000
0100
1000
0000
0010
0000
0100
0000
0001
0010
0100
0000
,
1000
0000
0010
0000
0100
0001
0010
0000
0100
0000
1000
0000
0010
0100
0001
0000
1000
0000
0100
0000
1000
0001
0010
0000
0001
0000
0100
0000
0010
1000
0100
0000
,
1000
0000
0010
0000
0100
0001
1000
0000
0010
0000
0100
0000
0010
1000
0100
0000
1000
0100
0010
0001
1000
0100
0010
0001
1000
0100
0010
0001
0010
0100
1000
0001
,
0100
0010
1000
0100
1000
0010
0100
0001
,
0010
0000
0001
0000
0100
0000
0010
0000
1000
0000
0000
1000
0000
0000
0010
0000
,
0100
0010
1000
0100
0010
0001
0010
0001
,
0100
0000
0010
0000
1000
0000
0100
0000
0010
0000
0000
0001
0000
0000
0100
0000
,
0010
1000
0010
0100
0001
0100
0010
1000
,
0100
0000
0010
0000
0100
0000
1000
0000
0010
0000
0000
0100
0000
0000
0001
0000
,
0010
0100
1000
0010
0100
0010
1000
0001
,
0101
0110
1010
1100
,
0100
0000
0010
0000
0001
0100
0001
0000
1000
0000
0010
0000
1000
0100
1000
0000
,
0010
0000
1000
0000
0100
0010
0100
0000
0010
0000
0001
0000
0100
0001
0100
0000
,
0010
0000
1000
0000
0100
1000
0100
0000
0010
0000
0001
0000
0100
0010
0100
0000
,
0010
0000
1000
0000
0001
1000
0001
0000
0010
0000
0100
0000
1000
0100
1000
0000
,
0010
0000
0100
0000
0001
0010
0001
0000
0100
0000
0010
0000
1000
0100
1000
0000
,
0100
0000
0010
0000
0001
0100
0001
0000
0100
0000
0010
0000
1000
0100
1000
0000
,
0010
0000
0100
0000
0001
0010
0001
0000
0100
0000
0010
0000
1000
0100
1000
0000
,
1010
0110
0101
0011
,
0001
0000
0010
0000
0100
1000
0010
0000
0100
0000
0001
0000
0010
0100
1000
0000
,
0001
0000
0100
0000
0010
1000
0001
0000
0100
0000
0001
0000
0010
0100
1000
0000
,
0100
0000
0010
0000
0001
1000
0010
0000
0100
0000
0010
0000
1000
0100
0010
0000
,
0001
0000
0100
0000
0010
1000
0100
0000
1000
0000
0010
0000
0100
0001
0010
0000
,
0100
0000
1000
0000
0001
0100
0010
0000
1000
0000
0001
0000
0010
0001
1000
0000
,
0010
0000
0100
0000
0010
1000
0001
0000
0010
0000
0100
0000
1000
0001
0100
0000
,
0010
0000
1000
0000
0100
1000
0010
0000
0100
0000
0001
0000
0010
0001
0100
0000
,
0101
0110
1010
1100
,
0010
0001
0010
0001
0010
0001
0010
0001
,
0100
0010
0100
0010
0100
0010
0100
0010
,
1000
0100
1000
0100
1000
0100
1000
0100
,
0010
0001
0010
0001
0010
0001
0010
0001
,
0100
0010
0100
0010
0100
0010
0100
0010
,
1000
0001
1000
0001
1000
0001
1000
0001
,
1000
0100
1000
0100
1000
0100
1000
0100
,
0011
1001
1100
1010
,
0010
0000
0100
00M0
0000
0001
0010
0000
0100
0000
1000
0M00
0000
0010
0100
0000
,
0001
0000
0010
000M
0000
0100
1000
0000
0010
0000
0100
00M0
0000
0001
1000
0000
,
0010
0000
1000
00M0
0000
0100
1000
0000
0100
0000
0010
0M00
0000
0001
0010
0000
,
0100
0000
1000
0M00
0000
0100
0010
0000
0001
0000
0100
000M
0000
0010
1000
0000
,
0100
0000
0010
0M00
0000
0001
0100
0000
0010
0000
1000
00M0
0000
0100
1000
0000
,
0010
0000
0100
00M0
0000
0001
0100
0000
0010
0000
1000
00M0
0000
0100
1000
0000
,
0010
0100
0001
0010
0100
1000
0001
0010
0100
1000
0001
0100
0010
1000
0100
0010
,
0011
0101
1010
1100
,
1000
0000
0100
0000
0000
0001
0100
0000
1000
0000
0010
0000
0000
0001
0010
0000
1000
0000
0100
0000
0000
0010
0100
0000
1000
0000
0010
0000
0000
0100
0001
0000
,
0010
0000
1000
0000
0000
0010
0100
0000
0010
0000
0001
0000
0000
0100
0010
0000
0100
0000
1000
0000
0000
0100
0001
0000
0010
0000
0100
0000
0000
0010
1000
0000
,
0010
0000
0100
0000
0000
0010
0001
0000
0100
0000
0010
0000
0000
0100
1000
0000
0100
0000
0001
0000
0000
0100
0010
0000
1000
0000
0100
0000
0000
1000
0010
0000
,
0100
0000
0001
0000
0000
0010
0100
0000
1000
0000
0010
0000
0000
0100
0001
0000
2000
0000
0000
0000
0000
0000
0000
0000
0000
0000
0000
0000
0000
0000
3000
0000
,
1010
0000
0000
0000
1010
0000
0110
0000
0000
0000
0101
0000
0000
0000
0011
0000
0000
0000
0110
0000
0000
0000
1100
0000
1010
0000
0000
1010
0000
0000
0110
0000
,
0101
0000
0000
0000
0101
0000
1001
0000
0000
0000
1100
0000
0000
0000
1010
0000
0000
0000
0110
0000
0000
0000
0101
0000
0011
0000
0000
0011
0000
0000
0110
0000
,
1100
0000
0000
0000
1100
0000
1001
0000
0000
0000
0101
0000
0000
0000
0110
0000
0000
0000
1010
0000
0000
0000
1100
0000
0011
0000
0000
0011
0000
0000
0101
0000
,
0110
0000
0110
1010
0000
1100
0000
0110
2002
3003
0000
0000
0101
0000
0100
0000
,
0110
1010
1000
1100
0100
0110
0010
0011
,
0001
0000
0101
0000
0110
0000
0000
1010
0000
0000
1100
0000
0110
0000
0010
0000
,
0011
0101
0100
0110
0010
1010
1000
1100
,
0100
0000
0110
0000
0011
0000
0000
0101
0000
0000
0110
0000
1001
0000
1000
0000
,
1010
0110
0100
0101
0001
0011
0010
0110
,
0100
0000
1100
0000
1010
0000
0000
0110
0000
0000
0101
0000
0011
0000
0010
0000
,
0110
1100
1000
1010
0010
0110
1001
0000
,
1011
0000
1101
0000
1111
0000
0001
0100
,
0010
1000
0100
0001
0100
1000
0010
0100
,
0001
0000
0100
0000
0010
0000
0000
1000
0000
0000
0100
0000
1000
0000
0100
0000
,
0001
0100
1000
0010
0100
0001
0010
0100
,
0010
0000
0001
0000
0100
0000
0000
0010
0000
0000
0001
0000
0010
0000
1000
0000
,
0100
1000
0010
0001
0010
1000
0100
0001
,
0100
0000
1000
0000
0010
0000
0000
0100
0000
0000
0001
0000
0010
0000
0100
0000
,
1000
0010
0100
0010
1000
0001
0110
0000
,
1110
0000
0111
0000
M100
0000
0001
0100
,
0010
0100
0001
1000
0010
0100
0010
1000
,
0100
0000
0010
0000
0001
0000
0000
0100
0000
0000
1000
0000
0100
0000
0001
0000
,
0010
0100
1000
0010
0100
0010
1000
0001
,
0100
0000
0010
0000
1000
0000
0000
0100
0000
0000
0001
0000
0100
0000
1000
0000
,
0010
0100
0001
1000
0010
1000
0010
0100
,
0001
0000
0010
0000
0100
0000
0000
0100
0000
0000
1000
0000
0010
0000
0100
0000
,
0010
1000
0001
0100
0010
0100
1001
0000
,
1101
0000
1011
0000
1111
0000
0010
1000
,
0010
0100
0001
0010
0100
0010
0002
0000
,
0200
0003
2000
0300
0000
0000
0200
3000
0000
0000
0000
0000
0020
0300
0000
0000
,
1030
0100
0010
0100
1000
0010
0100
0001
,
0010
0001
000M
0100
0000
1000
1100
0010
,
0001
0100
0010
0100
0001
1000
0200
1300
,
0020
0230
0301
0020
0130
1000
0020
0130
,
0001
0002
0013
0100
1000
0010
0110
0000
,
1010
1100
0010
2002
,
0000
3003
0000
0000
;
