#TITLE:espacio;
#SUBTITLE:Sora Kake Girl ED theme;
#ARTIST:ceui;
#TITLETRANSLIT:;
#SUBTITLETRANSLIT:;
#ARTISTTRANSLIT:;
#CREDIT:ALICE_;
#BANNER:espacio.png;
#BACKGROUND:espacio.jpg;
#LYRICSPATH:;
#CDTITLE:cdtitle.png;
#MUSIC:espacio.mp3;
#OFFSET:-0.640;
#SAMPLESTART:61.180;
#SAMPLELENGTH:12.000;
#SELECTABLE:YES;
#BPMS:0.000=134.000,221.000=134.020,222.500=134.020;
#STOPS:216.000=0.005
,217.000=0.005
,219.000=0.005
,220.000=0.010
;
#BGCHANGES:27.750=espacio.avi=1.000=1=0=1,
224.000=espacio.jpg=1.000=1=0=1,
99999=-nosongbg-=1.000=0=0=0 // don't automatically add -songbackground-
;
// cache tags:
#FIRSTBEAT:0.000;
#LASTBEAT:238.000;
#SONGFILENAME:Songs/alice 4th complete step/espacio/espacio.sm;
#HASMUSIC:1;
#HASBANNER:1;
#MUSICLENGTH:113.171;
// end cache tags

//---------------dance-single - ----------------
#NOTES:
     dance-single:
     :
     Hard:
     7:
     0.367,0.447,0.159,0.283,0.084,241.000,18.000,32.000,0.000,0.000:
0000
0000
0000
0000
,
0000
0000
0000
0000
,
0000
0000
0000
0000
,
0000
0000
0000
0000
,
0000
0000
0000
0000
,
0000
0000
0000
0000
,
0000
0000
0000
0000
,
2000
0000
3020
0230
,
0302
0000
0023
0230
,
2300
0000
3002
0203
,
0320
0000
0000
0000
,
2030
0000
0000
0000
,
3001
0000
0001
0000
,
1000
0000
1000
0000
,
0010
0000
0100
0000
,
0001
0000
1000
0000
,
0010
0100
0010
1000
0100
0010
0100
1000
,
0001
0100
0001
0010
0100
1000
0100
0010
,
0001
0000
0100
0000
1001
0100
0010
0000
,
1000
0100
0001
0100
1000
0010
0100
0001
,
2000
0000
0002
3003
,
0101
0000
0000
0100
0000
0000
0100
0000
0010
0000
0000
0000
1000
0000
0000
0000
,
1100
0000
0000
0100
0000
0000
0100
0000
0010
0000
0000
0000
0001
0000
0000
0000
,
1010
0000
0000
1000
0000
0000
1000
0000
0001
0000
0000
0000
0000
0000
0100
0000
,
0010
0000
0000
0010
0000
0000
0010
0000
1000
0000
0000
0000
0001
0000
0010
0000
,
0101
0001
0000
1000
0101
0001
0000
0010
,
1100
1000
0000
0001
1100
1000
0000
0010
,
0101
0010
0000
0001
1000
0000
0000
0010
,
1000
0100
0000
0010
1001
0000
0000
0000
,
0001
0000
0000
0100
0000
0000
0010
0000
1000
0000
0000
0010
0000
0000
0100
0000
,
0001
0000
0000
0010
0000
0000
0100
0000
1000
0000
0000
0000
0100
0000
0000
0000
,
0020
0000
0000
0000
0000
0000
0000
0030
,
0002
0000
2003
0000
,
3020
0000
0000
0000
0230
0000
0000
0300
,
1001
0000
0000
0100
0000
0000
0010
0000
0001
0000
0000
0000
0100
0000
0010
0000
,
1000
0000
0000
0001
0000
0000
0100
0000
0010
0000
0000
1000
0000
0000
0010
0000
,
0100
0000
0000
0100
0000
0000
0100
0000
1001
0000
0000
0001
0000
0000
1000
0000
,
0010
0000
0000
0010
0000
0000
0010
0000
0101
0000
0000
0000
1000
0000
0001
0000
,
0010
0000
0000
0100
0000
0000
0010
0000
0002
0000
0000
0000
0000
0000
0000
0000
,
1003
0000
0000
0010
0000
0000
0100
0000
0020
0000
0000
0000
0000
0000
0030
0000
,
1000
0000
0000
0001
0000
0000
1000
0000
0101
0000
0000
0001
0000
0000
0000
0000
,
1000
0000
0000
0010
0000
0000
0100
0000
1001
0000
0000
0100
0000
0000
0010
0000
,
0002
0003
0020
0030
0200
0300
2000
3000
,
0001
0100
0001
0100
0001
0010
0001
1000
,
0100
1000
0100
1000
0010
0100
0001
1000
,
0001
0010
0001
0100
0001
1000
0001
0100
,
0010
1000
0001
0100
0010
1000
0001
0010
,
0100
1000
0100
1000
0010
0100
0001
1000
,
0001
0100
0001
0100
0010
1000
0001
0010
,
0100
1000
0100
0001
0100
1000
0100
0010
,
0002
0103
2000
3100
,
0001
0010
1000
0010
0001
1000
0100
0010
,
0002
0103
2000
3100
,
0020
0130
0002
1003
,
1100
0010
0001
0101
0010
1000
0001
0100
,
0001
2002
0000
0000
0000
0000
0000
0000
,
0000
0000
0000
0000
,
0000
0000
0000
0000
,
0000
0000
0000
0000
,
0000
0000
3003
0000
;

//---------------dance-single - ----------------
#NOTES:
     dance-single:
     :
     Challenge:
     13:
     0.842,1.000,0.760,0.300,0.804,542.000,86.000,34.000,0.000,14.000:
0100
1000
0010
0100
0010
1000
0100
1000
0010
0000
0001
0000
1000
0000
0010
0000
,
0100
0001
0010
0001
0100
0010
0001
0010
0100
0000
0001
0000
1000
0000
0010
0000
,
0100
0001
0100
1000
0100
0010
1000
0100
0010
0000
0001
0000
1000
0000
0100
0000
,
0001
0010
0001
1000
0010
0100
0001
0000
1000
0000
0100
0000
0010
0000
0001
0000
,
0010
0001
0100
0010
0100
0001
0010
0001
0100
0000
1000
0000
0001
0000
0010
0000
,
0100
1000
0010
1000
0100
0010
1000
0010
0100
0000
1000
0000
0001
0000
0100
0000
,
0010
1000
0010
0001
0010
0100
0001
0010
0100
0000
1000
0000
0001
0000
0100
0010
,
2001
0100
0001
0010
3102
0000
2003
0000
,
3012
0100
1000
0010
2103
0000
3020
0000
,
2031
0100
0001
0010
3102
0000
2003
0100
,
3021
1000
0100
1000
0001
1000
0100
0031
,
1000
0100
1000
0010
0100
0000
0100
0000
0001
0000
1000
0000
0001
0000
1000
0000
,
0011
0000
0101
0000
,
0011
0000
1100
0000
,
1010
0000
0101
0000
,
1010
0000
1001
0000
,
0101
1000
0010
0001
1010
0100
0001
0010
,
0101
1000
0010
0100
1001
0100
0010
0001
,
1100
0010
0001
0010
0101
1000
0010
0001
,
0120
1000
0100
1000
0001
0100
0001
1030
,
0001
1000
0100
0010
2002
0000
0020
3003
,
0131
0000
0000
0011
0000
0000
0110
0000
1000
0100
1000
0001
0200
0000
0300
0000
,
1010
0000
0000
1100
0000
0000
0110
0000
1000
0010
1000
0001
0100
0010
1000
0000
,
0110
0000
0000
1010
0000
0000
0101
0000
1000
0001
0100
0010
1000
0000
0001
0000
,
1001
0000
0000
0011
0000
0000
0110
0000
0001
0010
0001
1000
0010
0100
0001
0010
,
1100
0000
1000
0100
0000
0000
0010
0000
1010
0000
1000
0010
0000
0000
0001
0000
,
1001
0000
1000
0001
0000
0000
0010
0000
1010
0000
1000
0010
0000
0000
0001
0000
,
0011
0000
0010
0001
0000
0000
0100
0000
0101
0000
0100
0001
0000
0000
1000
0000
,
1001
0000
1000
0001
0000
0000
0010
0000
1010
0000
1000
0010
0000
0000
0100
0000
,
1002
0000
0000
1000
0000
0000
1003
0000
1101
0000
0000
0000
0010
0000
1000
0000
,
0201
0000
0000
0001
0000
0000
0301
0000
2021
0000
0000
0000
0000
0000
3030
0000
,
0102
0000
0000
0100
0000
0000
0100
0000
2013
0000
0000
0000
0000
0000
3000
0000
,
0010
0001
0010
1000
0100
0010
1000
0100
1000
0010
0100
0001
,
1000
0010
1000
0001
0100
0010
0001
0100
0001
1000
0010
0100
,
0001
1000
0100
0010
0001
0100
1000
0010
0001
0100
1000
0100
0001
0010
0100
1000
,
0001
0010
0001
0100
0010
0001
0010
1000
0001
0010
0100
1000
0001
0100
1000
0010
,
0100
0001
1000
0100
0001
0010
1000
0001
0100
0010
1000
0001
0100
1000
0100
0010
,
1000
0001
0100
0001
1000
0010
0001
0010
1000
0100
0001
0100
0010
1000
0100
0010
,
1001
0000
0000
1000
0000
0000
1001
0000
0110
0000
0000
0000
0100
0000
0010
0000
,
1001
0000
0000
0001
0000
0000
1001
0000
0110
0000
0000
0000
2000
0000
0000
0000
,
3001
0000
0000
0100
0000
0000
1000
0000
0111
0000
0000
0000
1000
0000
0010
0000
,
0200
0000
0000
0001
0000
0000
1000
0000
0312
0000
0000
0000
0023
0000
2030
0000
,
3001
0100
0010
1000
0001
0010
0100
1000
0001
0100
0010
1000
0001
0010
0100
1000
,
0101
0000
0010
0010
1001
0000
0010
0000
0101
0000
0010
0010
1001
0000
0010
0000
,
1001
0000
0100
0100
1010
0000
0100
0000
1001
0000
0100
0100
1010
0000
0100
0000
,
0011
0000
1000
1000
0110
0000
1000
0000
0011
0000
1000
1000
0110
0000
1000
0000
,
0101
0000
0010
0010
1100
0000
0010
0000
0101
0000
0010
0010
1100
0000
0010
0000
,
1001
0100
1000
0010
1000
0100
0010
0001
0100
1000
0100
0010
1000
0100
0010
0001
,
0010
0100
0010
0001
0100
1000
0100
0010
0001
0100
0010
1000
0001
0010
0001
0100
,
2000
0010
0001
0010
0001
0100
0010
3001
0200
1000
0010
1000
0001
0010
1000
0310
,
1001
0100
0010
1000
0001
0010
0001
0100
0001
0010
0100
1000
0010
0100
1000
0100
,
0010
0001
1000
0100
0010
1000
0001
0010
0001
0100
0010
1000
0100
0010
1000
0001
,
0120
1000
0100
1000
0001
0100
1030
0100
0012
0100
0010
0100
1000
0100
0010
0103
,
2010
0001
0010
0001
0100
0001
3010
0001
1200
0010
1000
0010
0001
0010
1300
0010
,
1100
0000
0010
0100
1001
0000
0011
0000
0010
1000
0101
0000
1001
0000
0010
0000
,
1001
2112
0000
0000
0000
0000
0000
0000
,
0000
0000
0000
0000
,
0000
0000
0000
0000
,
0000
0000
0000
0000
,
0000
0000
3003
0000
;

//---------------dance-single - ----------------
#NOTES:
     dance-single:
     :
     Medium:
     5:
     0.284,0.368,0.053,0.088,0.000,209.000,6.000,10.000,0.000,0.000:
0000
0000
0000
0000
,
0000
0000
0000
0000
,
0000
0000
0000
0000
,
0000
0000
0000
0000
,
0000
0000
0000
0000
,
0000
0000
0000
0000
,
0000
0000
0000
0000
,
1000
0000
0001
1000
,
0100
0000
0010
0001
,
0100
0000
0010
1000
,
0200
0000
0000
0000
,
0310
0000
0000
0000
,
1000
0000
0100
0000
,
0001
0000
0100
0000
,
1000
0000
0010
0000
,
0001
0000
1000
0000
,
0001
0010
0001
0000
0100
0000
0000
0000
,
1000
0010
1000
0000
0100
0000
0000
0000
,
1000
0010
0100
0000
0001
0000
0000
0000
,
0001
0010
0100
0000
1000
0000
0000
0000
,
0020
0000
0000
0000
0200
0000
0000
0330
,
1001
0000
1000
0100
1000
0000
0010
0000
,
1000
0000
0001
0100
0001
0000
0010
0000
,
0100
0000
1000
0010
1000
0000
0010
0000
,
0100
0000
0001
0010
0001
0000
1000
0000
,
0010
0100
0010
0000
1000
0100
1000
0000
,
0010
0100
0001
0000
1000
0100
1000
0000
,
0010
0100
0010
0000
0001
0100
0001
0000
,
0100
0010
1000
0000
0001
0010
0001
0000
,
1001
0100
0010
1000
,
0002
0000
0000
0003
0200
0000
0000
0300
,
0020
0000
0000
0030
,
1000
0100
0001
0100
,
1000
0010
0001
0010
,
1000
0000
0100
1000
0010
0000
0100
0000
,
0010
0000
1000
0100
0010
0000
0100
0000
,
1000
0000
0010
0100
1000
0000
0100
0000
,
0010
0000
1000
0001
0100
0000
0010
0000
,
0100
0000
0001
0010
0100
0000
0010
0000
,
0001
0000
0100
0010
0001
0000
0010
0000
,
0001
0000
0010
0100
0001
0000
0010
0000
,
0200
1300
0020
0130
,
0001
0010
0100
1000
,
0001
0100
0001
0000
0001
0100
0001
0000
,
0001
0100
0001
0000
1000
0010
0100
0000
,
1000
0100
1000
0000
1000
0100
1000
0000
,
1000
0100
1000
0000
0001
0010
0100
0000
,
1000
0010
0001
0000
0001
0010
1000
0000
,
1000
0010
0001
0000
0001
0010
1000
0000
,
0100
0110
0001
1001
,
0102
0010
0100
0013
,
1000
0100
0010
0100
1000
0100
0010
0000
,
0001
0100
1000
0000
1000
0100
0001
0000
,
1000
0100
0010
0000
0001
0100
0010
0000
,
1100
0000
0001
0100
0000
0010
1000
0000
,
0100
0020
0000
0000
0000
0000
0000
0000
,
0000
0000
0000
0000
,
0000
0000
0000
0000
,
0000
0000
0000
0000
,
0000
0000
0030
0000
;

//---------------dance-single - ----------------
#NOTES:
     dance-single:
     :
     Easy:
     2:
     0.155,0.223,0.044,0.159,0.000,100.000,5.000,18.000,0.000,0.000:
0000
0000
0000
0000
,
0000
0000
0000
0000
,
0000
0000
0000
0000
,
0000
0000
0000
0000
,
0000
0000
0000
0000
,
0000
0000
0000
0000
,
0000
0000
0000
0000
,
1000
0000
0001
0000
,
1000
0000
0100
0000
,
0010
0000
0001
0000
,
0100
0000
0000
0000
,
0020
0000
0000
0030
,
1000
0000
1000
0000
,
0001
0000
0001
0000
,
0100
0000
0100
0000
,
0010
0000
1000
0000
,
0002
0000
1003
0000
,
2000
0000
3010
0000
,
0200
0000
0301
0000
,
0020
0000
0000
0030
,
0100
0000
0000
0000
,
1000
0000
1010
0000
,
0001
0000
0011
0000
,
1000
0000
1100
0000
,
0001
0000
0101
0000
,
0010
0000
0010
0000
,
0100
0000
0100
0000
,
0010
0000
0010
0000
,
0001
0000
1000
0000
,
0020
0000
0000
0030
,
0200
0000
0000
0300
,
0002
0000
0000
0003
,
2000
3000
2000
3000
,
0020
0030
0200
0300
,
0001
0001
0010
0000
,
1000
1000
0010
0000
,
0100
0100
0001
0000
,
1000
1000
0100
0000
,
0010
0000
0001
0000
,
0010
0000
1000
0000
,
0100
0000
0010
0000
,
0200
0000
0000
0300
,
1000
0010
0100
0001
,
1000
1000
0010
0000
,
0001
0001
0100
0000
,
0010
0010
0100
0000
,
1000
1000
0001
0000
,
0100
0000
0010
0000
,
1000
0000
0001
0000
,
0010
0000
0110
0000
,
0100
0000
1000
0000
,
0010
0000
0100
0000
,
0002
0003
2000
3000
,
0020
0030
0200
0300
,
0001
0000
0000
0100
0000
0000
1000
0000
,
0000
0020
0000
0000
0000
0000
0000
0000
,
0030
0000
0000
0000
;
