#TITLE:Mirai no Kioku;
#SUBTITLE:- Kiddy Grade Opening;
#ARTIST:Yuka;
#TITLETRANSLIT:;
#SUBTITLETRANSLIT:;
#ARTISTTRANSLIT:;
#CREDIT:;
#BANNER:Mirai no Kioku banner.png;
#BACKGROUND:Mirai no Kioku-bg.png;
#LYRICSPATH:;
#CDTITLE:KOA_cdtitle.png;
#MUSIC:Mirai no Kioku (TV Size).mp3;
#OFFSET:-0.680;
#SAMPLESTART:23.712;
#SAMPLELENGTH:15.700;
#SELECTABLE:YES;
#BPMS:0.000=125.020;
#STOPS:;
#BGCHANGES:0.000=Kiddy Grade OP.avi=1.000=1=0=0,
183.500=Mirai no Kioku-bg.png=1.000=1=0=0,
99999=-nosongbg-=1.000=0=0=0 // don't automatically add -songbackground-
;
// cache tags:
#FIRSTBEAT:0.000;
#LASTBEAT:183.500;
#SONGFILENAME:Songs/Otaku's Dream 1st Anime Mix/koa5001 - Mirai no Kioku (Kiddy Grade)/Mirai no Kioku.sm;
#HASMUSIC:1;
#HASBANNER:1;
#MUSICLENGTH:90.432;
// end cache tags

//---------------dance-single - ----------------
#NOTES:
     dance-single:
     :
     Hard:
     8:
     0.567,0.558,0.310,0.553,0.166,281.000,28.000,50.000,0.000,0.000:
0001
0000
0010
0000
0100
0000
1000
0010
0000
0000
0100
0000
0000
0000
0000
0000
,
0002
0000
2000
3003
,
0010
0000
1000
0000
0100
0000
0010
0001
0000
0000
2000
0000
0000
0000
0000
0010
,
0000
0000
0010
0000
0000
0000
0000
0001
0000
0000
0001
0000
3000
0000
0000
0000
,
1000
0000
0010
0000
0100
0000
0010
1000
0000
0000
0001
0000
0000
0000
0000
0000
,
0020
0000
0200
0330
,
0010
0000
0001
0000
0100
0000
0010
0100
0000
0000
0001
0000
0000
0000
0000
0000
,
1000
0010
0000
1000
0001
0000
1000
0100
0000
1000
0001
0000
0100
0000
0010
0000
,
1001
0000
0010
0000
0001
0000
0100
0000
0010
0000
1000
0001
0000
0000
0200
0000
,
0300
0000
0001
0000
1000
0000
0100
0000
0001
0000
0100
1000
0000
0000
0000
0000
,
0001
0000
0000
0100
0000
0000
1000
0000
0200
0000
0300
0000
0001
0000
2000
0000
,
0000
0000
0000
3000
,
0010
1000
0100
0010
0022
0033
0100
0202
,
0303
0000
0010
0000
1000
0000
0001
0000
2000
0000
0000
0000
0020
3030
0000
0000
,
1000
0001
0010
0100
2200
3300
0010
0001
,
0011
0001
1001
1000
1010
0010
0100
0010
,
1000
0100
1000
0010
2020
3030
0100
0202
,
0303
0010
0001
0100
0010
0000
0100
0001
,
2000
0000
0000
0000
3010
0000
0000
0100
0001
0000
1000
0000
0100
0000
0020
0000
,
0001
0000
0000
0001
0000
0000
0031
0000
0000
0000
1000
0100
1000
0000
0001
0000
,
1000
0010
0001
0010
2020
3030
0100
2200
,
3300
0000
0010
0000
0001
0000
1000
0000
0002
0000
0000
0000
0200
0303
0000
0000
,
0001
0010
1000
0010
0022
0033
0100
1000
,
1100
1000
1001
0001
0101
1000
0100
1000
,
0001
0100
1000
0100
0202
0303
1000
2200
,
3300
0010
0001
1000
0001
0000
0100
0010
,
2000
0000
0000
0000
3001
0000
0000
1000
0100
0000
0010
0000
0001
0000
0200
0000
,
0010
0000
0000
0010
0000
0000
0001
0000
0000
0001
0000
0000
0310
0000
0000
0000
,
2000
3000
0001
0010
0100
1000
0010
0200
,
0000
0300
0001
2000
3000
0100
1000
0000
,
0001
0000
0000
0010
0000
0000
1000
0000
0010
0000
0000
0000
0002
0000
0000
2000
,
0000
0000
0000
3003
0000
0100
0010
0100
,
1000
0000
0000
0001
0000
0000
0002
0000
0000
0000
0000
0000
0000
0000
0003
0000
,
1000
0010
1000
0100
1000
0010
0100
0001
,
0010
0000
0000
0100
0000
0000
0200
0000
0000
0000
0300
0000
1000
0000
0010
0000
,
1010
1000
1001
0100
0110
0010
0011
0001
,
1001
0000
0000
0000
0010
0000
0000
1000
0001
0000
1000
0000
0100
0000
2000
0000
,
3000
0000
0001
0000
0020
0000
0000
0000
0130
0000
0000
0000
1000
0000
0001
0100
,
0001
0000
0000
0000
1000
0000
0000
0010
1000
0000
0001
0000
1000
0000
0100
0000
,
0001
0100
1000
0020
0030
0100
0001
0010
,
0011
0000
0000
0000
1100
0000
0000
0010
0100
0000
0010
0000
1000
0000
0002
0000
,
0003
0000
0010
0000
0200
0000
0000
0000
1300
0000
0000
0000
0001
0000
1000
0010
,
1000
0000
0000
0000
0001
0000
0000
0010
0001
0000
1000
0000
0001
0000
0100
0000
,
1000
0100
0001
0010
0200
0000
2000
3300
,
0010
0010
0100
0100
0001
0001
1000
1000
,
0010
0000
1001
0000
0110
0000
1001
0000
0010
0000
1000
0001
0000
0000
1001
0000
;

//---------------dance-single - ----------------
#NOTES:
     dance-single:
     :
     Medium:
     6:
     0.485,0.457,0.464,0.000,0.083,265.000,42.000,0.000,0.000,0.000:
1000
0000
0000
1000
0000
0000
0010
0000
0000
0010
0000
0000
1000
0000
0100
0000
,
0110
0000
0000
0010
0000
0000
0100
0000
0000
0100
0000
0000
0010
0000
0001
0000
,
0011
0000
0000
0001
0000
0000
0100
0000
0000
0100
0000
0000
0001
0000
1000
0000
,
1100
0000
0000
0100
0000
0000
1000
0000
0000
1000
0000
0000
0010
0000
0100
0000
,
1001
0000
0000
1000
0000
0000
0010
0000
0000
0010
0000
0000
1000
0000
0001
0000
,
0101
0000
0000
0001
0000
0000
0010
0000
0000
0010
0000
0000
0100
0000
1000
0000
,
1010
0000
0000
0010
0000
0000
1000
0000
0000
1000
0000
0000
0001
0000
0100
0000
,
0001
0010
0100
1000
0010
0100
0001
1000
,
0100
0000
1100
0000
0010
0001
1000
0001
,
0100
0000
0101
0000
1000
0100
0001
0100
,
1000
0000
1010
0000
0100
0001
1000
0100
,
0010
0000
0011
0000
0001
0100
1000
0100
,
0001
0000
1001
0000
0010
0000
1000
0100
,
1000
0000
0101
0000
1000
0000
0001
0010
,
0001
0000
1010
0000
0100
0000
0001
1000
,
0001
0000
0110
0000
1000
0010
1000
0001
,
0100
0000
0011
0000
0001
0000
1000
0010
,
1000
0000
0101
0000
0010
0000
0001
0100
,
0001
0000
1010
0000
0001
0000
0010
0100
,
0010
0000
1001
0000
0010
0100
0001
1000
,
0001
0000
1100
0000
0010
0000
0100
0001
,
0010
0000
0110
0000
0001
0000
1000
0010
,
0100
0000
1001
0000
0010
0000
0100
0010
,
1000
0000
0101
0000
1000
0100
0010
0001
,
0100
0000
0110
0000
0001
0000
1000
1000
,
1000
0000
1010
0000
0100
0000
0010
0010
,
0010
0000
0011
0000
1000
0000
0001
0001
,
0001
0000
0101
0000
0010
0000
0100
0100
,
0100
0000
1000
0000
0001
0100
0010
0100
,
0001
0000
1000
0000
0010
1000
0001
1000
,
0100
0000
1000
0000
0001
0010
0100
1000
,
0010
0000
0100
0000
0001
0010
1000
0010
,
0001
0000
0100
0000
0010
1000
0100
0010
,
0100
0000
1000
0000
0001
0100
1000
0100
,
0001
0000
1000
0000
0100
0010
0001
0100
,
0110
1001
0110
1001
,
0010
0000
0010
0000
1000
0100
1000
0010
,
0100
0000
0100
0000
0001
0010
0100
0010
,
0001
0000
0001
0000
1000
0010
0001
0010
,
1000
0100
0001
0100
1000
0010
0100
0001
,
0101
0000
0101
0000
0010
1000
0001
0010
,
0011
0000
0011
0000
0100
1000
0010
1000
,
1010
0000
1010
0000
0100
0001
0010
1000
,
0010
0001
0100
1000
0100
0001
0010
0100
,
1000
1000
0001
0001
,
0000
0000
1100
0000
1001
0000
0101
0000
1001
0000
0000
0110
0000
0000
1001
0000
;

//---------------dance-single - ----------------
#NOTES:
     dance-single:
     :
     Easy:
     3:
     0.242,0.228,0.066,0.088,0.006,139.000,6.000,8.000,0.000,0.000:
2000
0000
0000
3000
,
0002
0000
0000
0003
,
0200
0000
0000
0300
,
0020
0000
0000
0030
,
1000
1000
1000
0000
,
0001
0001
0001
0000
,
0010
0010
0010
0000
,
0100
0100
0100
0100
,
2000
0000
0000
3000
,
0002
0000
0000
0003
,
2000
0000
0000
3000
,
0002
0000
0000
0003
,
0100
0100
0100
0000
,
0100
0100
0100
0000
,
0010
0010
0010
0000
,
0010
0010
1000
0001
,
1000
1000
1000
0000
,
1000
1000
1000
0000
,
0001
0001
0001
0000
,
0001
0001
0100
0010
,
0100
0100
0110
0000
,
0010
0010
0110
0000
,
0100
0100
0110
0000
,
0010
0010
1000
0001
,
1000
1000
1001
0000
,
0001
0001
1001
0000
,
1000
1000
1001
0000
,
0001
0001
0100
0010
,
1000
0100
0001
0100
,
1000
0100
0001
0100
,
1000
0010
0001
0010
,
1000
0010
0001
0010
,
1000
0001
0100
0100
,
0010
1000
0001
0001
,
0010
0100
1000
1000
,
0001
1000
0001
1000
,
0010
0010
0010
0000
,
1000
0100
0010
0001
,
0100
0100
0100
0000
,
0010
1000
0001
0100
,
0001
0001
0001
0000
,
0010
0100
1000
0010
,
1000
1000
1000
0000
,
0010
0100
0001
1000
,
0001
0000
1000
0000
,
0010
0000
0000
0000
0000
0000
0000
0000
0100
0000
0000
0100
0000
0000
0100
0000
;
