#TITLE:Rareheroes;
#SUBTITLE:Oh Henry!;
#ARTIST:Sanodg;
#TITLETRANSLIT:;
#SUBTITLETRANSLIT:;
#ARTISTTRANSLIT:;
#CREDIT:;
#BANNER:../Fallback-Ban.png;
#BACKGROUND:../Fallback-BG.png;
#LYRICSPATH:;
#CDTITLE:../~CDTitle-@@.png;
#MUSIC:Sanodg - Rareheroes.ogg;
#OFFSET:-9.695;
#SAMPLESTART:106.618;
#SAMPLELENGTH:18.462;
#SELECTABLE:YES;
#BPMS:0.000=208.000;
#STOPS:;
#BGCHANGES:;
// cache tags:
#FIRSTBEAT:0.000;
#LASTBEAT:663.500;
#SONGFILENAME:Songs/Oh Henry! Mad Stamina/Rareheroes (18-)/Rareheroes.sm;
#HASMUSIC:1;
#HASBANNER:1;
#MUSICLENGTH:203.598;
// end cache tags

//---------------dance-single - @@----------------
#NOTES:
     dance-single:
     @@:
     Challenge:
     18:
     1.000,1.000,0.000,1.000,1.000,2617.000,0.000,529.000,0.000,0.000:
1000
0000
1000
0000
0000
1000
0000
0000
1000
0000
0001
0100
0010
1000
0100
0000
,
1000
0000
1000
0000
0000
1000
0000
0000
1000
0000
0001
0100
0010
1000
0100
0000
,
1000
0001
0010
0100
1000
0100
0010
0001
1000
0100
1000
0001
0010
0001
0100
0010
,
1000
0001
0100
0001
1000
0010
1000
0001
0100
0010
0100
0001
0010
0100
1000
0010
,
0100
0001
0010
0100
1000
0001
0010
0001
1000
0100
1000
0001
0010
0100
0010
0001
,
0100
0001
0010
0100
1000
0001
0010
0100
0010
0001
1000
0100
0010
0001
1000
0100
,
1000
0010
0100
0001
1000
0010
0100
0010
1000
0001
0100
0001
1000
0010
0100
0001
,
0010
0001
0100
0010
1000
0001
0100
0001
1000
0010
1000
0001
0100
0001
1000
0010
,
1000
0100
0010
0001
1000
0100
1000
0001
0100
0010
1000
0001
1000
0100
0010
0100
,
1000
0010
0100
0001
0100
0010
1000
0001
0010
0100
1000
0001
0100
0010
0100
0001
,
0010
0100
1000
0001
0010
0001
1000
0010
0100
0010
1000
0001
1000
0100
0010
0001
,
0100
0010
1000
0001
0100
0001
1000
0100
0010
0100
1000
0001
1000
0010
0100
0010
,
1000
0100
1000
0100
0010
0001
1000
0010
0100
0001
0100
0001
1000
0100
0010
0001
,
0100
0010
0100
0010
1000
0001
0010
0100
1000
0001
1000
0001
0100
0010
0100
0001
,
0010
0100
0010
0100
1000
0001
1000
0010
0100
0001
0100
0001
1000
0100
0010
0100
,
1000
0010
0100
0001
1000
0100
0010
0100
1000
0001
0100
0001
1000
0100
0010
0001
,
0100
0001
1000
0010
1000
0001
0010
0100
1000
0001
0010
0001
1000
0010
1000
0001
,
0100
0010
0100
0010
1000
0001
1000
0100
0010
0001
0010
0001
1000
0010
0100
0010
,
1000
0100
0010
0001
1000
0010
0100
0010
1000
0001
0010
0001
1000
0010
0100
0001
,
0010
0001
1000
0100
1000
0001
0100
0010
1000
0010
0100
0001
0010
0001
1000
0001
,
1000
0010
0100
0001
1000
0010
1000
0001
0010
0100
1000
0001
0010
0100
0010
0001
,
0100
0001
0010
0100
1000
0001
0100
0010
1000
0001
0100
0001
1000
0010
1000
0001
,
0010
0100
1000
0001
0100
0010
0100
0010
1000
0001
0010
0100
0010
0100
1000
0001
,
0100
0010
0100
0010
1000
0001
1000
0100
0010
0001
0100
0001
1000
0010
1000
0001
,
0100
0010
1000
0001
0010
0100
0010
0100
1000
0001
0100
0010
0100
0010
1000
0001
,
0010
0100
0010
0100
1000
0001
1000
0010
0100
0001
0010
0001
1000
0010
1000
0001
,
0100
0010
0100
0001
1000
0100
1000
0100
0010
0001
1000
0010
1000
0010
0100
0001
,
1000
0100
1000
0100
0010
0001
1000
0001
0100
0010
1000
0100
1000
0001
1000
0001
,
0010
0100
0010
0001
1000
0010
1000
0010
0100
0001
1000
0100
1000
0100
0010
0001
,
1000
0010
1000
0010
0100
0001
1000
0001
0010
0100
1000
0010
1000
0001
0010
0100
,
1000
0001
1000
0100
0010
0001
0010
0001
1000
0010
0100
0001
0100
0001
1000
0100
,
0010
0001
0010
0001
1000
0100
1000
0001
0100
0010
1000
0100
1000
0001
0100
0010
,
1000
0001
1000
0010
0100
0001
0100
0001
1000
0100
0010
0001
0010
0001
1000
0010
,
0100
0001
0100
0001
1000
0010
1000
0001
0010
0100
1000
0010
1000
0001
0010
0001
,
1000
0010
1000
0001
0010
0100
0010
0100
1000
0001
0100
0010
0100
0010
1000
0001
,
0010
0100
0010
0100
1000
0001
0100
0010
0100
0001
1000
0100
1000
0001
1000
0001
,
0010
0100
1000
0001
1000
0010
0100
0001
1000
0100
0010
0001
0100
0010
1000
0010
,
1000
0001
0100
0010
0100
0001
1000
0010
1000
0001
0010
0001
1000
0001
0100
0001
,
0010
0100
1000
0001
1000
0010
0100
0010
1000
0100
0010
0001
0100
0010
1000
0010
,
1000
0001
0100
0010
0100
0001
1000
0010
1000
0100
0010
0001
1000
0010
0100
0010
,
1000
0001
0010
0100
0010
0001
1000
0010
0100
0001
1000
0010
1000
0100
0010
0100
,
0010
0001
1000
0010
0100
0010
1000
0001
0010
0100
1000
0001
0010
0100
0010
0001
,
0100
0010
1000
0001
0100
0001
1000
0100
1000
0001
0100
0010
1000
0010
0100
0001
,
0010
0001
1000
0010
1000
0001
0100
0010
1000
0100
1000
0100
0010
0001
0010
0100
,
1000
0001
0100
0010
0100
0001
1000
0100
0010
0001
1000
0100
1000
0010
0100
0010
,
0100
0001
1000
0100
1000
0001
0100
0001
1000
0100
1000
0001
0100
0010
1000
0001
,
0010
0100
1000
0001
0010
0001
1000
0010
1000
0001
0010
0100
0010
0001
0100
0001
,
0100
0010
1000
0001
1000
0100
0010
0100
1000
0010
1000
0001
0100
0001
1000
0100
,
0010
0001
1000
0100
1000
0001
0100
0010
0100
0001
1000
0010
1000
0100
0010
0100
,
0010
0001
1000
0100
0010
0001
1000
0100
1000
0001
0100
0001
1000
0001
0010
0001
,
1000
0010
0100
0010
1000
0001
1000
0100
0010
0100
1000
0001
0100
0010
0100
0001
,
1000
0001
0010
0100
1000
0100
0010
0001
1000
0010
1000
0010
0100
0001
0100
0001
,
0010
0100
1000
0001
0010
0100
0010
0001
0100
0010
0100
0010
1000
0001
0100
0001
,
1000
0100
0010
0100
1000
0001
0010
0100
1000
0010
1000
0010
0100
0001
1000
0100
,
1000
0001
0100
0010
1000
0001
0100
0001
0010
0100
0010
0100
1000
0001
0010
0001
,
0100
0010
1000
0001
0010
0100
0010
0001
1000
0010
0100
0001
0010
0100
1000
0001
,
0100
0010
1000
0001
0100
0010
0100
0001
0010
0100
0010
0100
1000
0001
0010
0001
,
1000
0010
0100
0010
1000
0001
0100
0010
1000
0100
1000
0100
0010
0001
1000
0010
,
1000
0001
0010
0100
1000
0001
0010
0001
0100
0010
1000
0010
0100
0001
1000
0001
,
0010
0100
1000
0001
0100
0010
0100
0001
1000
0100
0010
0001
0100
0010
1000
0001
,
0010
0100
0010
0001
1000
0100
0010
0001
1000
0010
1000
0010
0100
0001
1000
0100
,
0010
0001
0010
0100
1000
0001
1000
0010
0100
0001
0100
0001
1000
0010
0100
0001
,
1000
0100
0010
0100
1000
0001
0010
0001
0100
0010
1000
0010
0100
0001
1000
0001
,
0010
0100
0010
0001
0100
0010
0100
0001
1000
0100
1000
0001
0100
0010
1000
0001
,
0010
0100
0010
0001
1000
0010
0100
0001
1000
0100
1000
0100
0010
0001
1000
0010
,
0100
0001
1000
0001
0010
0100
0010
0001
1000
0010
0100
0010
1000
0001
1000
0100
,
0010
0001
1000
0100
1000
0001
0100
0010
0100
0001
1000
0010
1000
0001
0100
0001
,
0010
0100
0010
0100
1000
0001
1000
0001
0100
0010
0100
0010
1000
0010
0100
0001
,
0100
0010
1000
0001
1000
0100
0010
0001
1000
0010
0100
0001
0010
0100
1000
0100
,
1000
0001
0010
0100
0010
0001
1000
0100
1000
0001
0010
0100
1000
0010
1000
0001
,
1000
0010
0100
0001
1000
0100
0010
0100
1000
0010
0100
0001
0010
0100
1000
0100
,
1000
0001
0010
0100
0010
0001
1000
0100
1000
0010
0100
0001
1000
0100
0010
0100
,
1000
0001
0100
0010
0100
0001
1000
0100
0010
0001
1000
0100
1000
0010
0100
0010
,
0100
0001
1000
0100
0010
0100
1000
0001
0100
0010
1000
0001
0100
0010
0100
0001
,
0010
0100
1000
0001
0010
0001
1000
0010
1000
0001
0010
0100
1000
0100
0010
0001
,
0100
0001
1000
0100
1000
0001
0010
0100
1000
0010
1000
0010
0100
0001
0100
0010
,
1000
0001
0010
0100
0010
0001
1000
0010
0100
0001
1000
0010
1000
0100
0010
0100
,
0010
0001
1000
0010
1000
0001
0010
0001
1000
0010
1000
0001
0010
0100
1000
0001
,
0100
0010
1000
0001
0100
0001
1000
0100
1000
0001
0100
0010
0100
0001
0010
0001
,
0010
0100
1000
0001
1000
0010
0100
0010
1000
0100
1000
0001
0010
0001
1000
0010
,
0100
0001
1000
0010
1000
0001
0010
0100
0010
0001
1000
0100
1000
0010
0100
0010
,
0100
0001
1000
0010
0100
0001
1000
0010
1000
0001
0010
0100
1000
0001
0100
0001
,
1000
0100
0010
0100
1000
0001
1000
0010
0100
0010
1000
0001
0010
0100
0010
0001
,
1000
0001
0100
0010
1000
0010
0100
0001
1000
0100
1000
0100
0010
0001
0010
0001
,
0100
0010
1000
0001
0100
0010
0100
0001
0010
0100
0010
0100
1000
0001
0010
0001
,
0100
0010
0100
0010
1000
0001
0100
0010
1000
0100
1000
0100
0010
0001
1000
0010
,
1000
0001
0010
0100
1000
0001
0010
0001
0100
0010
0100
0010
1000
0001
0100
0010
,
1000
0100
1000
0100
0010
0001
0100
0001
1000
0100
0010
0001
0100
0010
1000
0001
,
0010
0100
1000
0001
0010
0100
0010
0001
0100
0010
0100
0010
1000
0001
0100
0001
,
1000
0100
0010
0100
1000
0001
0010
0100
1000
0010
1000
0010
0100
0001
1000
0100
,
1000
0001
0100
0010
1000
0001
0100
0001
0010
0100
1000
0100
0010
0001
1000
0001
,
0100
0010
1000
0001
0010
0100
0010
0001
1000
0010
0100
0001
0010
0100
1000
0010
,
0100
0001
0100
0001
0010
0100
0010
0100
1000
0010
1000
0010
0100
0001
1000
0001
,
0010
0100
0010
0100
1000
0001
1000
0001
0010
0100
0010
0100
1000
0001
0010
0001
,
1000
0010
1000
0010
0100
0001
0100
0001
1000
0100
1000
0100
0010
0001
0010
0001
,
0100
0010
0100
0010
1000
0001
1000
0001
0010
0100
0010
0100
1000
0001
0010
0001
,
1000
0010
0100
0001
0010
0100
0010
0100
1000
0010
0100
0001
0100
0001
0010
0100
,
1000
0001
1000
0001
0010
0100
1000
0001
0010
0001
0100
0010
1000
0100
1000
0001
,
0010
0100
0010
0001
1000
0010
0100
0010
1000
0001
1000
0001
0010
0100
0010
0001
,
1000
0100
1000
0001
0100
0010
1000
0010
0100
0001
1000
0100
0010
0001
0010
0001
,
0200
0300
0020
0030
2000
3000
0002
0003
0200
0300
0002
0003
2000
3000
0020
0030
2000
3000
0002
0003
2000
3000
0200
0300
0020
0030
0002
0003
0020
0030
0200
0300
,
2000
3000
0002
0003
0020
0030
0002
0003
2000
3000
0020
0030
0200
0300
0020
0030
2000
3000
0002
0003
0200
0300
0002
0003
2000
3000
0020
0030
2000
3000
0002
0003
,
0020
0030
0002
0003
2000
3000
0200
0300
0020
0030
0002
0003
2000
3000
0200
0300
2000
3000
0002
0003
0200
0300
0002
0003
2000
3000
0020
0030
0200
0300
0002
0003
,
2000
3000
0200
0300
0020
0030
0200
0300
2000
3000
0002
0003
0020
0030
0200
0300
2000
3000
0002
0003
0200
0300
0020
0030
2000
3000
0002
0003
0200
0300
0002
0003
,
2000
3000
0200
0300
0020
0030
0200
0300
2000
3000
0002
0003
0020
0030
0200
0300
2000
3000
0002
0003
0020
0030
0002
0003
2000
3000
0020
0030
0200
0300
0020
0030
,
2000
3000
0002
0003
0200
0300
0020
0030
2000
3000
0002
0003
0200
0300
0002
0003
2000
3000
0200
0300
0020
0030
0200
0300
2000
3000
0002
0003
0020
0030
0200
0300
,
2000
3000
0002
0003
0020
0030
0002
0003
2000
3000
0020
0030
0200
0300
0020
0030
2000
3000
0002
0003
0200
0300
0002
0003
2000
3000
0020
0030
2000
3000
0002
0003
,
0020
0030
0200
0300
0020
0030
0002
0003
2000
3000
0200
0300
0020
0030
0002
0003
2000
3000
0200
0300
2000
3000
0002
0003
0200
0300
0020
0030
2000
3000
0002
0003
,
0020
0030
0200
0300
0020
0030
0002
0003
2000
3000
0200
0300
2000
3000
0002
0003
0020
0030
0002
0003
2000
3000
0020
0030
0200
0300
0020
0030
2000
3000
0002
0003
,
0200
0300
0002
0003
2000
3000
0002
0003
0020
0030
0200
0300
2000
3000
0002
0003
0020
0030
0200
0300
0020
0030
0002
0003
2000
3000
0200
0300
2000
3000
0002
0003
,
0200
0300
0020
0030
2000
3000
0002
0003
0200
0300
0002
0003
2000
3000
0020
0030
2000
3000
0002
0003
0020
0030
0200
0300
0020
0030
0002
0003
2000
3000
0200
0300
,
2000
3000
0002
0003
0200
0300
0020
0030
2000
3000
0002
0003
0200
0300
0002
0003
2000
3000
0200
0300
0020
0030
0200
0300
2000
3000
0002
0003
0020
0030
0200
0300
,
2000
3000
0002
0003
0200
0300
0020
0030
2000
3000
0002
0003
0200
0300
0002
0003
2000
3000
0020
0030
2000
3000
0002
0003
0200
0300
0020
0030
0200
0300
0002
0003
,
2000
3000
0200
0300
2000
3000
0002
0003
0020
0030
0002
0003
2000
3000
0200
0300
2000
3000
0002
0003
0020
0030
0200
0300
2000
3000
0002
0003
0200
0300
0020
0030
,
2000
3000
0002
0003
0200
0300
0002
0003
2000
3000
0020
0030
0200
0300
0002
0003
2000
3000
0200
0300
0020
0030
0200
0300
2000
3000
0002
0003
0020
0030
0002
0003
,
2000
3000
0200
0300
0020
0030
0002
0003
2000
3000
0020
0030
0200
0300
0020
0030
2000
3000
0002
0003
0200
0300
0020
0030
2000
3000
0002
0003
0200
0300
0002
0003
,
2000
3000
0200
0300
2000
3000
0002
0003
0020
0030
0002
0003
2000
3000
0200
0300
2000
3000
0002
0003
2000
3000
0020
0030
0200
0300
0002
0003
0200
0300
0020
0030
,
2000
3000
0002
0003
0200
0300
0002
0003
2000
3000
0200
0300
0020
0030
0200
0300
2000
3000
0002
0003
0020
0030
0002
0003
2000
3000
0200
0300
2000
3000
0002
0003
,
0200
0300
0002
0003
2000
3000
0020
0030
0200
0300
0002
0003
2000
3000
0020
0030
2000
3000
0002
0003
0020
0030
0002
0003
2000
3000
0200
0300
0020
0030
0002
0003
,
2000
3000
0020
0030
0200
0300
0020
0030
2000
3000
0002
0003
0200
0300
0020
0030
2000
3000
0002
0003
0020
0030
0200
0300
2000
3000
0002
0003
0020
0030
0002
0003
,
2000
3000
0020
0030
0200
0300
0020
0030
2000
3000
0002
0003
0200
0300
0020
0030
2000
3000
0002
0003
0200
0300
0002
0003
2000
3000
0200
0300
0020
0030
0200
0300
,
2000
3000
0002
0003
0020
0030
0200
0300
2000
3000
0002
0003
0020
0030
0002
0003
2000
3000
0020
0030
0200
0300
0020
0030
2000
3000
0002
0003
0200
0300
0020
0030
,
2000
3000
0002
0003
0200
0300
0002
0003
2000
3000
0200
0300
0020
0030
0200
0300
2000
3000
0002
0003
0020
0030
0002
0003
2000
3000
0200
0300
2000
3000
0002
0003
,
0200
0300
0020
0030
0200
0300
0002
0003
2000
3000
0020
0030
0200
0300
0002
0003
2000
3000
0020
0030
2000
3000
0002
0003
0020
0030
0200
0300
2000
3000
0002
0003
,
0200
0300
0020
0030
0200
0300
0020
0030
2000
3000
0200
0300
2000
3000
0002
0003
0200
0300
0020
0030
0200
0300
0020
0030
2000
3000
0002
0003
0200
0300
0002
0003
,
0020
0030
0200
0300
0020
0030
0200
0300
2000
3000
0020
0030
2000
3000
0002
0003
0020
0030
0200
0300
0020
0030
0200
0300
2000
3000
0002
0003
0020
0030
0002
0003
,
0200
0300
0020
0030
0200
0300
0020
0030
2000
3000
0200
0300
2000
3000
0002
0003
0200
0300
0020
0030
0200
0300
0020
0030
2000
3000
0002
0003
0200
0300
0002
0003
,
0020
0030
0200
0300
0020
0030
0200
0300
2000
3000
0020
0030
2000
3000
0002
0003
0020
0030
0200
0300
0020
0030
0200
0300
2000
3000
0002
0003
0020
0030
0002
0003
,
2000
3000
0002
0003
0020
0030
0200
0300
2000
3000
0002
0003
0020
0030
0002
0003
2000
3000
0200
0300
2000
3000
0002
0003
0020
0030
0200
0300
0020
0030
0002
0003
,
2000
3000
0020
0030
2000
3000
0002
0003
0200
0300
0002
0003
2000
3000
0020
0030
2000
3000
0002
0003
0200
0300
0020
0030
2000
3000
0002
0003
0020
0030
0200
0300
,
2000
3000
0002
0003
0020
0030
0002
0003
2000
3000
0200
0300
0020
0030
0002
0003
2000
3000
0020
0030
0200
0300
0020
0030
2000
3000
0002
0003
0200
0300
0002
0003
,
2000
3000
0020
0030
0200
0300
0002
0003
2000
3000
0200
0300
0020
0030
0200
0300
2000
3000
0002
0003
0020
0030
0200
0300
2000
3000
0002
0003
0020
0030
0002
0003
,
2000
3000
0020
0030
0200
0300
0020
0030
2000
3000
0002
0003
0200
0300
0002
0003
2000
3000
0020
0030
2000
3000
0002
0003
0020
0030
0200
0300
2000
3000
0002
0003
,
2000
3000
0000
0000
0000
0000
0000
0000
0001
0000
0000
0000
0000
0000
0000
0000
0000
0000
0000
0000
0000
0000
0000
0000
0100
0000
0000
0000
0000
0000
0000
0000
,
0001
0010
0100
0010
0001
1000
0010
0100
0010
1000
0001
0010
0001
1000
0010
0100
,
0001
1000
0100
0010
0100
1000
0001
1000
0010
0100
0010
1000
0001
0100
0001
1000
,
0100
0010
0100
1000
0001
0010
0001
1000
0010
0100
0010
1000
0001
0010
0001
1000
,
0010
0100
0010
1000
0001
0100
0001
1000
0100
0010
0001
1000
0100
0010
0100
1000
,
0010
0100
0001
1000
0010
1000
0001
0100
0001
1000
0100
0010
0100
1000
0001
0010
,
0001
1000
0010
0100
0001
1000
0001
0010
0100
0010
0001
1000
0010
1000
0001
0010
,
0100
1000
0001
0010
0001
1000
0010
1000
0001
0100
0001
1000
0100
1000
0001
0010
,
0001
1000
0010
1000
0001
0100
0010
1000
0010
0100
0001
1000
0100
0010
0100
1000
,
0010
0100
0010
1000
0001
1000
0100
0010
0100
1000
0001
0100
0001
1000
0100
0010
,
0001
1000
0010
0100
0010
1000
0001
1000
0100
0010
0100
1000
0001
0010
0001
1000
,
0010
0100
0010
1000
0001
0100
0001
1000
0100
0010
0100
1000
0001
0100
0001
1000
,
0100
0010
0100
1000
0001
0010
0001
1000
0010
0100
0001
1000
0010
0100
0010
1000
,
0100
0010
0001
1000
0100
1000
0001
0010
0001
1000
0010
0100
0010
1000
0001
0100
,
0001
1000
0100
0010
0001
1000
0001
0100
0010
0100
0001
1000
0100
1000
0001
0100
,
0010
1000
0001
0100
0001
1000
0100
1000
0001
0010
0001
1000
0010
1000
0001
0100
,
0001
1000
0100
1000
0001
0010
0100
1000
0100
0010
0001
1000
0010
0100
0010
1000
,
0100
0010
0100
1000
0010
0100
0001
1000
0010
1000
0001
0100
0001
0010
0100
1000
,
0001
0010
0100
0010
0001
0100
0010
0100
0001
1000
0010
0100
0001
0010
0100
1000
,
0001
1000
0100
0010
0001
0100
0010
0100
0001
1000
0010
1000
0100
0010
0100
1000
,
0001
0010
0100
1000
0010
0100
0001
1000
0001
0100
0010
1000
0100
0010
0100
1000
,
0001
0010
0100
1000
0010
0100
0001
1000
0010
1000
0001
0100
0001
0010
0100
1000
,
0001
1000
0100
0010
0001
0100
0010
0100
0001
1000
0010
1000
0100
0010
0100
1000
,
0001
0010
0100
1000
0010
0100
0010
1000
0001
1000
0010
0100
0001
0010
0100
1000
,
0001
0010
0100
0010
0001
0100
0010
0100
0001
1000
0010
1000
0100
0010
0001
1000
,
0010
0100
0010
1000
0100
0010
0001
1000
0100
1000
0001
0010
0001
0100
0010
1000
,
0001
0100
0010
0100
0001
0010
0100
0010
0001
1000
0100
0010
0001
0100
0010
1000
,
0001
1000
0010
0100
0001
0010
0100
0010
0001
1000
0100
1000
0010
0100
0010
1000
,
0001
0100
0010
1000
0100
0010
0001
1000
0001
0010
0100
1000
0010
0100
0010
1000
,
0001
0100
0010
1000
0100
0010
0001
1000
0100
1000
0001
0010
0001
0100
0010
1000
,
0001
1000
0010
0100
0001
0010
0100
0010
0001
1000
0100
1000
0010
0100
0001
0000
,
1000
0100
0010
0001
1000
0000
0000
0000
0001
0100
0010
1000
0001
0000
0000
0000
,
1000
0100
0010
0001
1000
0000
0000
0000
1000
0000
0001
0010
0001
0100
0001
0000
;
