#TITLE:Forsaken Neon;
#SUBTITLE:;
#ARTIST:Dimrain47;
#TITLETRANSLIT:;
#SUBTITLETRANSLIT:;
#ARTISTTRANSLIT:;
#CREDIT:owenviau1;
#BANNER:../owenviau1 Simfiles 6 (Science X Owen).png;
#BACKGROUND:BG.PNG;
#LYRICSPATH:;
#CDTITLE:../ov1!title.png;
#MUSIC:Dimrain47 - Forsaken Neon.mp3;
#OFFSET:-1.322;
#SAMPLESTART:89.725;
#SAMPLELENGTH:29.999;
#SELECTABLE:YES;
#DISPLAYBPM:230.000;
#BPMS:0.000=230.000;
#STOPS:;
#BGCHANGES:;
// cache tags:
#FIRSTBEAT:11.000;
#LASTBEAT:581.917;
#SONGFILENAME:Songs/owenviau1 Simfiles 6/Forsaken Neon - [owenviau1] v1.0.3/Forsaken Neon.sm;
#HASMUSIC:1;
#HASBANNER:1;
#MUSICLENGTH:153.443;
// end cache tags

//---------------dance-single - 12+ (owenviau1)----------------
#NOTES:
     dance-single:
     12+ (owenviau1):
     Hard:
     12:
     1.000,1.000,0.020,0.026,0.310,1147.000,3.000,4.000,2.000,0.000:
0000
0000
0000
0000
,
0000
0000
0000
0000
,
0000
0000
0000
0000
0000
0000
1000
0100
,
0010
0001
1000
0010
1000
0001
0010
0100
,
0100
1000
0001
0001
0100
0010
1000
0100
,
0010
0001
1000
0001
0100
0010
1000
0100
,
0100
0010
0001
0001
1000
0010
0100
0001
,
1000
0001
0100
0010
1000
0100
1000
0001
,
0100
0010
1000
0100
0010
0010
0010
0001
,
1000
0100
0010
0001
1000
0001
0100
0010
,
1000
0000
0100
0000
0010
0001
0010
0100
1000
0001
0100
0010
1000
0000
0001
0000
,
0100
0010
1000
0100
1000
0001
0100
0010
,
1000
0000
0100
0000
0010
0000
0001
0000
0100
0000
0010
1000
0001
0000
0100
0000
,
0010
1000
0100
1000
0001
0100
0010
1000
,
0100
0000
0010
0000
0001
0000
0010
0100
1000
0100
0010
0001
1000
0000
0010
0000
,
1000
0001
0100
0010
1000
0001
0010
0001
,
0100
0000
0010
0000
1000
0000
0100
0000
0010
0000
0001
1000
0010
0000
0100
0000
,
0001
1000
0001
0100
0010
1000
0100
1000
,
0001
0000
0010
0000
0001
0000
0100
0010
1000
0001
0010
0100
1000
0000
0001
0000
,
0100
0010
1000
0100
1000
0001
0100
0010
1000
0100
0010
0001
1000
0000
0010
0000
,
1000
0000
0001
0000
0010
0000
0001
0000
0100
0000
0010
1000
0001
0000
0100
0000
,
0010
0000
1000
0000
0001
0100
0010
1000
0100
0010
0001
0100
0010
0000
1000
0000
,
0100
0000
0010
1000
0001
0100
0010
0000
1000
0000
0001
0000
0100
0010
1000
0100
,
1000
0001
0100
0001
0010
0100
1000
0001
1000
0100
0010
0001
1000
0000
0001
0000
,
0100
0000
0010
0000
1000
0000
0100
0000
1000
0000
0001
0000
0100
0010
1000
0000
,
0100
0000
0010
0001
0100
0000
0010
0000
1000
0100
0010
0000
0001
1000
0001
0100
,
0010
1000
0100
1000
0001
0100
0001
1000
0010
0100
0001
1000
0100
0000
0010
0000
,
0001
1000
0001
0100
0010
1000
0100
1000
,
0001
0100
0010
1000
0001
0010
0001
0100
,
0010
1000
0100
0010
0001
1000
0001
0100
,
0010
1000
0001
0010
0001
0100
0010
1000
,
0001
0100
0010
1000
0100
1000
0001
0100
,
0010
1000
0001
0010
0001
0100
0010
1000
,
0001
0100
0001
1000
0100
1000
0010
0100
,
0001
0000
1000
0000
0100
0000
0010
0000
0001
0000
1000
0000
0010
0100
0001
1000
,
0100
0010
0001
1000
0010
0100
0001
0010
0100
1000
0010
0100
0001
0000
0001
0000
,
0100
0010
1000
0001
0100
0010
1000
0100
,
0010
0001
0100
0010
1000
0001
0100
0001
,
1000
0100
0010
0001
1000
0010
0100
0010
,
1000
0001
0100
0001
1000
0100
0010
0001
,
0100
0000
0010
0000
0100
0000
0001
0000
1000
0000
0100
0010
0001
0000
1000
0000
,
0010
0000
0100
0000
0001
0000
1000
0000
0100
0000
0010
0001
1000
0000
0010
0000
,
0100
0000
0010
0000
1000
0000
0001
0000
0100
0010
1000
0001
2000
0000
0000
0000
,
0000
0000
0000
0000
,
0000
0000
0000
0000
,
0000
0000
0000
0000
0000
0000
0000
3020
,
0000
0000
0000
0130
,
0001
1000
0100
0000
0010
0001
1000
0001
,
0100
0010
1000
0000
0100
0010
0001
0000
,
1000
0000
0010
0100
0001
1000
0100
1000
,
0010
0100
0001
1000
0010
1000
0001
0100
,
0001
1000
0100
0000
0010
0001
1000
0000
,
0010
0000
0100
0001
0100
0010
1000
0100
,
0010
0001
1000
0001
0100
0000
0010
0001
,
1000
0001
0100
0010
0100
0001
1000
0010
,
0100
0001
1000
0100
1000
0010
0100
0001
,
1000
0000
0001
0000
0010
0000
0100
0000
1000
0000
0001
0000
1000
0010
0100
0000
,
0001
0000
1000
0000
0010
0000
0100
0000
0001
0000
0010
0000
0100
1000
0001
0000
,
0100
0000
0010
0000
1000
0100
0010
0000
0001
0010
0100
0000
1000
0000
0001
0000
,
0100
0010
1000
0001
0010
0001
1000
0100
,
1000
0000
0010
0000
0100
0000
0001
0000
1000
0000
0100
0000
0010
0001
1000
0000
,
0010
0000
0100
0000
0001
0000
0100
0000
0010
0000
1000
0000
0100
0010
0001
0000
,
0100
0000
0010
0000
1000
0100
0010
0000
0001
1000
0010
0000
1000
0000
0001
0000
,
0100
0010
1000
0001
0010
0001
0100
0010
,
1000
0100
1000
0001
0100
0010
1000
0100
,
0010
0001
1000
0001
0100
0010
1000
0100
,
1000
0000
0010
0000
0100
0000
0001
0000
1000
0000
0100
0010
0001
0000
0100
0000
,
0010
1000
0001
0010
0001
0100
0010
1000
,
0100
1000
0001
0100
0010
1000
0100
0010
,
0001
1000
0001
0100
0010
1000
0100
1000
,
0010
0000
0100
0000
0001
0000
1000
0000
0010
0000
0100
0001
1000
0000
0001
0000
,
0100
0010
1000
0001
0010
0001
0100
0010
,
1000
0100
1000
0001
0100
0010
1000
0100
,
0010
0001
1000
0001
0100
0010
1000
0100
,
1000
0000
0010
0000
0100
0000
0001
0000
1000
0000
0100
0010
0001
0000
0100
0000
,
0010
1000
0001
0010
0001
0100
0010
1000
,
0100
1000
0001
0100
0010
1000
0100
0010
,
0001
1000
0001
0100
0010
1000
0100
1000
,
0010
0000
0100
0000
0001
0000
1000
0000
0010
0000
0100
0001
1000
0000
0000
0000
,
0000
0000
0000
0120
,
0000
0000
0000
0000
0000
0000
1030
0001
,
0010
0100
1000
0010
0100
0001
1000
0100
,
0010
0001
1000
0001
0100
0010
1000
0100
,
1000
0001
0100
0001
1000
0010
1000
0001
,
0100
0000
0010
0000
1000
0000
0100
0000
0010
0000
0001
1000
0100
0000
0010
0000
,
0001
0100
1000
0010
1000
0001
0100
0010
,
1000
0000
0100
0000
0010
0000
0001
0000
0100
0000
0010
1000
0001
0000
0100
0000
,
0010
1000
0100
1000
0001
0100
0010
1000
,
0100
0000
0010
0000
0001
0000
0010
0100
1000
0100
0010
0001
1000
0000
0010
0000
,
1000
0001
0100
0010
1000
0001
0010
0001
,
0100
0000
0010
0000
1000
0000
0100
0000
0010
0000
0001
1000
0010
0000
0100
0000
,
0001
1000
0001
0100
0010
1000
0100
1000
,
0001
0000
0010
0000
0001
0000
0100
0010
1000
0001
0010
0100
1000
0000
0010
0000
,
0100
0001
1000
0010
0100
0001
1000
0100
,
1000
0000
0010
0000
0100
0000
0001
0000
1000
0000
0100
0010
0001
0000
1000
0001
,
0100
0000
0010
0000
1000
0000
0100
0000
1000
0000
0001
0000
0100
0000
0010
1000
,
0100
0000
0010
0000
0001
0000
1000
0001
0100
0000
0010
0000
1000
0000
0001
0000
,
0010
0100
1000
0010
0100
0010
1000
0001
,
0100
0000
0010
0000
0100
0000
0001
0000
1000
0000
0100
0010
0001
0000
1000
0000
,
0100
1000
0010
0100
0001
1000
0100
0010
,
0001
0000
0100
0000
0010
0000
1000
0100
0010
0001
1000
0001
0100
0000
0010
0000
,
1000
0100
1000
0001
0100
0010
1000
0001
,
0010
0001
0100
0010
1000
0100
1000
0001
,
0100
0010
1000
0001
0010
0001
0100
0010
,
1000
0100
1000
0001
0100
0010
1000
0100
,
0010
0001
0100
0010
1000
0001
0010
0001
,
0100
0010
1000
0100
0010
0001
1000
0001
,
0100
0010
1000
0100
1000
0001
0100
0010
,
1000
0100
0010
0001
0100
0010
1000
0100
,
0010
0001
1000
0010
1000
0001
0010
0100
,
0100
1000
0001
0001
0100
0010
1000
0100
,
0010
0001
1000
0001
0100
0010
1000
0100
,
0100
0010
0001
0001
1000
0010
1000
0100
,
0010
0001
1000
0010
1000
0001
0010
0100
,
0100
1000
0001
0001
0100
0010
1000
0100
,
0010
0001
1000
0001
0100
0010
1000
0100
,
0100
0010
0001
0001
1000
0010
1M01
0010
,
0100
0001
1000
0010
1000
0001
0010
0100
,
0100
1000
0001
0001
0100
0010
1000
0100
,
0010
0001
1000
0001
0100
0010
1000
0100
,
0100
0010
0001
0001
1000
0010
1M01
0010
,
0100
0001
0100
0010
1000
0001
0010
0100
,
0100
1000
0001
0001
0100
0010
1000
0100
,
0010
0001
1000
0001
0100
0010
1000
0100
,
0100
0010
0001
0001
1000
0010
0100
0001
,
1000
0100
1000
0010
0100
0010
1000
0001
,
0100
0000
0001
0000
1000
0000
0100
0000
0010
0000
0001
1000
0001
0000
0100
0000
,
0010
1000
0100
1000
0001
0100
0001
1000
,
0010
0000
0100
0000
0001
0000
1000
0100
0010
0001
1000
0001
0100
0000
0010
0000
,
1000
0100
0010
0001
1000
0100
0010
0001
,
1000
0000
0001
0000
0100
0000
0010
0000
1000
0000
0010
0100
0001
0000
1000
0000
,
0010
0000
1000
0000
0001
0000
0100
0000
0010
0000
1000
0000
0100
0010
0001
0000
,
1000
0000
0010
0000
1000
0001
1000
0000
0100
0000
0010
0000
1000
0000
0100
0000
,
0010
0001
1000
0010
1000
0001
0010
0100
,
0100
1000
0001
0001
0100
0010
1000
0100
,
0010
0001
1000
0001
0100
0010
1000
0100
,
0100
0010
0001
0001
1000
0010
1000
0100
,
0010
0001
1000
0010
1000
0001
0010
0100
,
0100
0000
1000
0000
0001
0000
0001
0000
0100
0000
0010
0100
0001
0000
1000
0000
,
0100
0000
0010
0000
0001
0000
1000
0000
0100
0000
0010
0001
1000
0000
0100
0000
,
0100
0000
0010
1000
0001
0000
0001
0000
1000
0000
0010
0000
0200
0000
0000
0000
,
0000
0000
0000
0000
,
0000
0000
0000
0000
,
0000
0000
0000
0000
,
0000
0000
0000
0000
,
0000
0000
0000
0000
0000
0000
0000
0000
0000
0000
0000
0000
0000
0000
0000
0000
0000
0000
0000
0000
0000
0000
0000
0300
0000
0000
0000
0000
0000
0000
0000
0000
0000
0000
0000
0000
0000
0000
0000
0000
0000
0000
0000
0000
0000
0000
0000
0000
;

//---------------dance-single - 19- (owenviau1)----------------
#NOTES:
     dance-single:
     19- (owenviau1):
     Challenge:
     19:
     1.000,1.000,0.020,0.026,1.000,1654.000,3.000,4.000,2.000,0.000:

0000
0000
0000
0000
,
0000
0000
0000
0000
,
0000
0000
0000
0000
0000
0000
1000
0100
,
0010
0001
1000
0010
1000
0001
0010
0100
,
0100
1000
0001
0001
0100
0010
1000
0100
,
0010
0001
1000
0001
0100
0010
1000
0100
,
0100
0010
0001
0001
1000
0010
0100
0001
,
1000
0001
0100
0010
1000
0100
1000
0001
,
0100
0010
1000
0100
0010
0010
0010
0001
,
1000
0100
0010
0001
1000
0001
0100
0010
,
1000
0000
0100
0000
0010
0001
0010
0100
1000
0001
0100
0010
1000
0001
1000
0010
,
0100
0001
1000
0100
1000
0010
0100
0001
1000
0100
0010
0001
0100
0010
0100
0001
,
1000
0100
1000
0010
0100
0001
1000
0010
1000
0001
0100
0010
1000
0100
0010
0001
,
0100
0010
1000
0001
0010
0001
1000
0010
1000
0001
0100
0001
1000
0100
0010
0001
,
0100
0010
1000
0001
0100
0001
1000
0100
1000
0010
0100
0001
1000
0100
0010
0001
,
1000
0001
0100
0010
1000
0100
1000
0001
0100
0010
1000
0001
0010
0100
1000
0010
,
0100
0001
1000
0001
0100
0010
1000
0100
1000
0001
0100
0010
1000
0100
0010
0001
,
1000
0010
0100
0010
1000
0001
0100
0001
1000
0010
0100
0001
1000
0100
0010
0001
,
0100
0010
0100
0001
1000
0100
0010
0001
1000
0010
0100
0001
0010
0001
1000
0010
,
0100
0001
1000
0100
1000
0010
0100
0001
1000
0100
0010
0001
0100
0010
0100
0001
,
1000
0100
1000
0010
0100
0001
1000
0010
1000
0001
0100
0010
1000
0100
0010
0001
,
0100
0010
1000
0001
0010
0001
1000
0010
1000
0001
0100
0001
1000
0100
0010
0001
,
0100
0010
1000
0001
0100
0001
1000
0100
1000
0010
0100
0001
1000
0100
0010
0001
,
1000
0001
0100
0010
1000
0100
1000
0001
0100
0010
1000
0001
0010
0100
1000
0010
,
0100
0001
1000
0001
0100
0010
1000
0100
1000
0001
0100
0010
1000
0100
0010
0001
,
1000
0010
0100
0010
1000
0001
0100
0001
1000
0010
0100
0001
1000
0100
0010
0001
,
0100
0010
0100
0001
1000
0100
0010
0001
1000
0010
0100
0010
1000
0001
1000
0010
,
0100
0001
1000
0100
1000
0010
0100
0001
1000
0100
0010
0001
0100
0010
0100
0001
,
1000
0100
1000
0010
0100
0001
1000
0010
1000
0001
0100
0010
1000
0100
0010
0001
,
0100
0010
1000
0001
0010
0001
1000
0010
1000
0001
0100
0001
1000
0100
0010
0001
,
0100
0010
1000
0001
0100
0001
1000
0100
1000
0010
0100
0001
1000
0100
0010
0001
,
1000
0001
0100
0010
1000
0100
1000
0001
0100
0010
1000
0001
0010
0100
1000
0010
,
0100
0001
1000
0001
0100
0010
1000
0100
1000
0001
0100
0010
1000
0100
0010
0001
,
1000
0010
0100
0010
1000
0001
0100
0001
1000
0010
0100
0001
1000
0100
0010
0001
,
0100
0010
0100
0001
1000
0100
0010
0001
1000
0010
0100
0001
1000
0100
0010
0001
,
1000
0100
0010
0001
0010
0100
1000
0001
0010
0100
1000
0001
1000
0000
0100
0000
,
0010
0001
1000
0001
0100
0010
1000
0100
,
0010
0001
0100
0010
1000
0001
0100
0001
,
1000
0100
0010
0001
1000
0010
0100
0010
,
1000
0001
0100
0001
1000
0100
0010
0001
,
0100
0000
0010
0000
0100
0000
0001
0000
1000
0000
0100
0010
0001
0000
1000
0000
,
0010
0000
0100
0000
0001
0000
1000
0000
0100
0000
0010
0001
1000
0000
0010
0000
,
0100
0000
0010
0000
1000
0000
0001
0000
0100
0010
1000
0001
2000
0000
0000
0000
,
0000
0000
0000
0000
,
0000
0000
0000
0000
,
0000
0000
0000
0000
0000
0000
0000
3020
,
0000
0000
0000
0130
,
0001
1000
0100
0000
0010
0001
1000
0001
,
0100
0010
1000
0000
0100
0010
0001
0000
,
1000
0000
0010
0100
0001
1000
0100
1000
,
0010
0100
0001
1000
0010
1000
0001
0100
,
0001
1000
0100
0000
0010
0001
1000
0000
,
0010
0000
0100
0001
0100
0010
1000
0100
,
0010
0001
1000
0001
0100
0000
0010
0001
,
1000
0000
0001
0000
0100
0000
0010
0000
0100
0000
0001
0000
1000
0001
1000
0010
,
0100
0001
1000
0100
1000
0010
0100
0001
1000
0100
0010
0001
0100
0010
0100
0001
,
1000
0100
1000
0010
0100
0001
1000
0010
1000
0001
0100
0010
1000
0100
0010
0001
,
0100
0010
1000
0001
0010
0001
1000
0010
1000
0001
0100
0001
1000
0100
0010
0001
,
0100
0010
1000
0001
0100
0001
1000
0100
1000
0010
0100
0001
1000
0100
0010
0001
,
1000
0001
0100
0010
1000
0100
1000
0001
0100
0010
1000
0001
0010
0100
1000
0010
,
0100
0001
1000
0001
0100
0010
1000
0100
1000
0001
0100
0010
1000
0100
0010
0001
,
1000
0010
0100
0010
1000
0001
0100
0001
1000
0010
0100
0001
1000
0100
0010
0001
,
0100
0010
0100
0001
1000
0100
0010
0001
1000
0010
0100
0001
0010
0001
1000
0010
,
0100
0001
1000
0100
1000
0010
0100
0001
1000
0100
0010
0001
0100
0010
0100
0001
,
1000
0100
1000
0010
0100
0001
1000
0010
1000
0001
0100
0010
1000
0100
0010
0001
,
0100
0010
1000
0001
0010
0001
1000
0010
1000
0001
0100
0001
1000
0100
0010
0001
,
0100
0010
1000
0001
0100
0001
1000
0100
1000
0010
0100
0001
1000
0100
0010
0001
,
1000
0001
0100
0010
1000
0100
1000
0001
0100
0010
1000
0001
0010
0100
1000
0010
,
0100
0001
1000
0001
0100
0010
1000
0100
1000
0001
0100
0010
1000
0100
0010
0001
,
1000
0010
0100
0010
1000
0001
0100
0001
1000
0010
0100
0001
1000
0100
0010
0001
,
0100
0010
0100
0001
1000
0100
0010
0001
1000
0010
0100
0010
1000
0001
1000
0010
,
0100
0001
1000
0100
1000
0010
0100
0001
1000
0100
0010
0001
0100
0010
0100
0001
,
1000
0100
1000
0010
0100
0001
1000
0010
1000
0001
0100
0010
1000
0100
0010
0001
,
0100
0010
1000
0001
0100
0001
1000
0010
1000
0001
0100
0001
1000
0100
0010
0001
,
0100
0010
1000
0001
0100
0001
1000
0100
1000
0010
0100
0001
1000
0100
0010
0001
,
1000
0001
0100
0010
1000
0100
1000
0001
0100
0010
1000
0001
0010
0100
1000
0010
,
0100
0001
1000
0001
0100
0010
1000
0100
1000
0001
0100
0010
1000
0100
0010
0001
,
1000
0010
0100
0010
1000
0001
0100
0001
1000
0010
0100
0001
1000
0100
0010
0001
,
0100
0010
0100
0001
1000
0100
0010
0001
1000
0010
0100
0001
1000
0000
0000
0000
,
0000
0000
0000
1020
,
0000
0000
0000
0000
0000
0000
0130
0001
,
1000
0100
1000
0010
0100
0001
1000
0100
,
0010
0001
1000
0001
0100
0010
1000
0100
,
1000
0001
0100
0001
1000
0010
1000
0001
,
0100
0000
0010
0000
1000
0000
0100
0000
0010
0000
0001
0000
0100
0001
1000
0010
,
0100
0001
1000
0100
1000
0010
0100
0001
1000
0100
0010
0001
0100
0010
0100
0001
,
1000
0100
1000
0010
0100
0001
1000
0010
1000
0001
0100
0010
1000
0100
0010
0001
,
0100
0010
1000
0001
0010
0001
1000
0010
1000
0001
0100
0001
1000
0100
0010
0001
,
0100
0010
1000
0001
0100
0001
1000
0100
1000
0010
0100
0001
1000
0100
0010
0001
,
1000
0001
0100
0010
1000
0100
1000
0001
0100
0010
1000
0001
0010
0100
1000
0010
,
0100
0001
1000
0001
0100
0010
1000
0100
1000
0001
0100
0010
1000
0100
0010
0001
,
1000
0010
0100
0010
1000
0001
0100
0001
1000
0010
0100
0001
1000
0100
0010
0001
,
0100
0010
0100
0001
1000
0100
0010
0001
1000
0010
0100
0001
0010
0001
1000
0010
,
0100
0001
1000
0100
1000
0010
0100
0001
1000
0100
0010
0001
0100
0010
0100
0001
,
1000
0100
1000
0010
0100
0001
1000
0010
1000
0001
0100
0010
1000
0100
0010
0001
,
0100
0010
1000
0001
0010
0001
1000
0010
1000
0001
0100
0001
1000
0100
0010
0001
,
0100
0010
1000
0001
0100
0001
1000
0100
1000
0010
0100
0001
1000
0100
0010
0001
,
1000
0001
0100
0010
1000
0100
1000
0001
0100
0010
1000
0001
0010
0100
1000
0010
,
0100
0001
1000
0001
0100
0010
1000
0100
1000
0001
0100
0010
1000
0100
0010
0001
,
1000
0010
0100
0010
1000
0001
0100
0001
1000
0010
0100
0001
1000
0100
0010
0001
,
0100
0010
0100
0001
1000
0100
0010
0001
1000
0010
0100
0010
1000
0001
1000
0010
,
0100
0001
1000
0100
1000
0010
0100
0001
1000
0100
0010
0001
0100
0010
0100
0001
,
1000
0100
1000
0010
0100
0001
1000
0010
1000
0001
0100
0010
1000
0100
0010
0001
,
0100
0010
1000
0001
0010
0001
1000
0010
1000
0001
0100
0001
1000
0100
0010
0001
,
0100
0010
1000
0001
0100
0001
1000
0100
1000
0010
0100
0001
1000
0100
0010
0001
,
1000
0001
0100
0010
1000
0100
1000
0001
0100
0010
1000
0001
0010
0100
1000
0010
,
0100
0001
1000
0001
0100
0010
1000
0100
1000
0001
0100
0010
1000
0100
0010
0001
,
1000
0010
0100
0010
1000
0001
0100
0001
1000
0010
0100
0001
1000
0100
0010
0001
,
0100
0010
0100
0001
1000
0100
0010
0001
1000
0010
0100
0001
1000
0000
0100
0000
,
0010
0001
1000
0010
1000
0001
0010
0100
,
0100
1000
0001
0001
0100
0010
1000
0100
,
0010
0001
1000
0001
0100
0010
1000
0100
,
0100
0010
0001
0001
1000
0010
1000
0100
,
0010
0001
1000
0010
1000
0001
0010
0100
,
0100
1000
0001
0001
0100
0010
1000
0100
,
0010
0001
1000
0001
0100
0010
1000
0100
,
0100
0010
0001
0001
1000
0010
1M01
0010
,
0100
0001
1000
0010
1000
0001
0010
0100
,
0100
1000
0001
0001
0100
0010
1000
0100
,
0010
0001
1000
0001
0100
0010
1000
0100
,
0100
0010
0001
0001
1000
0010
1M01
0010
,
0100
0001
0100
0010
1000
0001
0010
0100
,
0100
1000
0001
0001
0100
0010
1000
0100
,
0010
0001
1000
0001
0100
0010
1000
0100
,
0100
0010
0001
0001
1000
0010
0100
0001
,
1000
0100
1000
0010
0100
0010
1000
0001
,
0100
0000
0001
0000
1000
0000
0100
0000
0010
0000
0001
1000
0001
0000
0100
0000
,
0010
1000
0100
1000
0001
0100
0001
1000
,
0010
0000
0100
0000
0001
0000
1000
0100
0010
0001
1000
0001
0100
0000
0010
0000
,
1000
0100
0010
0001
1000
0100
0010
0001
,
1000
0000
0001
0000
0100
0000
0010
0000
1000
0000
0010
0100
0001
0000
1000
0000
,
0010
0000
1000
0000
0001
0000
0100
0000
0010
0000
1000
0000
0100
0010
0001
0000
,
1000
0000
0010
0000
1000
0001
1000
0000
0100
0000
0010
0000
1000
0000
0100
0000
,
0010
0001
1000
0010
1000
0001
0010
0100
,
0100
1000
0001
0001
0100
0010
1000
0100
,
0010
0001
1000
0001
0100
0010
1000
0100
,
0100
0010
0001
0001
1000
0010
1000
0100
,
0010
0001
1000
0010
1000
0001
0010
0100
,
0100
0000
1000
0000
0001
0000
0001
0000
0100
0000
0010
0100
0001
0000
1000
0000
,
0100
0000
0010
0000
0001
0000
1000
0000
0100
0000
0010
0001
1000
0000
0100
0000
,
0100
0000
0010
1000
0001
0000
0001
0000
1000
0000
0010
0000
0200
0000
0000
0000
,
0000
0000
0000
0000
,
0000
0000
0000
0000
,
0000
0000
0000
0000
,
0000
0000
0000
0000
,
0000
0000
0000
0000
0000
0000
0000
0000
0000
0000
0000
0000
0000
0000
0000
0000
0000
0000
0000
0000
0000
0000
0000
0300
0000
0000
0000
0000
0000
0000
0000
0000
0000
0000
0000
0000
0000
0000
0000
0000
0000
0000
0000
0000
0000
0000
0000
0000
;
