#TITLE:Black Dragon;
#SUBTITLE:;
#ARTIST:Rhapsody;
#TITLETRANSLIT:;
#SUBTITLETRANSLIT:;
#ARTISTTRANSLIT:;
#CREDIT:DukAmok;
#BANNER:Black_Dragon.png;
#BACKGROUND:Black_Dragon-bg.png;
#LYRICSPATH:;
#CDTITLE:!duktitle.png;
#MUSIC:Rhapsody - Black Dragon.mp3;
#OFFSET:-0.035;
#SAMPLESTART:37.500;
#SAMPLELENGTH:10.000;
#SELECTABLE:YES;
#BPMS:0.000=173.002;
#STOPS:;
#BGCHANGES:;
// cache tags:
#FIRSTBEAT:4.000;
#LASTBEAT:860.000;
#SONGFILENAME:Songs/StepmaniaFreak's Favorites/Black_Dragon [DukAmok]/Black_Dragon.sm;
#HASMUSIC:1;
#HASBANNER:1;
#MUSICLENGTH:298.925;
// end cache tags

//---------------dance-single - Heavy----------------
#NOTES:
     dance-single:
     Heavy:
     Hard:
     11:
     1.000,1.000,0.967,0.110,1.000,2574.000,289.000,33.000,0.000,0.000:
0000
0000
0000
0000
,
1010
0100
0001
1000
0100
1000
0010
0100
0010
0100
0001
1000
0100
0010
0001
1000
,
0101
0000
0010
1000
0001
1000
0100
0010
0100
0010
0001
1000
0010
0100
0001
0100
,
1010
0000
0101
0000
0011
0000
0110
0000
1100
0000
1010
0000
,
1001
0010
1000
0001
0010
0001
0100
0010
0100
0010
1000
0001
0010
0100
1000
0001
,
0110
0000
0100
0001
1000
0001
0010
0100
0010
0100
1000
0001
0100
0010
1000
0010
,
0101
0000
1010
0000
1100
0000
0110
0000
0000
0011
0000
0000
,
0101
0010
1000
0001
0100
0001
1000
0100
1000
0100
0010
0001
1000
0010
0100
0010
,
1001
0010
0001
1000
0100
1000
0010
0100
0010
0100
0001
1000
0100
1000
0001
0010
,
1100
0000
0110
0000
1001
0000
0101
0000
1010
0000
1100
0000
,
0011
1000
0100
1000
0010
1000
0001
0100
0001
0100
0010
1000
0100
1000
0010
0100
,
1001
0010
0100
0001
0010
0001
1000
0100
1000
0100
0010
0001
1000
0010
0100
0001
,
1010
0000
0101
0000
0011
0000
1100
0000
0000
0110
0000
0000
,
1001
0010
0100
0001
1000
0001
0100
0001
0100
0001
1000
0100
1000
0010
0100
0001
,
1010
0100
0010
1000
0100
1000
0001
0010
0001
0010
0100
1000
0001
0100
0010
1000
,
0101
0000
1010
0000
1001
0000
0011
0000
0110
0000
1001
0000
,
1010
0001
1000
0100
0010
0100
1000
0010
1000
0010
0100
0001
1000
0100
0010
0001
,
1100
0010
0001
0100
0010
0100
0001
1000
0001
1000
0010
0100
0001
1000
0100
0010
,
1001
0000
0011
0000
0110
0000
1100
0000
0000
0011
0000
0000
,
1001
0000
0000
0000
0000
0000
0000
0000
0110
0000
0000
0000
0000
0000
0000
0000
1010
0000
0000
0000
0000
0000
0000
0000
0101
0000
0000
0000
0000
0000
0000
0000
0000
0000
0000
0000
0011
0000
0000
0000
0000
0000
0001
0000
0000
1000
0000
0000
,
0010
0100
0001
1000
0100
1000
0010
0100
0001
0010
0100
1000
0010
0100
0001
1000
,
0100
1000
0010
0100
0001
0010
0001
1000
0100
1000
0010
0100
0010
1000
0010
0100
,
0001
0010
0100
1000
0001
0100
0001
1000
0100
1000
0010
0100
0001
0010
0100
0010
,
0001
1000
0001
0100
0010
0100
0001
1000
0001
1000
0010
0100
0001
0010
0100
1000
,
0001
1000
0001
0010
0100
0010
0001
1000
0001
1000
0010
1000
0100
0010
0001
0010
,
0100
0010
0001
1000
0010
0100
0001
0010
0100
1000
0001
1000
0100
0010
0001
1000
,
0010
0100
0001
1000
0001
0100
0001
0100
0010
1000
0100
1000
0001
0100
0001
0010
,
0001
1000
0010
0100
0010
1000
0100
1000
0001
1000
0010
0100
0001
1000
0100
1000
,
0010
0100
0010
0100
0001
0100
0010
1000
0010
1000
0001
0010
0100
1000
0001
0100
,
0010
1000
0010
0100
0001
0100
0010
1000
0010
1000
0100
0010
0001
1000
0100
0010
,
1001
0100
1000
0001
0010
0001
0100
0010
1000
0100
0010
0001
0100
0010
1000
0001
,
0010
0001
0100
0010
1000
0100
1000
0001
0010
0001
0100
0010
0100
0001
0100
0010
,
1000
0100
0010
0001
1000
0010
1000
0001
0010
0001
0100
0010
1000
0100
0010
0100
,
1000
0001
1000
0010
0100
0010
1000
0001
1000
0001
0100
0010
1000
0100
0010
0001
,
1000
0001
1000
0100
0010
0100
1000
0001
1000
0001
0100
0001
0010
0100
1000
0100
,
0010
0100
1000
0001
0100
0010
1000
0100
0010
0001
1000
0001
0010
0100
1000
0001
,
0100
0010
1000
0001
1000
0010
1000
0010
0100
0001
0010
0001
1000
0010
1000
0100
,
1000
0001
0100
0010
0100
0001
0010
0001
1000
0001
0100
0010
1000
0001
0010
0001
,
0100
0010
0100
0010
1000
0010
0100
0001
0100
0001
1000
0100
0010
0001
1000
0010
,
0100
0001
0100
0010
1000
0010
0100
0001
0100
0001
0010
0100
1000
0001
0010
0001
,
1100
0000
0011
0000
1000
0010
0101
0000
,
0001
0000
1100
0000
0010
0010
0011
0000
,
0011
0000
1100
0010
0001
0100
0101
0010
,
1010
0000
0011
0000
1000
0001
0011
0000
,
1100
0000
0110
0010
0000
0001
0101
0000
,
1010
0000
0101
0000
0010
1000
1100
0000
,
0110
0000
0010
0011
0000
0000
1001
0000
,
1010
0000
0101
0000
0010
0010
1010
0000
,
1001
0001
1000
0010
0100
0001
0010
0100
,
1001
0100
1000
0001
0010
0001
0100
0010
1000
0100
0010
0001
0100
0010
1000
0001
,
0010
0001
0100
0010
1000
0100
1000
0001
0010
0001
0100
0010
0100
0001
0100
0010
,
1000
0100
0010
0001
1000
0010
1000
0001
0010
0001
0100
0010
1000
0100
0010
0100
,
1000
0001
1000
0010
0100
0010
1000
0001
1000
0001
0100
0010
1000
0100
0010
0001
,
1000
0001
1000
0100
0010
0100
1000
0001
1000
0001
0100
0001
0010
0100
1000
0100
,
0010
0100
1000
0001
0100
0010
1000
0100
0010
0001
1000
0001
0010
0100
1000
0001
,
0100
0010
1000
0001
1000
0010
1000
0010
0100
0001
0010
0001
1000
0010
1000
0100
,
1000
0001
0100
0010
0100
0001
0010
0001
1000
0001
0100
0010
1000
0001
0010
0001
,
0100
0010
0100
0010
1000
0010
0100
0001
0100
0001
1000
0100
0010
0001
1000
0010
,
0100
0001
0100
0010
1000
0010
0100
0001
0100
0001
0010
0100
1000
0001
0010
0100
,
1001
0010
0001
1000
0100
1000
0010
0100
0001
0010
0100
1000
0010
0100
0001
1000
,
0100
1000
0010
0100
0001
0010
0001
1000
0100
1000
0010
0100
0010
1000
0010
0100
,
0001
0010
0100
1000
0001
0100
0001
1000
0100
1000
0010
0100
0001
0010
0100
0010
,
0001
1000
0001
0100
0010
0100
0001
1000
0001
1000
0010
0100
0001
0010
0100
1000
,
0001
1000
0001
0010
0100
0010
0001
1000
0001
1000
0010
1000
0100
0010
0001
0010
,
0100
0010
0001
1000
0010
0100
0001
0010
0100
1000
0001
1000
0100
0010
0001
1000
,
0010
0100
0001
1000
0001
0100
0001
0100
0010
1000
0100
1000
0001
0100
0001
0010
,
0001
1000
0010
0100
0010
1000
0100
1000
0001
1000
0010
0100
0001
1000
0100
1000
,
0010
0100
0010
0100
0001
0100
0010
1000
0010
1000
0001
0010
0100
1000
0001
0100
,
0010
1000
0010
0100
0001
0100
0010
1000
0010
1000
0100
0010
0001
1000
0100
1000
,
0011
0000
1100
0000
0001
0100
1010
0000
,
1000
0000
0011
0000
0100
1000
1100
0000
,
1010
0000
0011
0100
0000
0010
1010
0100
,
0101
0000
1100
0000
0001
1000
1100
0000
,
0011
0000
0110
0100
0000
1000
1010
0000
,
0101
0000
1010
0000
0100
0001
0011
0000
,
0110
0000
0100
1100
0000
0000
1001
0000
,
0101
0000
1010
0000
0100
0010
0101
0000
,
1001
0100
1000
0010
0100
0001
0100
0010
,
1010
0001
0100
0001
1000
0010
0100
0001
0010
0100
0010
0001
1000
0100
0010
0100
,
1001
0010
0001
0100
0010
1000
0010
0100
0001
1000
0100
1000
0010
0100
0001
0010
,
1100
0001
0010
0100
0010
0001
1000
0010
0100
0010
1000
0100
1000
0010
0100
0001
,
1010
0100
0001
1000
0100
1000
0010
0100
0001
0010
0100
0010
0001
1000
0010
0100
,
1010
0001
1000
0100
0010
0001
0010
0100
1000
0010
0100
0001
0010
0100
1000
0100
,
1001
0010
0001
1000
0010
0100
0010
1000
0100
1000
0010
0100
0001
0010
0100
0010
,
1100
0001
0100
0010
1000
0001
0100
0001
1000
0100
1000
0010
0100
0001
0010
0100
,
0010
0001
0010
0100
1000
0010
0100
0010
1001
0000
0010
0000
0100
0000
0000
0000
,
0101
1000
0010
1000
0001
0100
0010
1000
0100
0010
0100
1000
0001
0010
0100
0010
,
1001
0100
1000
0010
0100
0001
0100
0010
0101
1000
0010
0100
0001
0010
0001
0010
,
1100
0001
0010
0100
0010
0001
1000
0010
0100
0010
1000
0100
1001
0010
0100
1000
,
0010
0100
0001
1000
0100
1000
0010
0100
1001
0010
0100
0010
1000
0001
0010
0100
,
0011
1000
0010
1000
0010
0100
0001
0010
0100
1000
0010
0100
1001
0010
0100
0001
,
1000
0010
0100
0001
0010
0100
1000
0100
0011
1000
0010
0100
0001
0010
0100
0010
,
1100
0001
0100
0010
1000
0001
0100
0001
1010
0100
0001
1000
0010
0100
0001
0010
,
1100
0001
0010
0100
1000
0100
0010
0100
1001
0010
0100
0001
1010
0000
0100
0000
,
1010
0001
0100
0001
1000
0010
0100
0001
0010
0100
0010
0001
1000
0100
0010
0100
,
1001
0010
0001
0100
0010
1000
0010
0100
1010
0001
0100
0010
1000
0100
1000
0100
,
0011
1000
0100
0010
0100
1000
0001
0100
0010
0100
0001
0010
0100
1000
0010
0100
,
1001
0010
1000
0001
0010
0001
0100
0010
1000
0100
0010
0100
1000
0100
0010
0001
,
1100
0010
0001
0100
0010
1000
0100
0010
0001
1000
0010
0100
0001
0100
0010
1000
,
0101
0010
1000
0100
1000
0001
0010
0001
1100
0010
0001
0100
0010
1000
0010
0100
,
1010
0001
0010
0100
1000
0100
1000
0010
0101
1000
0001
0010
0100
0010
0001
1000
,
0011
0100
1000
0100
0010
0001
0100
0010
1001
0100
0010
1000
0010
0100
0001
0010
,
1100
0000
0000
0011
0000
0000
0101
0000
,
1010
0000
0000
0110
0000
0000
0011
0000
,
0110
0000
0000
0000
0000
0000
0000
0000
0000
0001
1000
0001
,
0110
0000
0000
1010
0000
0000
0101
0000
,
1010
0100
0001
1000
0010
1000
0001
0010
0001
0010
0100
1000
0001
0100
0010
0100
,
1001
0100
1000
0001
0010
0001
0100
0010
0100
0010
1000
0001
0010
0001
1000
0100
,
0011
0000
0110
0000
1001
0000
1010
0000
0101
0000
0011
0000
,
1100
0001
0010
0001
0100
0001
1000
0010
1000
0010
0100
0001
0010
0001
0100
0010
,
1001
0100
0010
1000
0100
1000
0001
0010
0001
0010
0100
1000
0001
0100
0010
1000
,
0101
0000
1010
0000
1100
0000
0011
0000
0000
0110
0000
0000
,
1001
0100
0010
1000
0001
1000
0010
1000
0010
1000
0001
0010
0001
0100
0010
1000
,
0101
0010
0100
0001
0010
0001
1000
0100
1000
0100
0010
0001
1000
0010
0100
0001
,
1010
0000
0101
0000
1001
0000
1100
0000
0110
0000
1001
0000
,
0101
1000
0001
0010
0100
0010
0001
0100
0001
0100
0010
1000
0001
0010
0100
1000
,
0011
0100
1000
0010
0100
0010
1000
0001
1000
0001
0100
0010
1000
0001
0010
0100
,
1001
0000
1100
0000
0110
0000
0011
0000
0000
1001
0000
0000
,
0011
0000
1100
0000
0110
0000
1001
0000
0000
1010
0000
0000
,
0001
0010
0100
1000
0100
0010
0001
0010
0100
0010
0001
1000
0010
0100
0001
1000
,
0100
0010
0001
1000
0100
0010
0001
1000
0020
0000
0000
0000
0230
0000
0000
0000
,
0310
1000
0100
0010
0001
0010
0100
1000
0100
0010
0100
1000
0010
0100
0001
1000
,
0010
0100
0001
0010
0100
1000
0001
0010
0200
0000
0000
0000
1300
0000
0001
0000
,
0010
0100
0010
0001
0010
0100
1000
0100
0010
0100
1000
0001
0100
0010
1000
0001
,
0010
0100
1000
0001
0010
0100
1000
0001
0200
0000
0000
0000
0302
0000
0000
0000
,
1003
0001
0010
0100
1000
0100
0010
0001
0010
0100
0010
0001
0100
0010
1000
0001
,
0100
0010
1000
0100
0010
0001
1000
0100
0020
0000
0000
0000
0031
1000
0010
0100
,
0001
1000
0100
0010
0001
1000
0100
0010
0001
0010
0100
1000
0001
0010
0100
0010
,
0001
1000
0010
0100
0001
1000
0100
1000
0020
0000
0000
0000
2030
0000
0000
0000
,
3001
0010
0100
0010
0001
1000
0100
0010
0100
1000
0001
0100
0001
0100
0010
0100
,
0010
1000
0100
1000
0010
0100
0001
0010
0200
0000
0000
0000
0300
0000
0100
0000
,
0010
0001
0010
0100
1000
0001
0010
0100
1000
0100
0010
0001
1000
0100
0010
0100
,
1000
0001
0100
0010
1000
0001
0010
0001
0200
0000
0000
0000
0302
0000
0000
0000
,
1003
0100
0010
0100
1000
0001
0010
0100
0010
0001
1000
0010
1000
0000
0010
0000
,
0101
0000
0011
0000
0110
0000
1100
0000
1010
0000
0100
0000
0001
0010
0100
1000
,
0010
0100
0001
1010
0100
0001
0011
0010
,
0100
1000
0010
0101
0010
1000
0101
0010
,
1000
0100
0010
1001
0001
0010
0110
0100
,
1000
0001
0100
0110
0010
1000
0101
0010
,
0100
1000
0010
0101
1000
0010
0110
0100
,
1000
0001
0100
1010
0100
0001
1010
0100
,
0001
1000
0100
0011
0010
0100
1100
1000
,
0001
0010
1000
1100
0100
0001
1010
0010
,
0101
0010
1000
0101
0010
1000
1100
0100
,
0010
0001
0100
1010
0100
0001
1010
0100
,
0011
0010
0100
1001
1000
0100
0110
0010
,
0001
1000
0010
0110
0100
0001
1010
0100
,
1001
0001
0100
1010
0001
0100
0110
0010
,
0001
1000
0010
0101
0010
1000
0101
0010
,
0110
0001
0010
1100
0100
0010
0011
0001
,
1000
0100
0001
0110
0001
1000
0101
0010
,
1100
0010
0001
0101
0010
1000
1100
0010
,
0110
0000
0000
0001
0000
0000
0010
0000
0000
0100
0000
0000
1100
0000
0010
0000
0001
0000
0100
0000
0010
0000
1000
0000
,
1002
0000
0000
0000
0020
0000
0000
0030
,
2000
0000
0000
3000
0020
0000
0000
0033
,
2100
0000
0010
0000
0001
0000
0010
0010
,
0100
0000
0010
0000
0001
0010
0100
3000
,
0201
0000
0000
0000
0020
0000
0000
0030
,
0002
0000
0000
0003
0020
0000
0000
0330
,
1002
0000
0100
0000
0010
0000
1000
1000
,
0010
0000
0100
0000
1000
0010
0100
0003
,
2001
0000
0000
0000
0200
0000
0000
0300
,
0002
0000
0000
0003
0020
0000
0000
3030
,
0012
0000
0100
0000
1000
0000
0100
0100
,
0010
0000
0100
0000
1000
0100
0010
0003
,
2010
0000
0000
0000
0200
0000
0000
0300
,
0002
0000
0000
0003
0020
0000
0000
3030
,
2001
0000
0010
0000
0100
0000
0001
0001
,
0100
0000
0000
0000
0010
0000
0000
0000
0001
0000
3100
0000
0010
0100
0001
1000
,
0001
0010
0100
0010
0001
0010
0100
0010
0001
0010
0100
1000
0010
0100
0001
1000
,
0100
1000
0010
1000
0100
1000
0010
1000
0010
0100
0001
1000
0100
0010
0100
1000
,
0001
0100
0010
1000
0100
0010
0001
0010
0100
0010
0001
0100
0010
1000
0100
1000
,
0010
0100
0001
1000
0100
1000
0010
0100
0001
0010
0100
0010
0001
1000
0010
0100
,
0001
1000
0100
1000
0010
0100
0001
1000
0100
1000
0010
0100
0001
0010
0001
1000
,
0010
0100
0001
1000
0100
1000
0010
0100
0001
0010
0100
0010
0001
1000
0010
0100
,
0001
1000
0100
1000
0010
0100
0010
1000
0100
1000
0001
0100
0001
0010
0001
1000
,
0010
0100
0001
0010
0001
0100
0001
0100
0010
1000
0010
0100
0001
1000
0010
0100
,
1001
0010
1000
0100
0010
0100
0010
0001
1000
0010
1000
0001
0010
0100
1000
0001
,
0110
1000
0001
0010
0100
0010
0001
1000
0010
0100
0001
0010
0100
1000
0010
0100
,
1001
0010
1000
0100
1000
0010
0100
0001
0010
0100
1000
0001
0100
0010
1000
0100
,
1000
0010
0100
0001
1000
0100
0010
0001
0010
0100
1000
0100
1000
0100
0010
0001
,
1010
0100
0001
0010
0100
1000
0010
0100
1001
0010
0100
0001
0010
0100
1000
0100
,
0011
1000
0010
0100
0001
0010
0100
1000
0011
0100
1000
0010
0100
0001
0010
0001
,
0110
1000
0010
0100
0001
1000
0100
0010
0001
1000
0010
0100
0001
1000
0100
1000
,
0010
0100
0010
0000
0110
0000
0100
0000
0001
0010
0001
0000
0010
0000
0100
0000
,
2000
0000
3010
0100
,
0102
0000
0000
0000
0013
0000
0000
0010
,
0101
1000
0010
1000
0001
0100
0010
1000
0100
0010
0100
1000
0001
0010
0100
0010
,
1001
0100
1000
0010
0100
0001
0100
0010
1000
0001
0010
0001
0100
0010
1000
0100
,
0011
1000
0100
0010
0100
1000
0001
0100
0010
0100
0001
0010
0001
0100
0010
1000
,
0101
0010
1000
0001
0010
0001
0100
0010
1000
0100
0010
0100
1000
0001
0100
0010
,
0101
1000
0001
0010
0100
1000
0100
0010
0001
0100
0010
1000
0100
0010
0001
0010
,
1001
0100
1000
0001
0100
0010
0100
0001
0010
0001
0100
0010
1000
0100
0010
0100
,
0011
1000
0010
0100
0001
1000
0010
1000
0001
0010
0001
0100
0010
1000
0100
0010
,
0100
1000
0100
0010
0001
0100
0010
0100
1001
0000
0100
0000
0010
0000
0000
0000
,
1010
0001
0100
0001
1000
0010
0100
0001
0010
0100
0010
0001
1000
0100
0010
0100
,
1001
0010
0001
0100
0010
1000
0010
0100
1010
0001
0100
0010
1000
0100
1000
0100
,
0011
1000
0100
0010
0100
1000
0001
0100
0010
0100
0001
0010
1001
0100
0010
0001
,
0100
0010
1000
0001
0010
0001
0100
0010
1001
0100
0010
0100
0001
1000
0100
0010
,
1100
0001
0100
0001
0100
0010
1000
0100
0010
0001
0100
0010
1001
0100
0010
1000
,
0001
0100
0010
1000
0100
0010
0001
0010
1100
0001
0100
0010
1000
0100
0010
0100
,
0011
1000
0010
0100
0001
1000
0010
1000
0101
0010
1000
0001
0100
0010
1000
0100
,
0011
1000
0100
0010
0001
0010
0100
0010
1001
0100
0010
1000
0101
0000
0010
0000
,
0101
1000
0010
1000
0001
0100
0010
1000
0100
0010
0100
1000
0001
0010
0100
0010
,
1001
0100
1000
0010
0100
0001
0100
0010
0101
1000
0010
0100
0001
0010
0001
0010
,
1100
0001
0010
0100
0010
0001
1000
0010
0100
0010
1000
0100
0010
0001
0100
0010
,
1001
0100
0001
1000
0100
1000
0010
0100
0001
0010
0100
0010
0001
0010
0100
1000
,
0011
0100
1000
0010
0100
0001
0010
0100
1000
0001
0100
0010
1000
0010
0100
0001
,
1010
0100
0001
0010
0001
1000
0100
1000
0011
0100
1000
0010
0100
0001
0100
0010
,
0101
1000
0100
0010
0001
0010
0001
0100
1010
0001
1000
0100
0010
0100
1000
0001
,
1100
0010
0001
0010
0100
1000
0010
0100
1001
0010
0100
0001
0100
0010
1000
0100
,
0011
0000
0000
1100
0000
0000
1010
0000
,
0101
0000
0000
0110
0000
0000
1100
0000
,
0110
0000
0000
0000
0000
0000
0000
0000
0000
1000
0001
0100
,
1010
0000
0000
0101
0000
0000
0011
0000
,
1001
0000
0000
0000
;

//---------------dance-single - Challenge----------------
#NOTES:
     dance-single:
     Challenge:
     Challenge:
     13:
     1.000,1.000,1.000,0.110,1.000,2606.000,451.000,33.000,0.000,0.000:
0000
0000
0000
0000
,
0101
0010
1000
0001
0010
0001
0100
0010
0100
0010
1000
0001
0010
0100
1000
0001
,
1010
0001
0100
0001
1000
0001
0010
0100
0010
0100
1000
0001
0100
0010
1000
0010
,
0101
0000
1010
0000
1100
0000
0110
0000
0011
0000
0101
0000
,
1001
0100
0001
1000
0100
1000
0010
0100
0010
0100
0001
1000
0100
0010
0001
1000
,
0110
1000
0010
1000
0001
1000
0100
0010
0100
0010
0001
1000
0010
0100
0001
0100
,
1010
0000
0101
0000
0011
0000
0110
0000
0000
1100
0000
0000
,
1010
0100
0001
1000
0010
1000
0001
0010
0001
0010
0100
1000
0001
0100
0010
0100
,
1001
0100
1000
0001
0010
0001
0100
0010
0100
0010
1000
0001
0010
0001
1000
0100
,
0011
0000
0110
0000
1001
0100
1010
0000
0101
1000
0011
0000
,
1100
0001
0010
0001
0100
0001
1000
0010
1000
0010
0100
0001
0010
0001
0100
0010
,
1001
0100
0010
1000
0100
1000
0001
0010
0001
0010
0100
1000
0001
0100
0010
1000
,
0101
0000
1010
0100
1100
0000
0011
0000
0000
0110
0000
0000
,
1001
0100
0010
1000
0001
1000
0010
1000
0010
1000
0001
0010
0001
0100
0010
1000
,
0101
0010
0100
0001
0010
0001
1000
0100
1000
0100
0010
0001
1000
0010
0100
0001
,
1010
0000
0101
0000
1001
0010
1100
0000
0110
0100
1001
0000
,
0101
1000
0001
0010
0100
0010
0001
0100
0001
0100
0010
1000
0001
0010
0100
1000
,
0011
0100
1000
0010
0100
0010
1000
0001
1000
0001
0100
0010
1000
0001
0010
0100
,
1001
0000
1100
1000
0110
0000
0011
0000
0000
1100
0000
0000
,
1001
0000
0000
0000
0000
0000
0000
0000
0110
0000
0000
0000
1000
0000
0000
0000
0101
0000
0000
0000
0000
0000
0000
0000
1010
0000
0000
0000
0000
0000
0000
0000
0000
0000
0000
0000
1100
0000
0000
0000
0000
0000
0001
0000
0000
0100
0000
0000
,
1001
0010
1000
0001
0010
0001
0100
0010
1001
0100
0010
0001
0100
0010
1000
0001
,
0110
0001
0100
0010
1000
0100
1000
0001
1010
0001
0100
0010
0100
0001
0100
0010
,
1001
0100
0010
0001
1000
0010
1000
0001
0110
0001
0100
0010
1000
0100
0010
0100
,
1010
0001
1000
0010
0100
0010
1000
0001
1000
0001
0100
0010
1000
0100
0010
0001
,
1100
0001
1000
0100
0010
0100
1000
0001
1000
0001
0100
0001
0010
0100
1000
0100
,
0011
0100
1000
0001
0100
0010
1000
0100
1010
0001
1000
0001
0010
0100
1000
0001
,
1100
0010
1000
0001
1000
0010
1000
0010
1100
0001
0010
0001
1000
0010
1000
0100
,
1010
0001
0100
0010
0100
0001
0010
0001
1100
0001
0100
0010
1000
0001
0010
0001
,
1100
0010
0100
0010
1000
0010
0100
0001
0010
0001
1000
0100
0010
0001
1000
0010
,
1100
0001
0100
0010
1000
0010
0100
0001
0100
0001
0010
0100
1000
0001
0010
0100
,
1001
0010
0001
1000
0100
1000
0010
0100
1001
0010
0100
1000
0010
0100
0001
1000
,
0110
1000
0010
0100
0001
0010
0001
1000
0101
1000
0010
0100
0010
1000
0010
0100
,
1001
0010
0100
1000
0001
0100
0001
1000
0110
1000
0010
0100
0001
0010
0100
0010
,
0101
1000
0001
0100
0010
0100
0001
1000
0001
1000
0010
0100
0001
0010
0100
1000
,
0011
1000
0001
0010
0100
0010
0001
1000
0001
1000
0010
1000
0100
0010
0001
0010
,
1100
0010
0001
1000
0010
0100
0001
0010
0101
1000
0001
1000
0100
0010
0001
1000
,
0011
0100
0001
1000
0001
0100
0001
0100
0011
1000
0100
1000
0001
0100
0001
0010
,
0101
1000
0010
0100
0010
1000
0100
1000
0101
1000
0010
0100
0001
1000
0100
1000
,
0011
0100
0010
0100
0001
0100
0010
1000
0010
1000
0001
0010
0100
1000
0001
0100
,
0011
1000
0010
0100
0001
0100
0010
1000
0010
1000
0100
0010
0001
1000
0100
1000
,
0011
0000
1100
0000
0001
0100
1010
0000
,
1000
0000
0011
0000
0100
0100
1100
0000
,
1100
0000
0011
0100
1000
0010
1010
0100
,
0101
0000
1100
0000
0001
1000
1100
0000
,
0011
0000
0110
0100
0000
1000
1010
0000
,
0101
0000
1010
0000
0100
0001
0011
0000
,
0110
0000
0100
1100
0000
0000
1001
0000
,
0101
0000
1010
0000
0100
0100
0101
0000
,
1001
1000
0001
0100
0010
1000
0100
0010
,
1001
0010
0001
1000
0100
1000
0010
0100
1001
0010
0100
1000
0010
0100
0001
1000
,
0110
1000
0010
0100
0001
0010
0001
1000
0101
1000
0010
0100
0010
1000
0010
0100
,
1001
0010
0100
1000
0001
0100
0001
1000
0110
1000
0010
0100
0001
0010
0100
0010
,
0101
1000
0001
0100
0010
0100
0001
1000
0100
1000
0010
0100
0001
0010
0100
1000
,
0011
1000
0001
0010
0100
0010
0001
1000
0100
1000
0010
1000
0100
0010
0001
0010
,
1100
0010
0001
1000
0010
0100
0001
0010
0101
1000
0001
1000
0100
0010
0001
1000
,
0011
0100
0001
1000
0001
0100
0001
0100
0011
1000
0100
1000
0001
0100
0001
0010
,
0101
1000
0010
0100
0010
1000
0100
1000
0101
1000
0010
0100
0001
1000
0100
1000
,
0011
0100
0010
0100
0001
0100
0010
1000
0100
1000
0001
0010
0100
1000
0001
0100
,
0011
1000
0010
0100
0001
0100
0010
1000
0010
1000
0100
0010
0001
1000
0100
0010
,
1001
0100
1000
0001
0010
0001
0100
0010
1001
0100
0010
0001
0100
0010
1000
0001
,
1010
0001
0100
0010
1000
0100
1000
0001
0110
0001
0100
0010
0100
0001
0100
0010
,
1001
0100
0010
0001
1000
0010
1000
0001
0110
0001
0100
0010
1000
0100
0010
0100
,
1010
0001
1000
0010
0100
0010
1000
0001
0100
0001
0100
0010
1000
0100
0010
0001
,
1010
0001
1000
0100
0010
0100
1000
0001
0010
0001
0100
0001
0010
0100
1000
0100
,
0011
0100
1000
0001
0100
0010
1000
0100
1010
0001
1000
0001
0010
0100
1000
0001
,
1100
0010
1000
0001
1000
0010
1000
0010
1100
0001
0010
0001
1000
0010
1000
0100
,
1010
0001
0100
0010
0100
0001
0010
0001
1100
0001
0100
0010
1000
0001
0010
0001
,
1100
0010
0100
0010
1000
0010
0100
0001
0100
0001
1000
0100
0010
0001
1000
0010
,
1100
0001
0100
0010
1000
0010
0100
0001
0100
0001
0010
0100
1000
0001
0010
0001
,
1100
0000
0011
0000
1000
0010
0101
0000
,
0001
0000
1100
0000
0010
0001
0011
0000
,
0101
0000
1100
0010
0000
0100
0101
0010
,
1010
0000
0011
0000
1000
0001
0011
0000
,
1100
0000
0110
0010
0000
0001
0101
0000
,
1010
0000
0101
0000
0010
1000
1100
0000
,
0110
0000
0010
0011
0000
0000
1001
0000
,
1010
0000
0101
0000
0010
0100
1010
0000
,
1001
0010
0001
0100
0010
1000
0010
0100
,
0101
1000
0010
1000
0001
0100
0010
1000
0100
0010
0100
1000
0001
0010
0100
0010
,
1001
0100
1000
0010
0100
0001
0100
0010
1100
0001
0010
0001
0100
0010
1000
0100
,
0011
1000
0100
0010
0100
1000
0001
0100
0010
0100
0001
0010
0001
0100
0010
1000
,
0101
0010
1000
0001
0010
0001
0100
0010
1000
0100
0010
0100
1000
0001
0100
0010
,
0101
1000
0001
0010
0100
1000
0100
0010
0001
0100
0010
1000
0100
0010
0001
0010
,
1001
0100
1000
0001
0100
0010
0100
0001
1010
0001
0100
0010
1000
0100
0010
0100
,
0011
1000
0010
0100
0001
1000
0010
1000
0001
0010
0001
0100
0010
1000
0100
0010
,
0100
1000
0100
0010
0001
0100
0010
0100
1001
0000
0100
0000
0010
0000
0001
0000
,
1010
0001
0100
0001
1000
0010
0100
0001
0010
0100
0010
0001
1000
0100
0010
0100
,
1001
0010
0001
0100
0010
1000
0010
0100
1010
0001
0100
0010
1000
0100
1000
0100
,
0011
1000
0100
0010
0100
1000
0001
0100
0010
0100
0001
0010
1001
0100
0010
0001
,
0100
0010
1000
0001
0010
0001
0100
0010
1001
0100
0010
0100
0001
1000
0100
0010
,
1100
0001
0100
0001
0100
0010
1000
0100
0010
0001
0100
0010
1001
0100
0010
1000
,
0001
0100
0010
1000
0100
0010
0001
0010
1100
0001
0100
0010
1000
0100
0010
0100
,
0011
1000
0010
0100
0001
1000
0010
1000
0101
0010
1000
0001
0100
0010
1000
0100
,
0011
1000
0100
0010
0001
0010
0100
0010
1001
0100
0010
1000
0101
0000
0010
0000
,
0101
1000
0010
1000
0001
0100
0010
1000
0100
0010
0100
1000
0001
0010
0100
0010
,
1001
0100
1000
0010
0100
0001
0100
0010
0101
1000
0010
0100
0001
0010
0001
0010
,
1100
0001
0010
0100
0010
0001
1000
0010
0100
0010
1000
0100
0010
0001
0100
0010
,
1001
0100
0001
1000
0100
1000
0010
0100
0001
0010
0100
0010
0001
0010
0100
1000
,
0011
0100
1000
0010
0100
0001
0010
0100
1000
0001
0100
0010
1000
0010
0100
0001
,
1010
0100
0001
0010
0001
1000
0100
1000
0011
0100
1000
0010
0100
0001
0100
0010
,
0101
1000
0100
0010
0001
0010
0001
0100
1010
0001
1000
0100
0010
0100
1000
0001
,
1100
0010
0001
0010
0100
1000
0010
0100
1001
0010
0100
0001
0100
0010
1000
0100
,
0011
0000
0000
1100
0000
0000
1010
0000
,
0101
0000
0000
0110
0000
0000
1100
0000
,
0110
0000
0000
0000
0000
0000
0000
0000
0000
1000
0001
1000
,
0110
0000
0000
0101
0000
0000
1010
0000
,
0101
0010
1000
0001
0100
0001
1000
0100
1000
0100
0010
0001
1100
0010
0100
0010
,
1001
0010
0001
1000
0100
1000
0010
0100
0010
0100
0001
1000
0110
1000
0001
0010
,
1100
0000
0110
0000
1001
0010
0101
0000
1010
0000
1100
0010
,
0011
1000
0100
1000
0010
1000
0001
0100
0001
0100
0010
1000
0101
1000
0010
0100
,
1001
0010
0100
0001
0010
0001
1000
0100
1000
0100
0010
0001
1100
0010
0100
0001
,
1010
0000
0101
1000
0011
0010
1100
0000
0000
0110
0000
0000
,
1001
0010
0100
0001
1000
0001
0100
0001
0100
0001
1000
0100
1001
0010
0100
0001
,
1010
0100
0010
1000
0100
1000
0001
0010
0001
0010
0100
1000
0011
0100
0010
1000
,
0101
0000
1010
0100
1001
0000
0011
0000
0110
0100
1001
0000
,
1010
0001
1000
0100
0010
0100
1000
0010
1000
0010
0100
0001
1000
0100
0010
0001
,
1100
0010
0001
0100
0010
0100
0001
1000
0001
1000
0010
0100
0001
1000
0100
0010
,
1001
0000
0011
0010
0110
0000
1100
0000
0000
1001
0000
0000
,
1100
0000
0011
1000
0110
0100
1001
0000
0000
0101
0000
0000
,
1000
0100
1010
0001
0010
0100
1001
0100
0010
0100
1010
0001
0100
0010
1100
0001
,
0010
0100
1010
0001
0010
0100
1010
0001
0200
0000
1000
0000
0320
0000
0001
0000
,
0130
0001
1010
0100
1000
0100
1010
0001
0010
0100
1010
0001
0100
0010
1100
0001
,
0100
0010
1001
0100
0010
0001
1010
0100
0020
0000
0100
0000
0031
0000
1001
0000
,
0100
0010
0101
1000
0100
0010
0101
0010
0100
0010
0101
1000
0010
0100
0011
1000
,
0100
0010
0101
1000
0100
0010
0101
1000
0020
0000
0001
0000
2030
0000
0100
0000
,
3001
1000
0101
0010
0001
0010
0101
1000
0100
0010
0101
1000
0010
0100
0011
1000
,
0010
0100
1001
0010
0100
1000
0101
0010
0200
0000
0010
0000
1300
0001
1100
0010
,
1000
0001
1010
0100
1000
0001
1010
0100
1000
0100
1010
0001
1000
0100
1010
0100
,
1000
0001
1100
0010
1000
0001
0110
0001
0200
0000
1000
0000
0302
0000
0010
0000
,
1003
0100
0011
0100
1000
0001
1010
0100
0010
0001
1100
0010
1000
0010
0101
0010
,
0100
0001
1010
0001
0100
0010
1001
0100
0020
0000
1000
0000
0130
0000
0011
0000
,
0100
1000
0101
0010
0001
1000
0101
0010
0001
0010
0101
1000
0001
0010
0101
0010
,
0001
1000
0011
0100
0001
1000
0110
1000
0020
0000
0001
0000
2030
0000
0100
0000
,
3001
0010
1100
0010
0001
1000
0101
0010
0100
1000
0011
0100
0001
0000
1100
0000
,
1010
0000
1100
0000
0110
0000
0011
0000
0101
0000
0010
0000
1000
0100
0010
0001
,
0100
0010
1000
0101
0010
1000
1100
0100
,
0010
0001
0100
1010
0100
0001
1010
0100
,
0001
0010
0100
1001
1000
0100
0110
0010
,
0001
1000
0010
0110
0100
0001
1010
0100
,
0010
0001
0100
1010
0001
0100
0110
0010
,
0001
1000
0010
0101
0010
1000
0101
0010
,
1000
0001
0010
1100
0100
0010
0011
0001
,
1000
0100
0001
0011
0010
1000
0101
0100
,
1010
0100
0001
1010
0100
0001
0011
0010
,
0100
1000
0010
0101
0010
1000
0101
0010
,
1100
0100
0010
1001
0001
0010
0110
0100
,
1000
0001
0100
0110
0010
1000
0101
0010
,
1001
1000
0010
0101
1000
0010
0110
0100
,
1000
0001
0100
1010
0100
0001
1010
0100
,
0110
1000
0100
0011
0010
0100
1100
1000
,
0001
0010
1000
0110
1000
0001
1010
0100
,
0011
0100
1000
1010
0100
0001
0011
0100
,
0110
0000
0000
1000
0000
0000
0100
0000
0000
0010
0000
0000
0011
0000
0100
0000
1000
0000
0011
0000
1000
0000
0100
0000
,
2001
0000
0000
0000
0200
0000
0000
0300
,
0002
0000
0000
0003
0200
0000
0000
3300
,
0012
0000
0100
0000
1000
0000
0100
0100
,
0010
0000
0100
0000
1000
0100
0010
0003
,
1020
0000
0000
0000
0200
0000
0000
0300
,
2000
0000
0000
3000
0200
0000
0000
0330
,
2001
0000
0010
0000
0100
0000
0001
0001
,
0100
0000
0010
0000
0001
0100
0010
3000
,
1002
0000
0000
0000
0020
0000
0000
0030
,
2000
0000
0000
3000
0200
0000
0000
0303
,
2100
0000
0010
0000
0001
0000
0010
0010
,
0100
0000
0010
0000
0001
0010
0100
3000
,
0102
0000
0000
0000
0020
0000
0000
0030
,
2000
0000
0000
3000
0200
0000
0000
0303
,
1002
0000
0100
0000
0010
0000
1000
1000
,
0010
0000
0000
0000
0100
0000
0000
0000
1000
0000
0013
0000
0100
0010
1000
0001
,
1000
0100
0010
0100
1001
0100
0010
0100
1000
0100
0010
0001
1100
0010
1000
0001
,
0010
0001
0100
0001
1010
0001
0100
0001
0100
0010
1000
0001
1010
0100
0010
0001
,
1000
0010
0100
0001
1010
0100
1000
0100
0010
0100
1000
0010
1100
0001
0010
0001
,
0100
0010
1000
0001
0110
0001
0100
0010
1000
0100
0010
0100
1010
0001
1100
0010
,
1000
0001
0010
0001
1100
0010
1000
0001
0010
0001
0100
0010
1001
0100
1000
0001
,
0100
0010
1000
0001
0110
0001
0100
0010
0001
0100
0010
0100
1010
0001
0100
0010
,
0100
0001
0010
0001
1100
0010
0100
0001
0010
0001
1000
0010
1001
0100
1000
0001
,
0100
0010
1000
0100
1001
0010
1000
0010
1100
0001
0100
0010
1100
0001
0100
0010
,
1001
0100
0001
0010
0101
0010
0100
1000
0011
0100
0001
1000
0101
0010
0001
1000
,
0110
0001
1000
0100
1010
0100
1000
0001
1100
0010
1000
0100
1010
0001
0100
0010
,
1001
0100
0001
0010
1001
0100
0010
1000
0101
0010
0001
1000
0011
0100
0001
0010
,
1001
0100
0010
1000
0101
0010
0100
1000
0101
0010
0001
0010
0101
0010
0100
1000
,
0101
0010
1000
0100
1010
0001
0100
0010
1001
0100
0010
1000
0101
0010
0001
0010
,
1100
0001
0100
0010
1001
0100
0010
0001
1100
0010
0001
0100
0011
1000
0100
1000
,
0110
0001
0100
0010
1100
0001
0010
0100
1010
0001
0100
0010
1100
0001
0010
0001
,
1100
0010
0100
0000
0110
0000
0010
0000
1000
0100
1000
0000
0100
0000
0010
0000
,
0002
0000
0103
0010
,
2010
0000
0000
0000
3100
0000
0000
0100
,
1010
0001
0100
0001
1000
0010
0100
0001
0010
0100
0010
0001
1000
0100
0010
0100
,
1001
0010
0001
0100
0010
1000
0010
0100
0011
1000
0100
1000
0010
0100
0001
0010
,
1100
0001
0010
0100
0010
0001
1000
0010
0100
0010
1000
0100
1000
0010
0100
0001
,
1010
0100
0001
1000
0100
1000
0010
0100
0001
0010
0100
0010
0001
1000
0010
0100
,
1010
0001
1000
0100
0010
0001
0010
0100
1000
0010
0100
0001
0010
0100
1000
0100
,
1001
0010
0001
1000
0010
0100
0010
1000
0101
1000
0010
0100
0001
0010
0100
0010
,
1100
0001
0100
0010
1000
0001
0100
0001
1010
0100
1000
0010
0100
0001
0010
0100
,
1010
0001
0010
0100
1000
0010
0100
0010
1001
0000
0010
0000
0100
0000
1000
0000
,
0101
1000
0010
1000
0001
0100
0010
1000
0100
0010
0100
1000
0001
0010
0100
0010
,
1001
0100
1000
0010
0100
0001
0100
0010
0101
1000
0010
0100
0001
0010
0001
0010
,
1100
0001
0010
0100
0010
0001
1000
0010
0100
0010
1000
0100
1001
0010
0100
1000
,
0010
0100
0001
1000
0100
1000
0010
0100
1001
0010
0100
0010
1000
0001
0010
0100
,
0011
1000
0010
1000
0010
0100
0001
0010
0100
1000
0010
0100
1001
0010
0100
0001
,
1000
0010
0100
0001
0010
0100
1000
0100
0011
1000
0010
0100
0001
0010
0100
0010
,
1100
0001
0100
0010
1000
0001
0100
0001
1010
0100
0001
1000
0010
0100
0001
0010
,
1100
0001
0010
0100
1000
0100
0010
0100
1001
0010
0100
0001
1010
0000
0100
0000
,
1010
0001
0100
0001
1000
0010
0100
0001
0010
0100
0010
0001
1000
0100
0010
0100
,
1001
0010
0001
0100
0010
1000
0010
0100
1010
0001
0100
0010
1000
0100
1000
0100
,
0011
1000
0100
0010
0100
1000
0001
0100
0010
0100
0001
0010
0100
1000
0010
0100
,
1001
0010
1000
0001
0010
0001
0100
0010
1000
0100
0010
0100
1000
0100
0010
0001
,
1100
0010
0001
0100
0010
1000
0100
0010
0001
1000
0010
0100
0001
0100
0010
1000
,
0101
0010
1000
0100
1000
0001
0010
0001
1100
0010
0001
0100
0010
1000
0010
0100
,
1010
0001
0010
0100
1000
0100
1000
0010
0101
1000
0001
0010
0100
0010
0001
1000
,
0011
0100
1000
0100
0010
0001
0100
0010
1001
0100
0010
1000
0010
0100
0001
0010
,
1100
0000
0000
0011
0000
0000
0101
0000
,
1010
0000
0000
0110
0000
0000
0011
0000
,
0110
0000
0000
0000
0000
0000
0000
0000
0000
0001
1000
0010
,
0101
0000
0000
1010
0000
0000
1100
0000
,
1001
0000
0000
0000
;
