#TITLE:Straight to Video;
#SUBTITLE:;
#ARTIST:Mindless Self Indulgence;
#TITLETRANSLIT:;
#SUBTITLETRANSLIT:;
#ARTISTTRANSLIT:;
#CREDIT:;
#BANNER:Straight to Video Banner.jpg;
#BACKGROUND:Straight to Video BG.jpg;
#LYRICSPATH:;
#CDTITLE:!IzzyTitle.png;
#MUSIC:08 - Mindless Self Indulgence - Straight to Video.mp3;
#OFFSET:-0.220;
#SAMPLESTART:48.777;
#SAMPLELENGTH:12.000;
#SELECTABLE:YES;
#BPMS:0.000=123.010;
#STOPS:284.000=0.500
,285.000=0.500
,452.000=1.000
;
#BGCHANGES:;
// cache tags:
#FIRSTBEAT:1.500;
#LASTBEAT:452.000;
#SONGFILENAME:Songs/Bemani.se Megapack/(Izzy) Straight to Video/Straight to Video.sm;
#HASMUSIC:1;
#HASBANNER:1;
#MUSICLENGTH:224.888;
// end cache tags

//---------------dance-single - Izzy----------------
#NOTES:
     dance-single:
     Izzy:
     Hard:
     11:
     1.000,1.000,1.000,1.000,0.709,1055.000,389.000,248.000,0.000,1.000:
0000
0000
0000
0001
0010
0001
0010
0001
,
0010
0000
0000
0100
1000
0100
1000
0100
,
1000
0000
0000
0001
0010
0100
0010
0001
,
1000
0000
0000
1000
0100
0010
0100
1000
,
0001
0000
0000
0010
0010
0001
0100
0010
,
0100
0000
0000
0100
0100
1000
0010
0100
,
0010
0000
0000
0001
0001
1000
0100
0010
,
0001
0000
0000
1000
1000
0001
0010
0100
,
1001
1001
1001
0000
0001
0001
0001
0000
,
1001
1001
1001
0000
0100
0100
0010
0000
,
0110
0110
0110
0000
1000
0001
0100
1000
,
0110
0110
0110
0010
0010
0010
0010
0000
,
1001
1001
1001
0001
0100
0010
1000
0000
,
1001
1001
1001
0000
0001
0001
0100
0000
,
1001
1001
1001
0000
0010
0001
0100
1000
,
0110
0110
0110
0000
0000
0000
0001
0001
,
1001
0100
1000
0100
1000
0001
0010
0001
0010
0001
1000
0100
0010
0001
1000
0100
,
1001
0100
0010
0001
0100
0010
1001
0100
0010
0001
0010
0100
1000
0010
0100
0010
,
1001
0010
0100
0010
0100
0001
1000
0001
1000
0010
1000
0010
1000
0100
0010
0100
,
1001
0100
0010
0100
1000
0010
1100
0010
0100
0010
0001
0010
0001
0010
0100
1000
,
0011
0100
1000
0100
1000
0001
0010
0001
0010
0100
1000
0100
0010
0001
1000
0010
,
1001
1000
0100
0010
0001
1000
0011
0100
0001
0100
0001
1000
0100
1000
0100
0010
,
1001
0001
1000
0010
0100
0001
0010
0100
1000
0001
0010
0100
1000
0001
0010
0100
,
0110
0001
0100
0010
0100
0001
1100
0010
0100
0001
0010
0100
1000
0001
0100
0001
,
0110
0000
0000
0000
0000
0000
0022
0033
2200
3300
0202
0303
2020
3030
0220
0330
,
2002
0000
0000
3003
0000
0000
2200
3300
0022
0033
2020
3030
0202
0303
2002
3003
,
0220
0000
0000
0330
0000
0000
0022
0033
0022
0033
0022
0033
0022
0033
2200
3300
,
2200
0000
0000
3300
0000
0000
2200
3300
2200
3300
0202
0303
2020
3030
0220
0330
,
2002
0000
0000
3003
0000
0000
0022
0033
0022
0033
2020
3030
0202
0303
2002
3003
,
0220
0000
0000
0330
0000
0000
2200
3300
2020
3030
2200
3300
2020
3030
2200
3300
,
2002
0000
0000
3003
0000
0000
0022
0033
0202
0303
0022
0033
0202
0303
0022
0033
,
2002
0000
0000
3003
0000
0000
2002
3003
2002
3003
2002
3003
2002
3003
2002
3003
,
1001
1001
1001
0000
0001
0001
0001
0000
,
1001
1001
1001
0000
1000
1000
1000
0000
,
0110
0110
0110
0000
0100
0010
0100
0100
,
0110
0110
0110
0001
0001
1000
1000
0000
,
1001
0110
1001
0000
0001
0010
0100
0000
,
0110
0110
1001
0000
0010
0100
1000
0000
,
1001
1001
1001
0000
0001
1000
0100
0010
,
1001
1001
0110
0000
0000
0000
0100
0100
,
1001
0010
0001
0010
0001
1000
0100
1000
0100
1000
0001
0010
0100
1000
0001
0010
,
1001
0010
0100
1000
0010
0100
1001
0010
0100
1000
0100
0010
0001
0100
0010
0100
,
1001
0100
0010
0100
0010
1000
0001
1000
0001
0100
0001
0100
0001
0010
0100
0010
,
1001
0010
0100
0010
0001
0100
0011
0100
0010
0100
1000
0100
1000
0100
0010
0001
,
1100
0010
0001
0010
0001
1000
0100
1000
0100
0010
0001
0010
0100
1000
0001
0100
,
1001
0001
0010
0100
1000
0001
1100
0010
1000
0010
1000
0001
0010
0001
0010
0100
,
1001
1000
0001
0100
0010
1000
0100
0010
0001
1000
0100
0010
0001
1000
0100
0010
,
0110
1000
0010
0100
0010
1000
0011
0100
0010
1000
0100
0010
0001
1000
0010
1000
,
0110
0000
0000
0000
0000
0000
0022
0033
2200
3300
0202
0303
2020
3030
0220
0330
,
2002
0000
0000
3003
0000
0000
2200
3300
0022
0033
2020
3030
0202
0303
2002
3003
,
0220
0000
0000
0330
0000
0000
0022
0033
0022
0033
0022
0033
0022
0033
2200
3300
,
2200
0000
0000
3300
0000
0000
2200
3300
2200
3300
0202
0303
2020
3030
0220
0330
,
1001
0010
0001
0010
0001
1000
0100
1000
0100
1000
0001
0010
0100
1000
0001
0010
,
1001
0010
0100
1000
0010
0100
0001
0010
0100
1000
0100
0010
0001
0100
0010
0100
,
1001
0100
0010
0100
0010
1000
0001
1000
0001
0100
0001
0100
0001
0010
0100
0010
,
1001
0010
0100
0010
0001
0100
0010
0100
0010
0100
1000
0100
1000
0100
0010
0001
,
1100
0010
0001
0010
0001
1000
0100
1000
0100
0010
0001
0010
0100
1000
0001
0100
,
1001
0001
0010
0100
1000
0001
0100
0010
1000
0010
1000
0001
0010
0001
0010
0100
,
1001
1000
0001
0100
0010
1000
0100
0010
0001
1000
0100
0010
0001
1000
0100
0010
,
0110
1000
0010
0100
0010
1000
0001
0100
0010
1000
0100
0010
0001
1000
0010
1000
,
0101
0010
0001
0010
0001
1000
0100
1000
0100
1000
0001
0010
0100
1000
0001
0010
,
1001
0010
0100
1000
0010
0100
0001
0010
0100
1000
0100
0010
0001
0100
0010
0100
,
1001
0100
0010
0100
0010
1000
0001
1000
0001
0100
0001
0100
0001
0010
0100
0010
,
1001
0010
0100
0010
0001
0100
0010
0100
0010
0100
1000
0100
1000
0100
0010
0100
,
1001
0100
0010
0001
1001
0010
0100
1000
,
1001
0110
1010
1010
0101
0101
1001
0110
,
1001
0010
0100
1000
1001
0100
0010
0001
,
1001
0110
0101
0101
1010
1010
1001
0110
,
1001
0100
0010
0001
1001
0010
0100
1000
,
1001
0110
1010
1010
0101
0101
1001
0110
,
1001
0010
0100
1000
1001
0100
0010
0001
,
1010
0000
0000
0000
0101
0000
0000
0000
1001
0000
0110
0011
0000
1001
0000
1001
,
0000
0110
0110
1001
0000
0000
0000
0000
0000
1001
1001
0000
1010
1010
0000
0110
,
0000
0000
0101
1100
0000
0000
0000
0000
0000
1010
0101
0000
0000
0000
0000
0000
,
1001
0110
1001
0110
1001
0000
0000
0000
0011
1001
0101
0000
0000
0000
0000
0000
,
0110
1010
0000
0000
0000
0000
0000
0000
0110
0000
0101
1100
0000
0110
0000
0110
,
0000
1010
0101
1001
0000
0000
0000
0000
0000
1100
1001
0000
0110
0101
0000
1001
,
0000
0000
1001
0011
0000
0000
0000
0000
0000
0101
1010
0000
0000
0000
0000
0000
,
0110
1001
0110
1001
0110
0000
0000
1100
0110
0000
0101
0000
0011
0110
0000
0011
,
0000
1001
1001
0110
0101
0000
0000
0000
1001
0000
1001
0000
1001
0000
0000
0000
,
0001
0001
0001
0000
1001
1001
1001
0000
,
0100
0100
0010
0000
0110
0110
0110
0000
,
1000
0001
0100
0000
0110
0110
0110
0000
,
0010
0010
0010
0000
0000
0000
0010
0100
,
1001
0100
1000
0100
1000
0001
0010
0001
0010
0001
1000
0100
0010
0001
1000
0100
,
1001
0100
0010
0001
0100
0010
1001
0100
0010
0001
0010
0100
1000
0010
0100
0010
,
1001
0010
0100
0010
0100
0001
1000
0001
1000
0010
1000
0010
1000
0100
0010
0100
,
1001
0100
0010
0100
1000
0010
1100
0010
0100
0010
0001
0010
0001
0010
0100
1000
,
0011
0100
1000
0100
1000
0001
0010
0001
0010
0100
1000
0100
0010
0001
1000
0010
,
1001
1000
0100
0010
0001
1000
0011
0100
0001
0100
0001
1000
0100
1000
0100
0010
,
1001
0001
1000
0010
0100
0001
0010
0100
1000
0001
0010
0100
1000
0001
0010
0100
,
0110
0001
0100
0010
0100
0001
1100
0010
0100
0001
0010
0100
1000
0001
0100
0001
,
0110
0000
0000
0000
0000
0000
0022
0033
2200
3300
0202
0303
2020
3030
0220
0330
,
2002
0000
0000
3003
0000
0000
2200
3300
0022
0033
2020
3030
0202
0303
2002
3003
,
0220
0000
0000
0330
0000
0000
0022
0033
0022
0033
0022
0033
0022
0033
2200
3300
,
2200
0000
0000
3300
0000
0000
2200
3300
2200
3300
0202
0303
2020
3030
0220
0330
,
2002
0000
0000
3003
0000
0000
0022
0033
0022
0033
2020
3030
0202
0303
2002
3003
,
0220
0000
0000
0330
0000
0000
2200
3300
2020
3030
2200
3300
2020
3030
2200
3300
,
2002
0000
0000
3003
0000
0000
0022
0033
0202
0303
0022
0033
0202
0303
0022
0033
,
2002
0000
0000
3003
0000
0000
2002
3003
2002
3003
2002
3003
2002
3003
2002
3003
,
2002
0000
0000
0000
,
3113
0000
0000
0011
1100
1010
0101
0011
,
1001
0000
0000
0011
1100
1010
0101
0011
,
1001
0000
0000
0000
0000
0000
0101
0000
1010
0000
1010
0000
0022
0000
0000
0033
,
1001
0000
0000
0000
0000
0000
1010
0000
0101
0000
0101
0000
2200
0000
0000
3300
,
1001
0000
0000
0011
1100
0011
1100
0011
,
1001
0000
0000
1100
0011
1100
0011
1100
,
1001
0000
0000
0000
0000
0000
0101
0000
1010
0000
0101
0000
2020
0000
0000
3030
,
0110
0000
0000
0000
0000
0000
1010
0000
0101
0000
1010
0000
0202
0000
0000
0303
,
0110
0000
0000
0011
1100
1010
0101
0110
,
1001
0000
0000
0011
1100
1010
0101
0110
,
1001
0000
0000
0000
0000
0000
0101
0000
1010
0000
1010
0000
0022
0000
0000
0033
,
1001
0000
0000
0000
0000
0000
1010
0000
0101
0000
0101
0000
2200
0000
0000
3300
,
1001
0000
0000
0000
;
