#TITLE:I'm Fucking You On Friday;
#SUBTITLE:;
#ARTIST:Loffciamcore;
#TITLETRANSLIT:;
#SUBTITLETRANSLIT:;
#ARTISTTRANSLIT:;
#CREDIT:Aoreo;
#BANNER:Bn-Fuck.png;
#BACKGROUND:Bg-Fuck.png;
#LYRICSPATH:;
#CDTITLE:;
#MUSIC:Friday.ogg;
#OFFSET:0.008;
#SAMPLESTART:36.498;
#SAMPLELENGTH:12.000;
#SELECTABLE:YES;
#BPMS:0.000=240.000;
#STOPS:;
#BGCHANGES:;
// cache tags:
#FIRSTBEAT:28.000;
#LASTBEAT:509.000;
#SONGFILENAME:Songs/SPEEEDCOOOORE/I'm Fucking You On Friday - [Aoreo]/I'm Fucking You On Friday.sm;
#HASMUSIC:1;
#HASBANNER:1;
#MUSICLENGTH:127.750;
// end cache tags

//---------------dance-single - J. Nero----------------
#NOTES:
     dance-single:
     J. Nero:
     Challenge:
     9:
     0.776,1.000,0.853,0.720,0.047,471.000,109.000,92.000,59.000,11.000:
0000
0000
0000
0000
,
0000
0000
0000
0000
,
0000
0000
0000
0000
,
0000
0000
0000
0000
,
0000
0000
0000
0000
,
0000
0000
0000
0000
,
0000
0000
0000
0000
,
MMMM
0000
0000
0000
,
1001
0001
0100
0000
0010
0000
1000
0100
,
0010
0000
0100
1000
0002
0000
0203
0000
,
0310
0100
0001
0000
2002
3003
1000
0100
,
0010
0001
0001
0000
,
0100
0010
1000
0001
1000
0000
0001
0010
,
0100
0000
1000
0010
0100
0000
0000
0000
,
0001
0100
0010
0000
0100
0000
0001
1000
,
0100
1000
2002
3003
,
0101
0101
0110
0000
,
0110
0110
1010
0000
,
1000
0100
1000
0001
0100
0000
0010
0000
,
0100
0000
0000
0000
0001
0000
0000
0000
1000
0001
1000
0001
1000
0001
1000
0001
,
1000
1000
0000
MMMM
,
0001
0101
0100
0110
,
0010
1000
0100
0000
1100
0000
0110
0000
,
0011
1001
MMMM
0000
,
0001
1000
0010
0110
,
0100
0101
0001
1001
,
1000
1100
0100
0110
,
0010
0000
0000
0000
0000
0000
0000
0000
0011
0000
0000
0000
0000
0000
0000
0000
0002
0000
0000
0000
0203
0000
0000
0000
0302
0000
0000
0000
0203
0000
0000
0300
,
1001
0000
1100
0000
0100
0000
1000
0010
,
0100
0001
1000
0000
0404
0303
0000
0000
,
1101
0000
0000
0000
0000
0000
0001
0001
,
1101
0000
2002
0000
,
0000
0000
0000
0000
,
0000
0000
0000
0000
,
0000
0000
0000
0000
,
0000
0000
0000
0000
,
0000
0000
0000
3003
0020
0230
0320
0230
,
0301
1000
0100
0010
0100
0000
0110
0000
,
0010
0001
1001
1000
,
0010
0010
0010
0100
,
0101
0000
1001
0000
,
1001
1000
0001
0100
0001
0000
0010
0000
,
0100
1000
0010
0100
,
0101
1001
1100
0110
,
0022
0033
2002
3003
,
0002
0000
0013
0100
1000
0000
0010
0000
,
0200
0000
0301
0000
1000
0001
1000
0001
,
0100
0000
0010
1000
0010
0000
0100
0000
,
0202
0303
0001
0000
2002
3003
1000
0001
,
0200
0300
0200
0300
0004
0003
0040
0030
,
0400
0300
4000
3000
1010
0000
0110
0000
,
0101
0000
1001
0000
2000
3000
0020
0030
,
0200
0301
1000
0000
1010
0000
0000
0000
,
1111
0000
1111
0000
,
1111
0000
1001
0000
,
0101
0001
1111
0000
,
1111
0000
1111
0000
,
1001
0001
0110
0100
,
0101
0001
1001
1000
,
1010
0010
M110
01M0
,
0101
0000
0M01
00M0
1001
0000
1000
000M
,
0M00
0000
0000
00M0
M000
0M00
M000
000M
,
0000
0000
0000
0M00
000M
0000
M000
0000
00M0
0000
0000
0000
0000
0000
0000
0000
,
MMMM
0000
MMMM
0000
MMMM
0000
MMMM
0000
0000
1101
0000
0000
,
0000
0001
1000
0000
0100
1000
0010
0100
,
0001
0100
0010
0000
0000
MMMM
0000
0000
,
0100
0001
1000
0000
1000
0100
0000
0000
,
0000
0000
1000
0100
1000
0001
1101
0000
,
0100
0000
0010
0000
1000
0001
0010
0100
,
0010
0001
1000
0000
0000
0000
0000
0000
,
0001
0000
0101
0000
,
0100
0000
0010
0000
0000
0100
0202
0303
,
0001
0000
2002
3003
1000
0000
2200
3300
,
0100
0000
0022
0033
0001
0100
0202
0303
,
0001
0000
2002
3003
1000
0000
2020
3030
,
0010
0000
0220
0330
0100
0000
0001
1000
,
0100
0000
2200
3300
1000
0000
2002
3003
,
0001
0000
0022
0033
0010
0100
0220
0330
,
0010
0000
0022
0033
0001
0000
0000
0000
,
0100
0000
0200
0300
0000
0000
0001
0000
,
1000
0100
1000
0000
0001
0100
0010
0000
,
0110
0000
0200
0300
0001
1000
0100
0000
,
1100
0000
1000
0000
0001
0100
0010
0000
,
0110
0000
0100
0000
0001
1000
0100
0000
,
0020
0031
2000
3010
,
0200
0302
0023
0130
,
1000
0000
0010
0100
0000
0100
0001
0000
,
1000
0100
0000
1100
,
1000
0001
0100
0000
0010
0000
0100
0001
,
0010
0100
1000
0001
0100
0000
0010
0000
,
0110
0000
0100
0000
0101
0000
0001
0100
,
0000
0100
0010
0000
0010
0000
1000
0000
,
0100
1000
0001
0000
0011
0000
0010
0000
,
0100
0000
1100
0000
1000
0000
0001
0100
,
0010
0100
0001
1000
0000
0000
0200
2300
,
3200
2300
3001
0010
0100
0010
0001
0000
,
1001
2000
3010
0110
,
0100
0001
1000
0000
0100
1000
0001
0000
,
0100
0000
0020
0000
0130
0000
0001
1000
,
0100
0010
0100
1000
0001
0100
0001
0000
,
0100
0010
0010
0100
,
0001
1000
0200
0000
1300
0000
1001
0000
,
0001
0000
1202
0303
0000
0000
2002
3003
,
1000
0100
2000
0000
3010
0000
0110
0000
,
0100
0002
1003
1100
,
0100
1000
0001
0000
0100
0000
0010
0000
,
1000
0000
0002
0000
0103
0000
0001
0100
,
0001
1000
0100
0010
0100
0000
1000
0000
,
0001
0100
0001
0100
,
0010
0100
0001
0000
1001
0000
1100
0000
,
0110
0022
0033
1001
,
0000
1000
1100
0100
,
0110
0010
0011
MMMM
,
0000
0001
0101
0100
,
0110
0000
0020
2030
3020
2030
3000
0000
,
MMMM
1001
0001
0101
,
0100
0110
0010
1010
,
1000
1001
0001
0011
,
0010
0000
0110
0000
0100
0000
1000
0010
,
0100
0010
0200
0000
0300
0000
0002
0000
,
0003
0200
0300
0002
,
0003
2000
3000
0200
,
0300
2000
3000
0020
,
0030
0000
0000
0000
0100
0001
0100
0001
0100
0001
0100
0001
0100
0001
0100
0000
,
0000
0000
0000
0000
,
0000
0000
0000
0000
,
0000
0000
0000
0000
,
0000
MMMM
0000
0000
;
