#TITLE:So Much Shit;
#SUBTITLE:;
#ARTIST:40oz. To Life;
#TITLETRANSLIT:;
#SUBTITLETRANSLIT:;
#ARTISTTRANSLIT:;
#CREDIT:;
#BANNER:so much shit bn.png;
#BACKGROUND:so much shit bg.png;
#LYRICSPATH:;
#CDTITLE:;
#MUSIC:So Much Shit.ogg;
#OFFSET:0.009;
#SAMPLESTART:42.787;
#SAMPLELENGTH:19.200;
#SELECTABLE:YES;
#BPMS:0.000=258.000;
#STOPS:;
#BGCHANGES:;
// cache tags:
#FIRSTBEAT:24.000;
#LASTBEAT:530.000;
#SONGFILENAME:Songs/SPEEEDCOOOORE 3/So Much Shit - [Aoreo]/So Much Shit.sm;
#HASMUSIC:1;
#HASBANNER:1;
#MUSICLENGTH:124.418;
// end cache tags

//---------------dance-single - J. Nero----------------
#NOTES:
     dance-single:
     J. Nero:
     Challenge:
     13:
     0.942,1.000,0.032,0.217,0.269,789.000,4.000,27.000,25.000,0.000:

0000
0000
0000
0000
,
0000
0000
0000
0000
,
0000
0000
0000
0000
,
0000
0000
0000
0000
,
0000
0000
0000
0000
,
0000
0000
0000
0000
,
1000
0100
0010
0100
,
1000
0000
0001
0000
0100
0000
0001
0100
,
0010
0100
0001
1000
,
0100
0000
1000
0100
M0M0
0100
0001
0000
,
1000
0010
0100
0001
,
0010
0000
0100
0000
1000
0000
0010
0100
,
0010
0000
0100
0000
0001
0000
1000
0100
,
0010
0100
1000
0010
0M0M
0010
0001
1000
,
0200
0300
0000
0000
1000
0000
0000
0000
0010
0000
0000
0000
0100
0000
0000
0000
,
0001
0000
0010
0000
0100
0000
1000
0010
,
0100
0001
0010
0001
,
1000
0000
0001
0100
M0M0
0100
1000
0000
,
0010
0100
0001
0010
,
0100
0000
1000
0000
0010
0000
0100
0001
,
0010
0000
0100
1000
0010
0000
0100
0001
,
1000
0010
1000
0000
0010
0000
0100
0000
0001
0000
0001
0000
0010
0000
0010
0000
,
0200
0000
1000
0000
0000
1000
0000
0000
,
0010
0000
0000
1000
0000
0000
1000
0000
,
0000
0000
1000
0000
0000
0010
0000
0000
,
1000
0000
0300
1000
0002
0000
0100
0000
,
2003
0000
0010
0000
0000
0010
0000
0000
,
0100
0000
0000
0010
0000
0000
0010
0000
,
0000
0000
0001
0000
0000
0001
0000
0000
,
0100
0000
0000
0001
3000
0000
0001
0000
,
1000
0100
1000
0001
0100
0010
0100
0001
,
0010
0100
1000
0001
0100
0010
0100
0001
,
0010
0100
1000
0001
0100
0001
1000
0010
,
0100
0001
1000
0100
0010
0001
1000
0100
,
1000
0010
0100
0001
0010
0100
1000
0001
,
0100
0001
1000
0100
1000
0001
0100
0010
,
0100
0001
0010
0100
1000
0001
0100
0010
,
1M00
0000
0000
0M00
0000
0000
0M00
0000
,
0001
0100
0001
1000
0100
0010
0001
1000
,
0100
0000
1000
0000
0010
0000
0100
0000
0001
0000
1000
0000
0010
0000
1000
0100
,
0010
0001
0100
0010
1000
0001
1000
0100
,
0010
0000
0100
0000
1000
0000
0001
0000
0400
0000
0310
0000
1000
0100
1000
0001
,
0100
0001
0010
0100
1000
0001
0100
0010
,
0100
0000
0001
0000
0010
0000
0100
0000
1000
0000
0001
0000
0100
0000
0001
1000
,
0100
1000
0001
0100
0010
0100
0001
1000
,
0100
0000
1000
0001
1000
0000
0001
0100
0001
0000
0100
0010
1000
0000
1000
0000
,
0001
0100
0010
0100
0001
0010
0100
1000
,
0001
0000
0100
0000
0010
0000
0100
0000
0001
0000
1000
0000
0100
0000
1000
0001
,
1000
0001
0010
0100
0010
0001
1000
0010
,
0100
0000
0010
0000
1000
0000
0001
0000
0040
0000
0130
0000
1000
0001
1000
0010
,
0100
0001
0010
0100
0010
0001
0100
0010
,
0100
0000
0001
0000
1000
0000
0100
0000
1000
0000
0001
0000
0100
0000
0001
0010
,
0100
1000
0001
0100
0010
1000
0100
1000
,
0001
0100
0001
1000
0010
0100
0010
1000
0001
0010
0001
1000
0100
0010
0001
1000
,
0001
0100
0001
0010
,
0100
0000
1000
0000
0010
0000
0100
0001
,
0010
0100
1000
0010
,
0100
0000
0001
0010
0M0M
0010
1000
0000
,
0001
1000
0100
0010
,
0100
0000
1000
0000
0001
0000
0100
0010
,
1000
0000
0100
0000
1000
0000
0001
0100
,
0001
1000
0010
0100
M0M0
0100
1000
0001
,
0010
0100
1000
0001
,
0100
0000
0010
0000
0100
0000
0001
1000
,
0100
0010
0100
1000
,
0001
0000
1000
0010
0M0M
0010
0001
0000
,
0100
0001
0010
0100
,
1000
0000
0001
0000
0100
0000
0001
1000
,
0100
0000
0010
0100
1000
0000
0001
0100
,
0001
1000
0001
0000
1000
0000
0100
0000
0010
0000
0100
0000
1000
0000
0001
0000
,
0200
0300
0000
0000
0001
0000
0000
0000
0010
0000
0000
0000
0001
0000
0100
0000
,
0000
0001
0100
0000
0010
0000
0010
0000
,
1000
0000
0100
0000
0010
0000
0100
1000
,
0000
0100
1000
0000
0010
0000
0010
0000
,
0100
0000
0001
0000
0010
0000
0001
0100
,
0000
0001
0100
0000
0010
0000
0010
0000
,
1000
0000
0100
0000
0010
0000
0100
1000
,
0000
0100
1000
0000
0010
0000
0010
0000
,
0100
0000
0000
0000
0002
0003
0000
0000
1000
0000
0200
0300
1000
0000
0001
0000
,
0200
0300
0001
0000
0010
0000
0200
0300
1000
0000
0000
0000
0002
0003
0000
0000
,
1000
0000
0000
0000
0020
0030
0000
0000
0100
0000
0002
0003
1000
0000
0100
0000
,
0020
0030
0100
0000
1000
0000
0002
0003
0100
0000
0000
0000
0002
0003
0000
0000
,
1000
0000
0000
0000
0200
0300
0000
0000
1000
0000
0200
0300
1000
0000
0001
0000
,
0200
0300
0001
0000
0010
0000
0200
0300
1000
0000
0000
0000
0020
0030
0000
0000
,
0100
0000
0000
0000
0002
0003
0000
0000
0010
0000
0200
0300
1000
0000
0001
0000
,
0200
0300
0001
0000
1000
0000
0020
0030
0100
0000
0000
0000
0002
0003
0000
0000
,
1000
0100
1000
0001
0010
0100
1000
0001
,
0100
0000
0010
0000
0100
0000
0001
0000
1000
0000
0100
0000
0010
0000
0001
1000
,
0100
1000
0010
0100
0010
1000
0001
0100
,
0001
0000
0010
0000
0001
0000
0100
0000
0040
0000
1030
0000
0100
1000
0001
0100
,
0001
1000
0100
0010
0100
1000
0001
0100
,
0001
0000
1000
0000
0010
0000
0100
0000
0010
0000
1000
0000
0001
0000
0010
0100
,
1000
0001
0100
0010
0100
0001
0010
0100
,
1000
0000
0001
0100
0001
0000
1000
0010
1000
0000
0010
0100
0001
0000
0001
0000
,
0100
0010
0100
0001
0010
0100
1000
0010
,
0100
0000
0010
0000
1000
0000
0100
0000
1000
0000
0001
0000
0100
0000
0010
1000
,
0001
0010
0100
1000
0010
0100
0001
0100
,
0010
0000
1000
0000
0100
0000
1000
0000
0040
0000
0130
0000
0001
1000
0001
0010
,
0100
1000
0001
0100
0001
1000
0010
0100
,
0010
0000
1000
0000
0100
0000
0010
0000
0001
0000
1000
0000
0100
0000
1000
0001
,
0100
0010
0100
0001
0010
0100
1000
0001
,
1000
0010
1000
0001
0100
0010
0100
0001
1000
0100
1000
0001
0010
0100
1000
0001
,
1000
0001
0100
0010
,
0100
0000
0001
0000
0010
0000
0100
1000
,
0001
1000
0100
0010
,
0100
0000
1000
0100
M0M0
0100
0001
0000
,
0100
0010
0100
0001
,
0010
0000
0100
0000
1000
0000
0001
0100
,
0010
0000
0100
0000
0001
0000
1000
0010
,
1000
0001
0100
0010
0M0M
0010
0001
1000
,
0100
0010
0100
1000
,
0001
0000
0100
0000
0010
0000
0100
0001
,
0010
0100
1000
0001
,
0100
0000
0001
0100
M0M0
0100
1000
0000
,
0001
0010
0100
0010
,
0001
0000
1000
0000
0010
0000
0100
0001
,
0010
0000
0100
1000
0010
0000
0100
0001
,
1000
0100
1000
0000
0001
0000
0010
0000
0100
0000
1000
0000
0010
0000
0100
0000
,
0002
0003
0000
0000
0000
0000
0000
0000
,
0000
0000
0000
0000
,
0000
0000
0000
0000
,
0000
0000
0000
0000
,
0000
0000
0000
0000
,
1000
0000
0001
0100
0001
0000
1000
0000
0100
0000
0010
0001
1000
0000
0001
0000
,
0100
0000
0010
1000
0010
0000
0100
0000
0001
0000
1000
0100
0010
0000
0100
0000
,
1000
0000
0001
0100
0001
0000
0100
0000
0010
0000
1000
0001
0100
0000
0001
0000
,
0010
0100
0010
0100
1000
0000
0001
0000
0100
0001
1000
0001
0100
0010
0100
0001
,
1000
0000
0100
1000
0100
0000
0010
0000
0001
0000
1000
0100
1000
0000
0001
0000
,
0100
0000
0010
1000
0010
0000
0100
0000
0001
0000
0010
0100
1000
0000
0001
0000
,
0100
0000
0001
1000
0001
0000
1000
0000
0100
0000
0010
0001
1000
0000
0010
0000
,
1000
0001
0100
0001
1000
0010
0100
0001
1000
0100
1000
0001
0010
0100
1000
0001
,
2000
3000
0000
0000
0000
0000
0000
0000
,
0000
0000
MMMM
0000
;
