#TITLE:Battle;
#SUBTITLE:;
#ARTIST:Unknown artist;
#TITLETRANSLIT:;
#SUBTITLETRANSLIT:;
#ARTISTTRANSLIT:;
#CREDIT:;
#BANNER:Naruto_banner2.jpg;
#BACKGROUND:rockleekaio_1024x768.jpg;
#LYRICSPATH:;
#CDTITLE:;
#MUSIC:Battle.mp3;
#OFFSET:0.120;
#SAMPLESTART:57.023;
#SAMPLELENGTH:12.000;
#SELECTABLE:YES;
#BPMS:0.000=105.000;
#STOPS:;
#BGCHANGES:;
// cache tags:
#FIRSTBEAT:10.000;
#LASTBEAT:161.000;
#SONGFILENAME:Songs/toune 1 (2010)/rock lee battle/Battle.sm;
#HASMUSIC:1;
#HASBANNER:1;
#MUSICLENGTH:96.521;
// end cache tags

//---------------dance-single - ----------------
#NOTES:
     dance-single:
     :
     Hard:
     1:
     0.669,0.730,0.694,0.559,0.995,331.000,67.000,54.000,0.000,0.000:
0000
0000
0000
0000
,
0000
0000
0000
0000
,
0000
0000
0000
0000
0000
0000
0000
0000
1001
0000
0000
0000
0110
0000
0000
0101
,
0000
0000
0000
0000
2002
0000
0000
0000
3003
0000
1000
0000
0001
0000
0100
0000
0010
0000
0100
0000
0001
0000
0100
0001
0010
0000
1000
0000
0001
0000
0100
0000
,
0010
1000
0100
1000
0010
1000
0100
1002
0000
0003
1010
0000
0000
1000
0010
0100
,
0001
0000
0100
0000
0010
0000
0100
0010
0001
0000
0100
0000
0010
0000
1000
0000
0001
0000
0100
0000
1010
0000
0000
0000
1002
0000
0000
0000
0003
0000
0000
0000
,
1100
0000
0000
0000
1010
0000
0000
0000
0000
0000
1000
0000
0010
0000
0100
0000
0001
0000
0100
0000
0010
0000
0100
0010
0001
0000
0100
0000
0010
0000
0100
0000
,
0001
0100
0010
1000
0100
1000
0010
1002
0000
0003
1010
0000
0000
1000
0100
1000
,
0001
0000
0100
0000
0010
0000
0100
0010
0001
0000
0100
0000
0010
0000
0100
0000
0001
0000
0000
0000
0011
0000
0000
0000
0022
0000
0000
0000
0033
0000
0000
0000
,
1100
0000
1100
0000
0000
0020
0000
0000
0000
0000
0030
1000
0000
0001
0000
0100
,
0000
0020
0000
0000
0030
0000
0000
2000
0000
0000
0000
0000
3000
0020
0000
0000
,
0000
0000
0030
0100
0000
0001
0000
1000
0000
0020
0000
0000
0000
0000
0000
0000
,
0000
0000
0000
0030
0000
2000
0000
0000
0000
0000
3000
0002
0000
0100
0003
0010
,
0000
2000
0000
0000
0000
3010
1000
0100
0000
1000
0000
0001
0000
0200
0000
0000
,
0000
0000
0000
0000
0000
0000
0000
0000
0300
0000
0110
0000
2002
0000
0000
3003
,
1010
0000
1100
0000
0000
2000
0000
0000
0000
0000
3000
0001
0000
0100
0000
0010
,
0000
0200
0000
0000
0000
0000
0300
0002
0000
0000
0000
0000
0003
2000
0000
0000
,
0000
0000
3000
0001
0000
1000
0000
0010
0000
0200
0000
0000
0000
0000
0000
0000
,
0000
0000
0300
0000
0000
0020
0000
0000
0000
0000
0030
0100
0000
0001
0000
1000
,
0000
0020
0000
0000
0030
1000
0010
0200
0000
0000
0302
0000
0000
0103
0010
0100
,
0001
0000
0100
0000
0010
0000
1000
0001
0100
0000
1000
0000
1000
0000
0100
0000
1000
0000
0000
0000
0101
0000
0000
0000
0110
0000
0000
0000
0000
0000
0000
0000
,
1001
0000
1100
0000
0000
1000
0100
0001
0010
0000
1000
0001
0100
0010
1000
0000
,
0001
0100
0010
0100
0001
0000
0100
0010
0000
1000
0001
0000
0100
0010
0000
1000
,
0001
0000
0100
0010
1000
0100
0010
0000
1000
0001
0000
0100
0000
0010
0000
1000
,
0000
0001
0000
0100
0010
0010
0000
1000
0001
0000
0100
0010
0000
1000
0001
0000
,
0100
0010
0000
1000
0001
1000
0100
0010
0001
1000
0000
0001
0000
0100
0010
0001
,
0100
0010
1000
0100
1000
0010
1000
0100
0001
1001
0000
1010
0000
1100
0000
2002
,
0000
0000
0000
3003
0000
2020
0000
0000
0000
0000
3030
0100
0000
0000
1010
0000
,
0000
0202
0000
0000
0303
0000
1010
0002
0000
0000
0000
0000
0003
0220
0000
0000
,
0330
0001
1000
0100
0000
0000
1010
0000
0000
2200
0000
0000
3300
1000
0001
0200
,
0000
0000
0300
0000
0000
0220
0000
0000
0030
0301
1000
0010
0000
0000
0110
0000
,
0000
2002
0000
0000
3003
1000
0010
0200
0000
0000
0300
0000
0000
1001
0000
1010
,
0000
1100
0000
1001
0000
1010
0000
1100
0000
1001
0000
1001
0000
1001
0000
2002
,
0000
0000
0000
0000
0000
0000
3003
0000
0000
0000
0001
0000
1000
0000
0010
0000
0100
0000
0001
0000
0100
0000
0010
1000
0001
0000
0100
0000
0010
0000
1000
0000
,
0100
1000
0010
1000
0100
1000
0010
0110
0000
0000
1002
0000
1003
0100
0100
0001
,
1000
0000
0010
0000
1000
0000
0001
0010
1000
0000
0010
0000
0100
0000
0001
0000
0100
0000
0010
0000
1001
0000
0000
0000
2020
0000
0000
0000
0000
0000
3030
0000
,
1100
0000
0000
0000
1020
0000
0000
0000
0030
0000
1000
0000
0010
0000
0100
0000
0001
0000
0100
0000
0010
0000
0100
1000
0001
0000
0100
0000
0010
0000
1000
0000
,
0100
1000
0001
1000
0001
1000
0001
0110
0000
0000
1002
0000
0003
1000
0001
0100
,
0010
0000
0100
0000
0001
0000
0100
1000
0010
0000
1000
0000
0100
0000
1000
0000
0100
0000
0000
0000
1010
0000
0000
0000
2002
0000
0000
0000
0000
0000
3003
0000
,
1100
0000
1010
0000
0000
1001
0000
1010
0000
0101
0000
1001
0000
1100
0000
0011
,
0000
1200
0000
0000
0300
0000
0000
0000
0000
0000
0000
0000
0000
0000
0000
0000
;

//---------------dance-single - ----------------
#NOTES:
     dance-single:
     :
     Challenge:
     1:
     0.000,0.000,0.000,0.000,0.000,0.000,0.000,0.000,0.000,0.000:
0000
0000
0000
0000
;

//---------------dance-single - Copied from----------------
#NOTES:
     dance-single:
     Copied from:
     Edit:
     1:
     0.631,0.709,0.591,0.559,0.938,315.000,57.000,54.000,0.000,0.000:
0000
0000
0000
0000
,
0000
0000
0000
0000
,
0000
0000
0000
0000
,
0000
0000
2002
0000
3003
1000
0001
0100
0010
0100
0001
0100
0010
1000
0001
0100
,
0010
1000
0100
1000
0010
1000
0100
1002
0000
0003
1010
0000
0000
1000
0010
0100
,
0001
0100
0010
0100
0001
0100
0010
1000
0001
0100
1010
0000
1002
0000
0003
0000
,
1100
0000
1010
0000
0000
1000
0010
0100
0001
0100
0010
0100
0001
0100
0010
0100
,
0001
0100
0010
1000
0100
1000
0010
1002
0000
0003
1010
0000
0000
1000
0100
1000
,
0001
0100
0010
0100
0001
0100
0010
0100
0001
0000
0011
0000
0022
0000
0033
0000
,
1100
0000
1100
0000
0000
0020
0000
0000
0000
0000
0030
1000
0000
0001
0000
0100
,
0000
0020
0000
0000
0030
0000
0000
2000
0000
0000
0000
0000
3000
0020
0000
0000
,
0000
0000
0030
0100
0000
0001
0000
1000
0000
0020
0000
0000
0000
0000
0000
0000
,
0000
0000
0000
0030
0000
2000
0000
0000
0000
0000
3000
0002
0000
0100
0003
0010
,
0000
2000
0000
0000
0000
3010
1000
0100
0000
1000
0000
0001
0000
0200
0000
0000
,
0000
0000
0000
0000
0000
0000
0000
0000
0300
0000
0110
0000
2002
0000
0000
3003
,
1010
0000
1100
0000
0000
2000
0000
0000
0000
0000
3000
0001
0000
0100
0000
0010
,
0000
0200
0000
0000
0000
0000
0300
0002
0000
0000
0000
0000
0003
2000
0000
0000
,
0000
0000
3000
0001
0000
1000
0000
0010
0000
0200
0000
0000
0000
0000
0000
0000
,
0000
0000
0300
0000
0000
0020
0000
0000
0000
0000
0030
0100
0000
0001
0000
1000
,
0000
0020
0000
0000
0030
1000
0010
0200
0000
0000
0302
0000
0000
0103
0010
0100
,
0001
0100
0010
1000
0100
1000
1000
0100
1000
0000
0101
0000
0110
0000
0000
0000
,
1001
0000
1100
0000
0000
1000
0100
0001
0010
0000
1000
0001
0100
0010
1000
0000
,
0001
0100
0010
0100
0001
0000
0100
0010
0000
1000
0001
0000
0100
0010
0000
1000
,
0001
0000
0100
0010
1000
0100
0010
0000
1000
0001
0000
0100
0000
0010
0000
1000
,
0000
0001
0000
0100
0000
0010
0000
1000
0001
0000
0100
0010
0000
1000
0001
0000
,
0100
0010
0000
1000
0001
0000
0100
0010
0000
1000
0000
0001
0000
0100
0010
0001
,
0100
0010
1000
0100
1000
0010
1000
0100
0000
1001
0000
1010
0000
1100
0000
2002
,
0000
0000
0000
3003
0000
2020
0000
0000
0000
0000
3030
0100
0000
0000
1010
0000
,
0000
0202
0000
0000
0303
0000
1010
0002
0000
0000
0000
0000
0003
0220
0000
0000
,
0330
0001
1000
0100
0000
0000
1010
0000
0000
2200
0000
0000
3300
1000
0001
0200
,
0000
0000
0300
0000
0000
0220
0000
0000
0030
0301
1000
0010
0000
0000
0110
0000
,
0000
2002
0000
0000
3003
1000
0010
0200
0000
0000
0300
0000
0000
1001
0000
1010
,
0000
1100
0000
1001
0000
1010
0000
1100
0000
1001
0000
1001
0000
1001
0000
2002
,
0000
0000
0000
3003
0000
0001
1000
0010
0100
0001
0100
0010
0001
0100
0010
1000
,
0100
1000
0010
1000
0100
1000
0010
0110
0000
0000
1002
0000
1003
0100
0100
0001
,
1000
0010
1000
0001
1000
0010
0100
0001
0100
0010
1001
0000
2020
0000
0000
3030
,
1100
0000
1020
0000
0030
1000
0010
0100
0001
0100
0010
0100
0001
0100
0010
1000
,
0100
1000
0001
1000
0001
1000
0001
0110
0000
0000
1002
0000
0003
1000
0001
0100
,
0010
0100
0001
0100
0010
1000
0100
1000
0100
0000
1010
0000
2002
0000
0000
3003
,
1100
0000
1010
0000
0000
1000
0000
0010
0000
0100
0000
0001
0000
0100
0000
0010
,
0000
0200
0000
0000
0300
0000
0000
0000
0000
0000
0000
0000
0000
0000
0000
0000
;
