#TITLE:Don't Stop the Party;
#SUBTITLE:Sexuality Violation;
#ARTIST:Pitbull feat. TJR;
#TITLETRANSLIT:;
#SUBTITLETRANSLIT:;
#ARTISTTRANSLIT:;
#CREDIT:;
#BANNER:Don't Stop the Party-bn.png;
#BACKGROUND:Don't Stop the Party-bg.png;
#LYRICSPATH:;
#CDTITLE:GazeboCD.png;
#MUSIC:Don't Stop the Party.ogg;
#OFFSET:-0.082;
#SAMPLESTART:17.873;
#SAMPLELENGTH:14.200;
#SELECTABLE:YES;
#BPMS:0.000=134.930;
#STOPS:;
#BGCHANGES:;
// cache tags:
#FIRSTBEAT:1.000;
#LASTBEAT:431.500;
#SONGFILENAME:Songs/Sexuality Violation 2/Don't Stop the Party - [Gazebo]/Don't Stop the Party.sm;
#HASMUSIC:1;
#HASBANNER:1;
#MUSICLENGTH:194.032;
// end cache tags

//---------------dance-single - Gazebo----------------
#NOTES:
     dance-single:
     Gazebo:
     Challenge:
     15:
     1.000,1.000,0.160,0.015,1.000,1790.000,31.000,3.000,0.000,1.000:

0000
0000
0000
0000
0001
0100
0001
0100
0010
0000
0000
0000
1010
0000
0000
0000
,
1001
0000
0000
0000
0001
0010
0001
0010
0100
0000
0000
0000
1100
0000
0000
0000
,
1001
0000
0000
0000
1000
0001
0010
0000
0001
0100
0000
0000
1010
0000
0000
0000
,
1001
0000
0000
0000
0000
0000
1000
0001
0000
0001
0000
0000
0010
0000
0001
0000
,
0000
0000
0000
0000
1000
0010
1000
0010
0100
0000
0000
0000
0101
0000
0000
0000
,
1001
0000
0000
0000
1000
0100
1000
0100
0010
0000
0000
0000
0011
0000
0000
0000
,
1001
0000
0000
0000
0001
1000
0100
0000
1000
0010
0000
0000
0101
0000
0000
0000
,
1001
0000
0000
0000
0000
0000
0001
1000
0000
1000
0000
0000
0100
0000
1000
0000
,
0001
0010
0001
1000
0100
1000
0001
0100
0001
1000
0010
1000
0001
0100
0001
1000
0001
0010
0100
0000
0000
0010
0000
0000
,
0000
0000
0000
0000
0000
0000
0000
0000
0000
0000
0000
0000
0000
0000
0000
0000
0001
1000
0010
0000
0000
0100
0000
0000
,
0001
0100
0001
0100
0010
1000
0001
0100
0001
0010
0100
1000
0100
0010
0001
1000
0100
1000
0001
0100
0001
0010
0100
1000
,
0001
1000
0010
1000
0100
1000
0001
1000
0001
0010
0100
1000
0001
0100
0001
1000
0010
1000
0001
0010
0001
1000
0100
1000
,
0001
0100
0001
0100
0010
1000
0001
0010
0001
0010
0100
1000
0001
0100
0001
1000
0010
1000
0001
0010
0001
1000
0100
0010
,
0001
1000
0001
0100
0001
1000
0001
0100
0001
0010
0100
1000
0001
0010
0100
1000
0001
1000
0001
0100
0001
1000
0010
1000
,
0001
0010
0001
0010
0100
1000
0001
0010
0001
0100
0010
1000
0010
0100
0001
1000
0010
1000
0001
0010
0001
0100
0010
1000
,
0001
1000
0001
0010
0100
1000
0001
1000
0001
0100
0010
1000
0001
0010
0001
1000
0100
1000
0001
0100
0001
1000
0010
1000
,
0001
0010
0001
0010
0100
1000
0001
0100
0001
0100
0010
1000
0001
0010
0001
1000
0100
1000
0001
0100
0001
1000
0010
0100
,
0001
1000
0100
1000
0001
1000
0100
1000
0001
1000
0010
0100
0001
1000
0010
1000
0001
0010
0200
0000
0000
0000
0000
0000
,
1300
0000
0000
0001
0010
0001
1000
0001
0100
0000
0001
0100
0010
1000
0001
0000
,
1001
0000
0000
0000
1000
0000
1000
0000
0001
0000
0010
0000
0001
0010
0100
0000
,
1100
0000
0000
0000
1000
0001
1000
0010
0100
0000
0010
0100
0001
0000
1000
0100
,
0010
0000
0000
0000
0001
0010
0001
1000
0010
0000
0100
0010
1000
0000
1000
0000
,
0001
0000
0010
0000
0001
0010
0001
1000
0001
0000
0100
0010
1000
0000
0010
1000
,
0001
0000
0001
0000
1000
0100
1000
0000
0010
0000
0000
0000
1000
0000
1000
0000
,
1001
0000
0000
0000
0001
0000
0100
0001
1000
0000
1000
0100
0010
0000
0001
0000
,
1000
0000
0010
0000
1000
0000
0001
0000
1000
0100
1000
0000
0001
0000
1000
0000
,
0010
0000
1000
0100
0000
1000
0001
0010
0001
1000
0010
1000
0001
0000
0100
0000
,
0101
0000
0000
0000
0001
1000
0001
0000
0010
0000
0000
0100
0010
0000
0001
0000
,
0100
0001
0000
0000
0000
0000
0000
0000
,
1000
0010
1000
0001
0100
0001
0010
0001
1000
0100
1000
0001
0010
0001
0100
0001
,
1000
0010
1000
0001
0100
0001
0010
0100
1000
0001
0010
0001
0100
0001
1000
0010
,
1000
0100
1000
0001
0100
0001
1000
0010
1000
0100
1000
0001
0100
0001
1000
0010
,
1000
0100
1000
0001
0100
0001
1000
0010
1000
0100
1000
0001
0010
0100
1000
0001
,
1000
0010
1000
0001
0100
0001
1000
0100
0010
0001
1000
0001
1000
0010
1000
0001
0100
0001
1000
0100
0010
0001
1000
0001
,
1000
0010
1000
0001
0100
0001
1000
0100
0010
0001
0100
0001
1000
0010
1000
0001
0100
0001
0010
0001
1000
0100
1000
0001
,
1000
1000
0010
0010
0100
0100
0001
0001
,
1000
0100
1000
0001
0010
0001
1000
0010
1000
0001
0100
0001
1000
0010
1000
0001
1000
0100
0010
0000
0000
0100
0000
0000
,
0000
0000
0000
0000
0000
0000
0000
0000
0000
0000
0000
0000
0000
0000
0000
0000
1000
0001
0100
0000
0000
0010
0000
0000
,
1000
0010
1000
0010
0100
0001
1000
0010
1000
0100
0010
0001
0010
0100
1000
0001
0010
0001
1000
0010
1000
0100
0010
0001
,
1000
0001
0100
0001
0010
0001
1000
0001
1000
0100
0010
0001
1000
0010
1000
0001
0100
0001
1000
0100
1000
0001
0010
0001
,
1000
0010
1000
0010
0100
0001
1000
0100
1000
0100
0010
0001
1000
0010
1000
0001
0100
0001
1000
0100
1000
0001
0010
0100
,
1000
0001
1000
0010
1000
0001
1000
0010
1000
0100
0010
0001
1000
0100
0010
0001
1000
0001
1000
0010
1000
0001
0100
0001
,
1000
0100
1000
0100
0010
0001
1000
0100
1000
0010
0100
0001
0100
0010
1000
0001
0100
0001
1000
0100
1000
0010
0100
0001
,
1000
0001
1000
0100
0010
0001
1000
0001
1000
0010
0100
0001
1000
0100
1000
0001
0010
0001
1000
0010
1000
0001
0100
0001
,
1000
0100
1000
0100
0010
0001
1000
0010
1000
0010
0100
0001
1000
0100
1000
0001
0010
0001
1000
0010
1000
0001
0100
0010
,
1000
0001
0010
0001
1000
0001
0010
0001
1000
0001
0100
0010
1000
0001
0100
0001
1000
0100
0020
0000
0000
0000
0000
0000
,
0031
1000
0001
0100
0001
1000
0010
1000
0100
0000
1000
0001
0010
0000
0001
0000
,
1000
0000
0000
0001
0100
0010
0100
0010
1000
0001
0010
0000
0001
0000
0001
0000
,
1000
0000
0000
0000
0000
0000
1000
0000
0000
0010
0000
0000
0100
0000
0000
0000
0001
0000
0000
0000
0100
0000
0000
0000
0001
0000
0000
0000
0000
0000
0001
0000
0000
1000
0000
0000
0100
0000
0000
0000
0000
0000
0100
0000
0000
1000
0000
0000
,
0001
0010
0001
0000
1000
0000
1000
0000
0001
0100
0001
0000
1000
0000
1000
0000
,
1010
0000
0000
0001
1000
0000
0001
0010
0100
0000
0100
0000
0010
0000
0010
0000
,
0001
1000
0000
0000
0010
0000
0010
0100
0010
0000
1000
0001
0010
0000
0100
0000
,
1100
0000
0000
0000
1000
0001
0010
0100
0010
0000
0001
1000
0010
0000
1000
0000
,
0001
0100
0001
1000
0001
0000
0000
1000
0100
0000
1000
0000
0001
0000
0001
0000
,
1001
0000
0000
0000
1000
0010
1000
0010
0100
0001
0100
0001
1000
0000
0000
0000
,
0001
0010
0000
0001
1000
0000
1000
0001
0100
0000
0000
0000
0101
0000
0000
0000
,
0001
1000
0010
0000
0010
0100
0000
0000
1001
0000
0000
0000
0000
0000
0000
0000
,
0001
0010
0001
1000
0100
1000
0010
1000
0001
0100
0001
1000
0010
1000
0100
1000
,
0001
0010
0001
1000
0100
1000
0010
0100
0001
1000
0010
1000
0100
1000
0001
0010
,
0001
0100
0001
1000
0100
1000
0001
0010
0001
0100
0001
1000
0100
1000
0001
0010
,
0001
0100
0001
1000
0100
1000
0001
0010
0001
0100
0001
1000
0010
0100
0001
1000
,
0001
0010
0001
1000
0100
1000
0001
0100
0010
1000
0001
1000
0001
0010
0001
1000
0100
1000
0001
0100
0010
1000
0001
1000
,
0001
0010
0001
1000
0100
1000
0001
0100
0010
1000
0100
1000
0001
0010
0001
1000
0100
1000
0010
1000
0001
0100
0001
1000
,
0001
0001
0010
0010
0100
0100
1000
1000
,
0001
0100
0001
1000
0010
1000
0001
0010
0001
1000
0100
1000
0001
0010
0001
1000
0001
0100
0010
0000
0000
0100
0000
0000
,
0000
0000
0000
0000
0000
0000
0000
0000
0000
0000
0000
0000
0000
0000
0000
0000
0001
1000
0100
0000
0000
0010
0000
0000
,
0001
0010
0001
0010
0100
1000
0001
0010
0001
0100
0010
1000
0010
0100
0001
1000
0010
1000
0001
0010
0001
0100
0010
1000
,
0001
1000
0100
1000
0010
1000
0001
1000
0001
0100
0010
1000
0001
0010
0001
1000
0100
1000
0001
0100
0001
1000
0010
1000
,
0001
0010
0001
0010
0100
1000
0001
0100
0001
0100
0010
1000
0001
0010
0001
1000
0100
1000
0001
0100
0001
1000
0010
0100
,
0001
1000
0001
0010
0001
1000
0001
0010
0001
0100
0010
1000
0001
0100
0010
1000
0001
1000
0001
0010
0001
1000
0100
1000
,
0001
0100
0001
0100
0010
1000
0001
0100
0001
0010
0100
1000
0100
0010
0001
1000
0100
1000
0001
0100
0001
0010
0100
1000
,
0001
1000
0001
0100
0010
1000
0001
1000
0001
0010
0100
1000
0001
0100
0001
1000
0010
1000
0001
0010
0001
1000
0100
1000
,
0001
0100
0001
0100
0010
1000
0001
0010
0001
0010
0100
1000
0001
0100
0001
1000
0010
1000
0001
0010
0001
1000
0100
0010
,
0001
1000
0010
1000
0001
1000
0010
1000
0001
1000
0100
0010
0001
1000
0100
1000
0001
0100
0020
0000
0000
0000
0000
0000
,
1031
0000
0001
0100
0010
1000
0010
1000
0001
0000
0000
0000
1001
0000
0000
0000
,
0001
0000
0000
1000
0001
0010
0001
0010
0100
0000
0000
0000
1100
0000
0000
0000
,
1001
0000
1000
0010
0100
0001
0100
0001
1000
0000
0000
0000
1001
0000
0000
0000
,
1000
0000
0000
0001
1000
0100
1000
0100
0010
0000
0000
0000
0011
0000
0000
0000
,
1001
0000
0001
0100
0010
1000
0010
1000
0001
0000
0000
0000
1001
0000
0000
0000
,
0001
0000
0000
1000
0001
0010
0001
0010
0100
0000
0000
0000
1100
0000
0000
0000
,
1000
0000
1000
0000
0001
0000
0100
0000
0100
0000
0010
1000
0000
0010
1000
0000
,
0001
0001
1000
0100
0100
0010
1001
0000
,
0001
0010
0001
1000
0100
1000
0001
0100
0001
1000
0010
1000
0001
0100
0001
1000
0001
0010
0100
0000
0000
0010
0000
0000
,
0000
0000
0000
0000
0000
0000
0000
0000
0000
0000
0000
0000
0000
0000
0000
0000
0001
1000
0010
0000
0000
0100
0000
0000
,
0001
0100
0001
0100
0010
1000
0001
0100
0001
0010
0100
1000
0100
0010
0001
1000
0100
1000
0001
0100
0001
0010
0100
1000
,
0001
1000
0010
1000
0100
1000
0001
1000
0001
0010
0100
1000
0001
0100
0001
1000
0010
1000
0001
0010
0001
1000
0100
1000
,
0001
0100
0001
0100
0010
1000
0001
0010
0001
0010
0100
1000
0001
0100
0001
1000
0010
1000
0001
0010
0001
1000
0100
0010
,
0001
1000
0001
0100
0001
1000
0001
0100
0001
0010
0100
1000
0001
0010
0100
1000
0001
1000
0001
0100
0001
1000
0010
1000
,
0001
0010
0001
0010
0100
1000
0001
0010
0001
0100
0010
1000
0010
0100
0001
1000
0010
1000
0001
0010
0001
0100
0010
1000
,
0001
1000
0001
0010
0100
1000
0001
1000
0001
0100
0010
1000
0001
0010
0001
1000
0100
1000
0001
0100
0001
1000
0010
1000
,
0001
0010
0001
0010
0100
1000
0001
0100
0001
0100
0010
1000
0001
0010
0001
1000
0100
1000
0001
0100
0001
1000
0010
0100
,
0001
1000
0100
1000
0001
1000
0100
1000
0001
1000
0010
0100
0001
1000
0010
1000
0001
1000
0001
0000
0000
1000
0000
0000
,
0001
0100
0010
1000
0100
1000
0001
0010
0001
1000
0001
0100
0010
0100
0001
1000
0100
1000
0001
0100
0001
1000
0001
0010
,
0001
1000
0100
1000
0010
1000
0001
1000
0001
0100
0010
1000
0001
0010
0001
1000
0100
1000
0001
0100
0001
1000
0010
1000
,
0001
0010
0001
0010
0100
1000
0001
0100
0001
0100
0010
1000
0001
0010
0001
1000
0100
1000
0001
0100
0001
1000
0010
0100
,
0001
1000
0001
0010
0001
1000
0001
0010
0001
0100
0010
1000
0001
0100
0010
1000
0001
1000
0001
0010
0001
1000
0100
1000
,
0001
0100
0001
1000
0010
1000
0100
1000
0001
0010
0001
1000
0001
0100
0001
1000
0010
1000
0100
1000
0001
0010
0001
1000
,
0010
1000
0001
0100
0010
1000
0001
1000
0001
0010
0100
1000
0001
0100
0001
1000
0010
1000
0001
0010
0001
1000
0100
1000
,
0001
0100
0001
0100
0010
1000
0001
0010
0001
0010
0100
1000
0001
0100
0001
1000
0010
1000
0001
0010
0001
1000
0100
0010
,
0001
1000
0010
1000
0001
1000
0010
1000
0001
1000
0100
0010
0001
1000
0100
1000
0001
1000
0010
0000
0000
1000
0000
0000
,
0001
0010
0100
1000
0010
1000
0001
0100
0001
1000
0001
0010
0100
0010
0001
1000
0010
1000
0001
0010
0001
1000
0001
0100
,
0001
1000
0010
1000
0100
1000
0001
1000
0001
0010
0100
1000
0001
0100
0001
1000
0010
1000
0001
0010
0001
1000
0100
1000
,
0001
0100
0001
0100
0010
1000
0001
0010
0001
0010
0100
1000
0001
0100
0001
1000
0010
1000
0001
0010
0001
1000
0100
0010
,
0001
1000
0001
0100
0001
1000
0001
0100
0001
0010
0100
1000
0001
0010
0100
1000
0001
1000
0001
0100
0001
1000
0010
1000
,
0001
0010
0001
1000
0100
1000
0010
1000
0001
0100
0001
1000
0001
0010
0001
1000
0100
1000
0010
1000
0001
0100
0001
1000
,
0001
1000
0001
0010
0100
1000
0001
1000
0001
0100
0010
1000
0001
0010
0001
1000
0100
1000
0001
0100
0001
1000
0010
1000
,
0001
0010
0001
0010
0100
1000
0001
0100
0001
0100
0010
1000
0001
0010
0001
1000
0001
1000
0100
1000
0001
0100
0010
1000
,
0001
0010
0001
1000
0100
1000
0001
0100
0001
1000
0010
1000
0001
0100
0001
1000
0001
0010
0100
0000
0000
0010
0000
0000
;

//---------------dance-single - Gazebo----------------
#NOTES:
     dance-single:
     Gazebo:
     Hard:
     12:
     1.000,1.000,0.155,0.015,1.000,1424.000,30.000,3.000,0.000,0.000:
0000
0000
0000
0000
0001
0100
0001
0100
0010
0000
0000
0000
1010
0000
0000
0000
,
1001
0000
0000
0000
0001
0010
0001
0010
0100
0000
0000
0000
1100
0000
0000
0000
,
1001
0000
0000
0000
1000
0001
0010
0000
0001
0100
0000
0000
1010
0000
0000
0000
,
1001
0000
0000
0000
0000
0000
1000
0001
0000
0001
0000
0000
0010
0000
0001
0000
,
0000
0000
0000
0000
1000
0010
1000
0010
0100
0000
0000
0000
0101
0000
0000
0000
,
1001
0000
0000
0000
1000
0100
1000
0100
0010
0000
0000
0000
0011
0000
0000
0000
,
1001
0000
0000
0000
0001
1000
0100
0000
1000
0010
0000
0000
0101
0000
0000
0000
,
1001
0000
0000
0000
0000
0000
0001
1000
0000
1000
0000
0000
0100
0000
1000
0000
,
0001
0010
0001
1000
0100
1000
0001
0100
0001
1000
0010
1000
0001
0100
0001
1000
0001
0010
0100
0000
0000
0010
0000
0000
,
0000
0000
0000
0000
0000
0000
0000
0000
0000
0000
0000
0000
0000
0000
0000
0000
0001
1000
0010
0000
0000
0100
0000
0000
,
0001
0010
0001
0010
0100
1000
0010
0100
0010
0100
0001
1000
0100
1000
0010
0100
,
0001
1000
0001
0010
0001
1000
0100
1000
0001
0100
0001
1000
0010
1000
0001
1000
,
0001
0010
0001
0010
0100
1000
0100
1000
0001
0100
0001
0010
0001
0100
0010
1000
,
0010
0100
0010
1000
0010
0100
0001
1000
0001
0010
0100
1000
0001
0010
0100
1000
,
0001
0100
0001
0100
0010
1000
0100
0010
0100
0010
0001
1000
0010
1000
0100
0010
,
0100
0010
0001
1000
0001
1000
0010
1000
0001
0010
0001
1000
0100
1000
0001
1000
,
0001
0100
0001
0100
0010
1000
0010
1000
0001
0010
0001
0100
0001
0010
0100
1000
,
0010
0100
0010
1000
0010
0100
0010
1000
0010
0100
0010
1000
0200
0000
0000
0000
,
1300
0000
0000
0001
0010
0001
1000
0001
0100
0000
0001
0100
0010
1000
0001
0000
,
1001
0000
0000
0000
1000
0000
1000
0000
0001
0000
0010
0000
0001
0010
0100
0000
,
1100
0000
0000
0000
1000
0001
1000
0010
0100
0000
0010
0100
0001
0000
1000
0100
,
0010
0000
0000
0000
0001
0010
0001
1000
0010
0000
0100
0010
1000
0000
1000
0000
,
0001
0000
0010
0000
0001
0010
0001
1000
0001
0000
0100
0010
1000
0000
0010
1000
,
0001
0000
0001
0000
1000
0100
1000
0000
0010
0000
0000
0000
1000
0000
1000
0000
,
1001
0000
0000
0000
0001
0000
0100
0001
1000
0000
1000
0100
0010
0000
0001
0000
,
1000
0000
0010
0000
1000
0000
0001
0000
1000
0100
1000
0000
0001
0000
1000
0000
,
0010
0000
1000
0100
0000
1000
0001
0010
0001
1000
0010
1000
0001
0000
0100
0000
,
0101
0000
0000
0000
0001
1000
0001
0000
0010
0000
0000
0100
0010
0000
0001
0000
,
0100
0001
0000
0000
0000
0000
0000
0000
,
1000
0010
1000
0001
0100
0001
0010
0001
1000
0100
1000
0001
0010
0001
0100
0001
,
1000
0010
1000
0001
0100
0001
0010
0100
1000
0001
0010
0001
0100
0001
1000
0010
,
1000
0100
1000
0001
0100
0001
1000
0010
1000
0100
1000
0001
0100
0001
1000
0010
,
1000
0100
1000
0001
0100
0001
1000
0010
1000
0100
1000
0001
0010
0100
1000
0001
,
1000
0010
1000
0001
0100
0001
1000
0100
0010
0001
1000
0001
1000
0010
1000
0001
0100
0001
1000
0100
0010
0001
1000
0001
,
1000
0010
1000
0001
0100
0001
1000
0100
0010
0001
0100
0001
1000
0010
1000
0001
0100
0001
0010
0001
1000
0100
1000
0001
,
1000
1000
0010
0010
0100
0100
0001
0001
,
1000
0100
1000
0001
0010
0001
1000
0010
1000
0001
0100
0001
1000
0010
1000
0001
1000
0100
0010
0000
0000
0100
0000
0000
,
0000
0000
0000
0000
0000
0000
0000
0000
0000
0000
0000
0000
0000
0000
0000
0000
1000
0001
0100
0000
0000
0010
0000
0000
,
1000
0010
1000
0010
0100
0001
0010
0100
0010
0100
1000
0001
0100
0001
0010
0100
,
1000
0001
1000
0010
1000
0001
0100
0001
1000
0100
1000
0001
0010
0001
1000
0001
,
1000
0010
1000
0010
0100
0001
0100
0001
1000
0100
1000
0010
1000
0100
0010
0001
,
0010
0100
0010
0001
0010
0100
1000
0001
1000
0010
0100
0001
1000
0010
0100
0001
,
1000
0100
1000
0100
0010
0001
0100
0010
0100
0010
1000
0001
0010
0001
0100
0010
,
0100
0010
1000
0001
1000
0001
0010
0001
1000
0010
1000
0001
0100
0001
1000
0001
,
1000
0100
1000
0100
0010
0001
0010
0001
1000
0010
1000
0100
1000
0010
0100
0001
,
0010
0100
0010
0001
0010
0100
0010
0001
0010
0100
0010
0001
0200
0000
0000
0000
,
0301
1000
0001
0100
0001
1000
0010
1000
0100
0000
1000
0001
0010
0000
0001
0000
,
1000
0000
0000
0001
0100
0010
0100
0010
1000
0001
0010
0000
0001
0000
0001
0000
,
1000
0000
0000
0000
0000
0000
1000
0000
0000
0010
0000
0000
0100
0000
0000
0000
0001
0000
0000
0000
0100
0000
0000
0000
0001
0000
0000
0000
0000
0000
0001
0000
0000
1000
0000
0000
0100
0000
0000
0000
0000
0000
0100
0000
0000
1000
0000
0000
,
0001
0010
0001
0000
1000
0000
1000
0000
0001
0100
0001
0000
1000
0000
1000
0000
,
1010
0000
0000
0001
1000
0000
0001
0010
0100
0000
0100
0000
0010
0000
0010
0000
,
0001
1000
0000
0000
0010
0000
0010
0100
0010
0000
1000
0001
0010
0000
0100
0000
,
1100
0000
0000
0000
1000
0001
0010
0100
0010
0000
0001
1000
0010
0000
1000
0000
,
0001
0100
0001
1000
0001
0000
0000
1000
0100
0000
1000
0000
0001
0000
0001
0000
,
1001
0000
0000
0000
1000
0010
1000
0010
0100
0001
0100
0001
1000
0000
0000
0000
,
0001
0010
0000
0001
1000
0000
1000
0001
0100
0000
0000
0000
0101
0000
0000
0000
,
0001
1000
0010
0000
0010
0100
0000
0000
1001
0000
0000
0000
0000
0000
0000
0000
,
0001
0010
0001
1000
0100
1000
0010
1000
0001
0100
0001
1000
0010
1000
0100
1000
,
0001
0010
0001
1000
0100
1000
0010
0100
0001
1000
0010
1000
0100
1000
0001
0010
,
0001
0100
0001
1000
0100
1000
0001
0010
0001
0100
0001
1000
0100
1000
0001
0010
,
0001
0100
0001
1000
0100
1000
0001
0010
0001
0100
0001
1000
0010
0100
0001
1000
,
0001
0010
0001
1000
0100
1000
0001
0100
0010
1000
0001
1000
0001
0010
0001
1000
0100
1000
0001
0100
0010
1000
0001
1000
,
0001
0010
0001
1000
0100
1000
0001
0100
0010
1000
0100
1000
0001
0010
0001
1000
0100
1000
0010
1000
0001
0100
0001
1000
,
0001
0001
0010
0010
0100
0100
1000
1000
,
0001
0100
0001
1000
0010
1000
0001
0010
0001
1000
0100
1000
0001
0010
0001
1000
0001
0100
0010
0000
0000
0100
0000
0000
,
0000
0000
0000
0000
0000
0000
0000
0000
0000
0000
0000
0000
0000
0000
0000
0000
0001
1000
0100
0000
0000
0010
0000
0000
,
0001
0010
0001
0010
0100
1000
0010
0100
0010
0100
0001
1000
0100
1000
0010
0100
,
0001
1000
0001
0010
0001
1000
0100
1000
0001
0100
0001
1000
0010
1000
0001
1000
,
0001
0010
0001
0010
0100
1000
0100
1000
0001
0100
0001
0010
0001
0100
0010
1000
,
0010
0100
0010
1000
0010
0100
0001
1000
0001
0010
0100
1000
0001
0010
0100
1000
,
0001
0100
0001
0100
0010
1000
0100
0010
0100
0010
0001
1000
0010
1000
0100
0010
,
0100
0010
0001
1000
0001
1000
0010
1000
0001
0010
0001
1000
0100
1000
0001
1000
,
0001
0100
0001
0100
0010
1000
0010
1000
0001
0010
0001
0100
0001
0010
0100
1000
,
0010
0100
0010
1000
0010
0100
0010
1000
0010
0100
0010
1000
0200
0000
0000
0000
,
1300
0000
0001
0100
0010
1000
0010
1000
0001
0000
0000
0000
1001
0000
0000
0000
,
0001
0000
0000
1000
0001
0010
0001
0010
0100
0000
0000
0000
1100
0000
0000
0000
,
1001
0000
1000
0010
0100
0001
0100
0001
1000
0000
0000
0000
1001
0000
0000
0000
,
1000
0000
0000
0001
1000
0100
1000
0100
0010
0000
0000
0000
0011
0000
0000
0000
,
1001
0000
0001
0100
0010
1000
0010
1000
0001
0000
0000
0000
1001
0000
0000
0000
,
0001
0000
0000
1000
0001
0010
0001
0010
0100
0000
0000
0000
1100
0000
0000
0000
,
1000
0000
1000
0000
0001
0000
0100
0000
0100
0000
0010
1000
0000
0010
1000
0000
,
0001
0001
1000
0100
0100
0010
1001
0000
,
0001
0010
0001
1000
0100
1000
0001
0100
0001
1000
0010
1000
0001
0100
0001
1000
0001
0010
0100
0000
0000
0010
0000
0000
,
0000
0000
0000
0000
0000
0000
0000
0000
0000
0000
0000
0000
0000
0000
0000
0000
0001
1000
0010
0000
0000
0100
0000
0000
,
0001
0100
0001
0100
0010
1000
0100
0010
0100
0010
0001
1000
0010
1000
0100
0010
,
0001
1000
0001
0100
0001
1000
0010
1000
0001
0010
0001
1000
0100
1000
0001
1000
,
0001
0100
0001
0100
0010
1000
0010
1000
0001
0010
0001
0100
0001
0010
0100
1000
,
0100
0010
0100
1000
0100
0010
0001
1000
0001
0100
0010
1000
0001
0100
0010
1000
,
0001
0010
0001
0010
0100
1000
0010
0100
0010
0100
0001
1000
0100
1000
0010
0100
,
0010
0100
0001
1000
0001
1000
0100
1000
0001
0100
0001
1000
0010
1000
0001
1000
,
0001
0010
0001
0010
0100
1000
0100
1000
0001
0100
0001
0010
0001
0100
0010
1000
,
0010
0100
0010
1000
0010
0100
0001
1000
0001
0010
0100
1000
0001
0000
1000
0000
,
0001
0100
0010
0100
0001
0010
0100
0010
0001
1000
0100
1000
0010
1000
0001
0100
,
0001
1000
0001
0010
0001
1000
0100
1000
0001
0100
0001
1000
0010
1000
0001
1000
,
0001
0010
0001
0010
0100
1000
0100
1000
0001
0100
0001
0010
0001
0100
0010
1000
,
0010
0100
0010
1000
0010
0100
0001
1000
0001
0010
0100
1000
0001
0010
0100
1000
,
0001
0100
0010
0100
0001
0010
0100
0010
0001
1000
0100
1000
0001
0100
0001
0010
,
0100
1000
0001
1000
0001
1000
0010
1000
0001
0010
0001
1000
0100
1000
0001
1000
,
0001
0100
0001
0100
0010
1000
0010
1000
0001
0010
0001
0100
0001
0010
0100
1000
,
0100
0010
0100
1000
0100
0010
0001
1000
0001
0100
0010
1000
0001
0000
1000
0000
,
0001
0010
0100
0010
0001
0100
0010
0100
0001
1000
0010
1000
0100
1000
0001
0010
,
0001
1000
0001
0100
0001
1000
0010
1000
0001
0010
0001
1000
0100
1000
0001
1000
,
0001
0100
0001
0100
0010
1000
0010
1000
0001
0010
0001
0100
0001
0010
0100
1000
,
0100
0010
0100
1000
0100
0010
0001
1000
0001
0100
0010
1000
0001
0100
0010
1000
,
0001
0010
0100
0010
0001
0100
0010
0100
0001
1000
0010
1000
0001
0010
0001
0100
,
0010
1000
0001
1000
0001
1000
0100
1000
0001
0100
0001
1000
0010
1000
0001
1000
,
0001
0010
0001
0010
0100
1000
0100
1000
0001
0100
0001
0010
0001
0100
0010
1000
,
0001
0010
0001
1000
0100
1000
0001
0100
0001
1000
0010
1000
0001
0100
0001
1000
0001
0010
0100
0000
0000
0010
0000
0000
;

//---------------dance-single - Gazebo----------------
#NOTES:
     dance-single:
     Gazebo:
     Medium:
     11:
     0.981,0.917,0.180,0.015,1.000,1294.000,35.000,3.000,0.000,0.000:
0000
0000
0000
0000
0001
0100
0001
0100
0010
0000
0000
0000
1010
0000
0000
0000
,
1001
0000
0000
0000
0001
0010
0001
0010
0100
0000
0000
0000
1100
0000
0000
0000
,
1001
0000
0000
0000
1000
0001
0010
0000
0001
0100
0000
0000
1010
0000
0000
0000
,
1001
0000
0000
0000
0000
0000
1000
0001
0000
0001
0000
0000
0010
0000
0001
0000
,
0000
0000
0000
0000
1000
0010
1000
0010
0100
0000
0000
0000
0101
0000
0000
0000
,
1001
0000
0000
0000
1000
0100
1000
0100
0010
0000
0000
0000
0011
0000
0000
0000
,
1001
0000
0000
0000
0001
1000
0100
0000
1000
0010
0000
0000
0101
0000
0000
0000
,
1001
0000
0000
0000
0000
0000
0001
1000
0000
1000
0000
0000
0010
0000
0100
0000
,
0004
0000
0000
0000
0000
0000
1003
1000
,
0000
0000
0000
0000
0000
0000
1000
1000
,
0001
0010
0001
0010
0100
1000
0010
0100
0010
0100
0001
1000
0100
1000
0010
0100
,
0001
1000
0001
0010
0001
1000
0100
1000
0001
0100
0001
1000
0010
1000
0001
1000
,
0001
0010
0001
0010
0100
1000
0100
1000
0001
0100
0001
0010
0001
0100
0010
1000
,
0010
0100
0010
1000
0010
0100
0001
1000
0001
0010
0100
1000
0001
0010
0100
1000
,
0001
0100
0001
0100
0010
1000
0100
0010
0100
0010
0001
1000
0010
1000
0100
0010
,
0100
0010
0001
1000
0001
1000
0010
1000
0001
0010
0001
1000
0100
1000
0001
1000
,
0001
0100
0001
0100
0010
1000
0010
1000
0001
0010
0001
0100
0001
0010
0100
1000
,
0010
0100
0010
1000
0010
0100
0010
1000
0010
0100
0010
1000
0200
0000
0000
0000
,
1300
0000
0000
0001
0010
0001
1000
0001
0100
0000
0001
0100
0010
1000
0001
0000
,
1001
0000
0000
0000
1000
0000
1000
0000
0001
0000
0010
0000
0001
0010
0100
0000
,
1100
0000
0000
0000
1000
0001
1000
0010
0100
0000
0010
0100
0001
0000
1000
0100
,
0010
0000
0000
0000
0001
0010
0001
1000
0010
0000
0100
0010
1000
0000
1000
0000
,
0001
0000
0010
0000
0001
0010
0001
1000
0001
0000
0100
0010
1000
0000
0010
1000
,
0001
0000
0001
0000
1000
0100
1000
0000
0010
0000
0000
0000
1000
0000
1000
0000
,
1001
0000
0000
0000
0001
0000
0100
0001
1000
0000
1000
0100
0010
0000
0001
0000
,
1000
0000
0010
0000
1000
0000
0001
0000
1000
0100
1000
0000
0001
0000
1000
0000
,
0010
0000
1000
0100
0000
1000
0001
0010
0001
1000
0010
1000
0001
0000
0100
0000
,
0101
0000
0000
0000
0001
1000
0001
0000
0010
0000
0000
0100
0010
0000
0001
0000
,
0100
0001
0000
0000
0000
0000
0000
0000
,
1000
0010
1000
0001
0100
0001
0010
0001
1000
0100
1000
0001
0010
0001
0100
0001
,
1000
0010
1000
0001
0100
0001
0010
0100
1000
0001
0010
0001
0100
0001
1000
0010
,
1000
0100
1000
0001
0100
0001
1000
0010
1000
0100
1000
0001
0100
0001
1000
0010
,
1000
0100
1000
0001
0100
0001
1000
0010
1000
0100
1000
0001
0010
0100
1000
0001
,
1000
0010
1000
0001
0100
0001
0010
0001
1000
0100
1000
0001
0010
0001
0100
0001
,
1000
0010
1000
0001
0100
0001
0010
0100
1000
0001
0010
0001
0100
0001
1000
0010
,
1000
1000
0100
0100
0010
0010
0100
0100
,
4000
0000
0000
0000
0000
0000
3001
0001
,
0000
0000
0000
0000
0000
0000
0001
0001
,
1000
0010
1000
0010
0100
0001
0010
0100
0010
0100
1000
0001
0100
0001
0010
0100
,
1000
0001
1000
0010
1000
0001
0100
0001
1000
0100
1000
0001
0010
0001
1000
0001
,
1000
0010
1000
0010
0100
0001
0100
0001
1000
0100
1000
0010
1000
0100
0010
0001
,
0010
0100
0010
0001
0010
0100
1000
0001
1000
0010
0100
0001
1000
0010
0100
0001
,
1000
0100
1000
0100
0010
0001
0100
0010
0100
0010
1000
0001
0010
0001
0100
0010
,
0100
0010
1000
0001
1000
0001
0010
0001
1000
0010
1000
0001
0100
0001
1000
0001
,
1000
0100
1000
0100
0010
0001
0010
0001
1000
0010
1000
0100
1000
0010
0100
0001
,
0010
0100
0010
0001
0010
0100
0010
0001
0010
0100
0010
0001
0200
0000
0000
0000
,
0301
1000
0001
0100
0001
1000
0010
1000
0100
0000
1000
0001
0010
0000
0001
0000
,
1000
0000
0000
0001
0100
0010
0100
0010
1000
0001
0010
0000
0001
0000
0001
0000
,
1000
0000
0000
0000
0000
0000
1000
0000
0000
0010
0000
0000
0100
0000
0000
0000
0001
0000
0000
0000
0100
0000
0000
0000
0001
0000
0000
0000
0000
0000
0001
0000
0000
1000
0000
0000
0100
0000
0000
0000
0000
0000
0100
0000
0000
1000
0000
0000
,
0001
0010
0001
0000
1000
0000
1000
0000
0001
0100
0001
0000
1000
0000
1000
0000
,
1010
0000
0000
0001
1000
0000
0001
0010
0100
0000
0100
0000
0010
0000
0010
0000
,
0001
1000
0000
0000
0010
0000
0010
0100
0010
0000
1000
0001
0010
0000
0100
0000
,
1100
0000
0000
0000
1000
0001
0010
0100
0010
0000
0001
1000
0010
0000
1000
0000
,
0001
0100
0001
1000
0001
0000
0000
1000
0100
0000
1000
0000
0001
0000
0001
0000
,
1001
0000
0000
0000
1000
0010
1000
0010
0100
0001
0100
0001
1000
0000
0000
0000
,
0001
0010
0000
0001
1000
0000
1000
0001
0100
0000
0000
0000
0101
0000
0000
0000
,
0001
1000
0010
0000
0010
0100
0000
0000
1001
0000
0000
0000
0000
0000
0000
0000
,
0001
0010
0001
1000
0100
1000
0010
1000
0001
0100
0001
1000
0010
1000
0100
1000
,
0001
0010
0001
1000
0100
1000
0010
0100
0001
1000
0010
1000
0100
1000
0001
0010
,
0001
0100
0001
1000
0100
1000
0001
0010
0001
0100
0001
1000
0100
1000
0001
0010
,
0001
0100
0001
1000
0100
1000
0001
0010
0001
0100
0001
1000
0010
0100
0001
1000
,
0001
0010
0001
1000
0100
1000
0010
1000
0001
0100
0001
1000
0010
1000
0100
1000
,
0001
0010
0001
1000
0100
1000
0010
0100
0001
1000
0010
1000
0100
1000
0001
0010
,
0001
0001
0100
0100
0010
0010
0100
0100
,
0004
0000
0000
0000
0000
0000
1003
1000
,
0000
0000
0000
0000
0000
0000
1000
1000
,
0001
0010
0001
0010
0100
1000
0010
0100
0010
0100
0001
1000
0100
1000
0010
0100
,
0001
1000
0001
0010
0001
1000
0100
1000
0001
0100
0001
1000
0010
1000
0001
1000
,
0001
0010
0001
0010
0100
1000
0100
1000
0001
0100
0001
0010
0001
0100
0010
1000
,
0010
0100
0010
1000
0010
0100
0001
1000
0001
0010
0100
1000
0001
0010
0100
1000
,
0001
0100
0001
0100
0010
1000
0100
0010
0100
0010
0001
1000
0010
1000
0100
0010
,
0100
0010
0001
1000
0001
1000
0010
1000
0001
0010
0001
1000
0100
1000
0001
1000
,
0001
0100
0001
0100
0010
1000
0010
1000
0001
0010
0001
0100
0001
0010
0100
1000
,
0010
0100
0010
1000
0010
0100
0010
1000
0010
0100
0010
1000
0200
0000
0000
0000
,
1300
0000
0001
0100
0010
1000
0010
1000
0001
0000
0000
0000
1001
0000
0000
0000
,
0001
0000
0000
1000
0001
0010
0001
0010
0100
0000
0000
0000
1100
0000
0000
0000
,
1001
0000
1000
0010
0100
0001
0100
0001
1000
0000
0000
0000
1001
0000
0000
0000
,
1000
0000
0000
0001
1000
0100
1000
0100
0010
0000
0000
0000
0011
0000
0000
0000
,
1001
0000
0001
0100
0010
1000
0010
1000
0001
0000
0000
0000
1001
0000
0000
0000
,
0001
0000
0000
1000
0001
0010
0001
0010
0100
0000
0000
0000
1100
0000
0000
0000
,
1000
0000
1000
0000
0001
0000
0100
0000
0100
0000
0010
1000
0000
0010
1000
0000
,
0001
0001
1000
0100
0100
0010
1001
0000
,
0004
0000
0000
0000
0000
0000
1003
1000
,
0000
0000
0000
0000
0000
0000
1000
1000
,
0001
0100
0001
0100
0010
1000
0100
0010
0100
0010
0001
1000
0010
1000
0100
0010
,
0001
1000
0001
0100
0001
1000
0010
1000
0001
0010
0001
1000
0100
1000
0001
1000
,
0001
0100
0001
0100
0010
1000
0010
1000
0001
0010
0001
0100
0001
0010
0100
1000
,
0100
0010
0100
1000
0100
0010
0001
1000
0001
0100
0010
1000
0001
0100
0010
1000
,
0001
0010
0001
0010
0100
1000
0010
0100
0010
0100
0001
1000
0100
1000
0010
0100
,
0010
0100
0001
1000
0001
1000
0100
1000
0001
0100
0001
1000
0010
1000
0001
1000
,
0001
0010
0001
0010
0100
1000
0100
1000
0001
0100
0001
0010
0001
0100
0010
1000
,
0010
0100
0010
1000
0010
0100
0001
1000
0001
0010
0100
1000
0001
0000
1000
0000
,
0001
0100
0010
0100
0001
0010
0100
0010
0001
1000
0100
1000
0010
1000
0001
0100
,
0001
1000
0001
0010
0001
1000
0100
1000
0001
0100
0001
1000
0010
1000
0001
1000
,
0001
0010
0001
0010
0100
1000
0100
1000
0001
0100
0001
0010
0001
0100
0010
1000
,
0010
0100
0010
1000
0010
0100
0001
1000
0001
0010
0100
1000
0001
0010
0100
1000
,
0001
0100
0010
0100
0001
0010
0100
0010
0001
1000
0100
1000
0001
0100
0001
0010
,
0100
1000
0001
1000
0001
1000
0010
1000
0001
0010
0001
1000
0100
1000
0001
1000
,
0001
0100
0001
0100
0010
1000
0010
1000
0001
0010
0001
0100
0001
0010
0100
1000
,
0100
0010
0100
1000
0100
0010
0001
1000
0001
0100
0010
1000
0001
0000
1000
0000
,
0001
0010
0100
0010
0001
0100
0010
0100
0001
1000
0010
1000
0100
1000
0001
0010
,
0001
1000
0001
0100
0001
1000
0010
1000
0001
0010
0001
1000
0100
1000
0001
1000
,
0001
0100
0001
0100
0010
1000
0010
1000
0001
0010
0001
0100
0001
0010
0100
1000
,
0100
0010
0100
1000
0100
0010
0001
1000
0001
0100
0010
1000
0001
0100
0010
1000
,
0001
0010
0100
0010
0001
0100
0010
0100
0001
1000
0010
1000
0001
0010
0001
0100
,
0010
1000
0001
1000
0001
1000
0100
1000
0001
0100
0001
1000
0010
1000
0001
1000
,
0001
0010
0001
0010
0100
1000
0100
1000
0001
0100
0001
0010
0001
0100
0010
1000
,
0004
0000
0000
0000
0000
0000
1003
1000
;
