#TITLE:Classic Party 3;
#SUBTITLE:;
#ARTIST:Hideyuki Ono;
#TITLETRANSLIT:;
#SUBTITLETRANSLIT:;
#ARTISTTRANSLIT:;
#CREDIT:;
#BANNER:classic party 3.png;
#BACKGROUND:classic party 3-bg.png;
#LYRICSPATH:;
#CDTITLE:;
#MUSIC:CLASSIC PARTY 3.mp3;
#OFFSET:-0.120;
#SAMPLESTART:21.294;
#SAMPLELENGTH:16.500;
#SELECTABLE:YES;
#BPMS:0.000=150.000,4.000=75.000,14.000=65.000,15.000=60.000,18.000=75.000,20.000=179.000,24.000=174.000,90.000=150.000,91.000=145.000,92.000=140.000,96.000=135.000,97.000=118.000,122.000=116.000,124.000=114.000,126.000=112.000,127.000=110.000,128.000=100.000,129.000=90.000,130.000=180.000,178.000=186.000,210.000=190.000,226.000=194.000,230.000=210.000,234.000=220.000,238.000=230.000,242.000=235.000,257.500=117.500;
#STOPS:;
#BGCHANGES:;
// cache tags:
#FIRSTBEAT:4.000;
#LASTBEAT:262.500;
#SONGFILENAME:Songs/Community Keyboard Megapack - Volume 2/(skorpion9x) Classic Party 3/classicparty3.sm;
#HASMUSIC:1;
#HASBANNER:1;
#MUSICLENGTH:103.843;
// end cache tags

//---------------dance-single - ----------------
#NOTES:
     dance-single:
     :
     Challenge:
     11:
     0.790,1.000,1.000,0.135,0.481,443.000,117.000,14.000,0.000,0.000:  // measure 1
0000
0000
0000
0000
,  // measure 2
2000
0000
0000
3000
1000
0001
0100
0010
,  // measure 3
2000
0000
3000
0010
2000
0000
3000
0001
,  // measure 4
0020
0000
0030
0001
0100
1000
0010
1000
,  // measure 5
0200
0000
0000
0300
0200
0000
0000
0300
,  // measure 6
0100
0000
0000
0000
,  // measure 7
1001
0000
0000
0100
0010
0100
0000
0000
,  // measure 8
1001
0000
0000
0000
0000
0000
0100
0000
0010
0000
0100
0000
0000
0000
1000
0100
,  // measure 9
1000
0000
0100
0000
0000
0000
0001
0100
0001
0000
0100
0000
0000
0000
0100
0000
,  // measure 10
0010
1000
0100
0000
1001
0010
0100
1000
,  // measure 11
0110
0000
0000
0100
0001
0100
0000
0000
,  // measure 12
0110
0000
0000
0000
0000
0000
0100
0000
1000
0000
0100
0000
0000
0000
0100
0010
,  // measure 13
0100
0000
1000
0000
0000
0000
0100
0010
0100
0000
0001
0000
0000
0000
0001
0000
,  // measure 14
0100
0010
1000
0000
0210
0000
0000
0300
,  // measure 15
1000
0000
0000
0000
0100
0000
0000
0010
0001
0000
0000
0000
0000
0000
0001
0100
,  // measure 16
0010
0100
0001
0010
0100
1000
0100
0010
0001
0010
0100
1000
0001
0000
0000
0000
,  // measure 17
0000
0000
1000
0000
0000
0000
0100
0010
0001
0000
0100
0000
0010
0000
1000
0000
,  // measure 18
0001
0000
0100
0010
1000
0010
0100
0001
1000
0000
0000
0000
0000
0000
0000
0000
,  // measure 19
1000
0000
0000
0000
0010
0000
0000
0100
0001
0000
0000
0000
0000
0000
0001
0010
,  // measure 20
0100
0010
0001
1000
0001
0010
0100
1000
0100
0010
0001
0100
0010
0000
0000
0000
,  // measure 21
0000
0000
0010
0000
0000
0000
0100
0010
1000
0000
0100
0000
0010
0000
0000
0000
,  // measure 22
0000
0000
0001
0100
0010
0000
0000
0000
0010
0100
0001
0010
0100
0000
0000
0000
,  // measure 23
0001
0000
0000
0000
0100
0000
0000
0000
0010
0000
0000
0000
1000
0000
0000
0000
0001
0000
0000
0000
0000
0000
0000
0000
0000
0000
0000
0000
0000
0000
0000
0000
1000
0000
0000
0000
0000
0100
0000
0000
0000
0000
0010
0000
0000
0000
0000
0000
0001
0000
0000
0000
0000
0100
0000
0000
0000
0000
0010
0000
0000
0000
0000
0000
,  // measure 24
1000
0100
0010
0001
0100
0010
1000
0000
0000
0010
0000
0000
,  // measure 25
1001
0000
0000
1000
0000
1000
0100
0000
0100
0010
0000
0010
,  // measure 26
0001
0000
0001
0100
0000
0100
0010
0000
0010
1000
0000
1000
,  // measure 27
0001
0000
0001
0100
0000
0100
0010
0000
0010
0100
0000
0100
,  // measure 28
0001
0000
0001
1000
0000
1000
0100
0000
0100
0010
0000
0010
,  // measure 29
0100
0000
0100
1000
0000
1000
0010
0000
0010
0100
0000
0100
,  // measure 30
0001
0000
0001
1000
0000
1000
0100
0000
0100
0010
0000
0010
,  // measure 31
0001
0000
0001
1000
0000
1000
1001
0000
0000
0100
0000
0000
,  // measure 32
1001
0010
1001
0100
,  // measure 33
1001
0000
0000
0000
0100
0000
0000
0000
1001
0000
1000
0100
1000
0100
1000
0100
,  // measure 34
1001
0000
0001
0100
0001
0100
0001
0100
1001
0000
0001
0100
1001
0000
1000
0100
,  // measure 35
1001
0000
0000
0000
0000
0000
0000
0000
1001
0000
0001
0100
0010
1000
0010
0100
,  // measure 36
1001
0000
1000
0100
0010
0001
0010
0100
1001
0000
0001
0100
1001
0000
1000
0100
,  // measure 37
1001
0000
0000
0000
0110
0000
0000
0000
0011
0000
1000
0100
1000
0100
1000
0100
,  // measure 38
0011
0000
0001
0100
0001
0100
0001
0100
1010
0000
1000
0100
0011
0000
0001
0100
,  // measure 39
1010
0000
0000
0000
0000
0000
0000
0000
1010
0000
0001
0100
0001
0100
0001
0100
,  // measure 40
1010
0000
1000
0100
1000
0100
1000
0100
0011
0000
0001
0100
1000
0000
1000
0100
,  // measure 41
0002
0003
0220
0330
1001
1001
1001
1001
,  // measure 42
0110
0110
0110
0110
1010
1010
1010
1010
,  // measure 43
0101
0101
0101
0101
0011
0011
0011
0011
,  // measure 44
1100
1100
1100
1100
1001
1001
1001
1001
,  // measure 45
0110
2002
0000
3003
1010
0000
1100
0000
,  // measure 46
0101
0011
1010
1100
,  // measure 47
0101
0000
0011
0000
1010
1010
1010
1010
,  // measure 48
1010
0100
1000
0100
0011
0011
0011
0011
,  // measure 49
0011
0100
1000
0100
0011
0011
0011
0011
,  // measure 50
0011
0001
1000
0001
0110
0110
0110
0110
,  // measure 51
0110
0110
0110
0110
0001
0010
0100
1000
,  // measure 52
0001
0010
0100
1000
0001
0010
0100
1000
,  // measure 53
0001
0000
0010
0000
0100
0000
1000
0000
1000
0000
1000
1000
1000
0000
1000
0000
,  // measure 54
1000
0100
0010
0000
0001
0100
0010
0000
,  // measure 55
0100
0010
1000
0000
0000
0000
0000
0000
,  // measure 56
1000
0100
1000
0100
1000
0100
1000
0100
1001
0000
0100
0000
1001
0000
0010
0000
,  // measure 57
1001
0100
1001
0010
1001
0100
1001
0010
,  // measure 58
1001
0100
1001
0010
1001
0100
1001
0100
,  // measure 59
1001
0100
1001
0100
1001
0010
1001
0010
,  // measure 60
1001
0010
1001
0010
1001
0000
0000
0000
,  // measure 61
0110
0000
1001
0000
,  // measure 62
0110
0000
1001
0000
,  // measure 63
0000
0000
0110
0000
,  // measure 64
0000
0000
0000
0000
,  // measure 65
0000
0000
0000
1001
2002
0000
0000
0000
,  // measure 66
0000
0000
0000
0000
3003
0110
0000
0000
;

//---------------dance-single - ----------------
#NOTES:
     dance-single:
     :
     Hard:
     9:
     0.582,0.695,0.433,0.183,0.154,359.000,45.000,19.000,0.000,0.000:  // measure 1
0000
0000
0000
0000
,  // measure 2
0002
0000
0000
0000
1003
0100
0001
0100
,  // measure 3
2000
0000
0000
3001
2000
0000
0000
3001
,  // measure 4
2000
0000
0000
3001
1000
0100
0001
0010
,  // measure 5
0200
0000
0000
0300
0200
0000
0000
0300
,  // measure 6
0100
0000
0000
0000
,  // measure 7
0002
0000
0003
0100
1000
0100
0000
0000
,  // measure 8
2000
0000
3000
0100
0001
0100
0000
1000
,  // measure 9
1000
0100
0000
0001
0001
0100
0000
0100
,  // measure 10
0010
1000
0001
0000
1001
0010
1000
0100
,  // measure 11
1002
0000
0003
0100
0010
0100
0000
0000
,  // measure 12
0020
0000
0030
0100
0001
0100
0000
0001
,  // measure 13
0001
0010
0000
1000
1000
0010
0000
0010
,  // measure 14
0001
0100
0010
0000
2020
0000
0000
3030
,  // measure 15
1000
0000
0000
0000
0001
0000
0000
0100
0010
0000
0000
0000
0000
0000
0010
0000
,  // measure 16
1000
0100
0001
0100
1000
0001
0010
0000
,  // measure 17
0000
0000
0010
0000
0000
0000
0100
0001
0100
0000
0001
0000
1000
0000
0010
0000
,  // measure 18
0100
0000
0001
0000
1000
0000
0100
0010
0100
0000
0000
0000
0000
0000
0000
0000
,  // measure 19
1000
0000
0000
0000
0001
0000
0000
0100
0010
0000
0000
0000
0000
0000
0010
0000
,  // measure 20
0001
0100
1000
0100
0001
1000
0010
0000
,  // measure 21
0000
0000
0010
0000
0000
0000
0100
1000
0100
0000
1000
0000
0001
0000
0000
0000
,  // measure 22
0000
0000
0001
0100
0001
0000
0000
0000
1000
0100
1000
0100
1000
0000
0000
0000
,  // measure 23
0010
0000
0000
0000
0100
0000
0000
0000
0010
0000
0000
0000
0100
0000
0000
0000
0010
0000
0000
0000
0000
0000
0000
0000
0000
0000
0000
0000
0000
0000
0000
0000
1000
0000
0000
0000
0000
0100
0000
0000
0000
0000
0010
0000
0000
0000
0000
0000
0001
0000
0000
0000
0000
0100
0000
0000
0000
0000
0010
0000
0000
0000
0000
0000
,  // measure 24
1000
0100
0010
0001
0100
0010
1000
0000
0000
0110
0000
0000
,  // measure 25
1001
0000
0000
1000
0000
1000
0100
0000
0000
0001
0000
0001
,  // measure 26
0100
0000
0000
0010
0000
1000
0001
0000
0000
0010
0000
0000
,  // measure 27
0100
0000
0000
1000
0000
0001
0100
0000
0000
1010
0000
0000
,  // measure 28
0110
0000
0000
0101
0000
0000
1000
0000
1000
0001
0000
0001
,  // measure 29
0100
0000
0000
1000
0000
1000
0001
0000
0000
0020
0000
0030
,  // measure 30
0020
0000
0030
0001
0000
0001
1000
0000
0000
1000
0000
1000
,  // measure 31
0100
0000
0100
0010
0000
0010
0001
0000
0000
0100
0000
0000
,  // measure 32
1000
0100
0001
0010
,  // measure 33
1000
0000
0010
0000
0001
0000
0001
0100
,  // measure 34
0101
0000
1000
0100
1100
0000
0110
0000
,  // measure 35
0011
0000
0000
0000
1010
0000
1000
0010
,  // measure 36
1010
0000
0001
0010
0011
0000
0110
0000
,  // measure 37
1100
0000
1001
0000
0110
0000
0100
0010
,  // measure 38
0110
0000
0001
1000
1001
0000
0110
0000
,  // measure 39
1001
0000
0000
0000
0011
0000
0100
1000
,  // measure 40
1010
0000
0000
0000
0100
0000
0010
0000
0011
0000
0000
0001
0100
0000
0000
1000
,  // measure 41
0100
0000
1002
0000
1003
1000
1000
1000
,  // measure 42
0010
0010
0010
0010
0100
0100
0100
0100
,  // measure 43
0001
0001
0001
0001
1000
0100
0010
0001
,  // measure 44
1000
0010
0100
0001
1000
0100
0001
0010
,  // measure 45
1000
2002
0000
3003
1010
0000
1100
0000
,  // measure 46
0101
0011
1010
1100
,  // measure 47
0101
0000
0011
0000
1000
0100
1000
0100
,  // measure 48
1000
0100
0001
0100
0010
0100
0010
0100
,  // measure 49
0010
0100
1000
0100
0001
0010
0001
0010
,  // measure 50
0001
0100
1000
0100
0001
0100
0001
0100
,  // measure 51
0001
0010
1000
0010
0001
0010
0100
1000
,  // measure 52
0001
0100
0010
1000
0001
0010
0100
1000
,  // measure 53
0001
0000
0100
0000
0010
0000
1000
0000
0001
0000
1000
0100
1000
0000
0001
0000
,  // measure 54
0100
1000
0010
0000
0001
0100
1000
0000
,  // measure 55
0010
0001
0100
0000
0000
0000
0000
0000
,  // measure 56
1000
0001
1000
0001
1000
1000
0001
0001
,  // measure 57
1000
1000
0001
0001
0010
0010
0100
0100
,  // measure 58
0010
0010
0100
0100
1000
0100
1000
0100
,  // measure 59
1000
0100
1000
0100
0010
0001
0010
0001
,  // measure 60
0010
0001
0010
0001
1001
0000
0000
0000
,  // measure 61
0110
0000
1001
0000
,  // measure 62
0110
0000
1001
0000
,  // measure 63
0000
0000
0110
0000
,  // measure 64
0000
0000
0000
0000
,  // measure 65
0000
0000
0000
1001
2002
0000
0000
0000
,  // measure 66
0000
0000
0000
3003
0000
0110
0000
0000
;

//---------------dance-single - ----------------
#NOTES:
     dance-single:
     :
     Medium:
     8:
     0.490,0.600,0.193,0.366,0.077,298.000,20.000,38.000,0.000,0.000:  // measure 1
0000
0000
0000
0000
,  // measure 2
0020
0000
0000
0000
1030
0001
0100
0001
,  // measure 3
0020
0000
0030
0001
0020
0000
0030
0001
,  // measure 4
0020
0000
0030
0001
1000
0100
0001
0100
,  // measure 5
2000
0000
0000
3000
2000
0000
0000
3000
,  // measure 6
1000
0000
0000
0000
,  // measure 7
2000
0000
0000
0001
0001
3001
0000
0000
,  // measure 8
0002
0000
0000
0100
0100
0103
0000
0100
,  // measure 9
0010
0100
0000
0010
1000
0010
0000
1000
,  // measure 10
0001
0100
0001
0000
1000
0100
0010
0001
,  // measure 11
0020
0000
0000
0100
0100
0130
0000
0000
,  // measure 12
0002
0000
0000
0100
0100
0103
0000
0100
,  // measure 13
0001
0100
0000
0001
0010
0001
0000
0010
,  // measure 14
1000
0010
0001
0000
2002
0000
3003
0000
,  // measure 15
1000
0000
0000
0000
0001
0000
0000
1000
0001
0000
0000
0000
0000
0000
0001
0000
,  // measure 16
1000
0100
1000
0100
1000
0010
0001
0000
,  // measure 17
0000
0010
0000
1000
0001
0100
0001
1000
,  // measure 18
0010
0100
0010
1000
0100
0000
0000
0000
,  // measure 19
0100
0000
0000
0000
0010
0000
0000
0100
0010
0000
0000
0000
0000
0000
0010
0000
,  // measure 20
0001
0100
0001
0100
0001
0010
1000
0000
,  // measure 21
0000
0010
0000
0001
1000
0100
1000
0000
,  // measure 22
0000
1000
0001
0000
0001
0100
0010
0000
,  // measure 23
1000
0000
0000
0100
0000
0000
0010
0000
0000
0000
0000
0000
0001
0000
1000
0000
0001
0000
1000
0000
0001
0000
1000
0000
,  // measure 24
0001
1000
0001
1000
0001
1000
0001
0000
0000
0110
0000
0000
,  // measure 25
0100
0000
0000
1000
0000
0000
0100
0000
0000
0020
0000
0031
,  // measure 26
0000
0000
0000
0001
0000
0000
0000
0000
0000
0002
0000
1003
,  // measure 27
0000
0000
0000
1000
0000
0000
0000
0000
0000
2000
0000
3010
,  // measure 28
0000
0000
0000
0010
0000
0000
0000
0000
0000
0020
0000
0130
,  // measure 29
0000
0000
0000
0100
0000
0000
0000
0000
0000
0200
0000
0301
,  // measure 30
0000
0000
0000
0001
0000
0000
0000
0000
0000
0002
0000
1003
,  // measure 31
0000
1000
0010
1000
,  // measure 32
0001
1000
0100
1000
,  // measure 33
0001
1000
2002
3003
,  // measure 34
2002
3003
1001
0110
,  // measure 35
1001
0000
2200
3300
,  // measure 36
2200
3300
1100
0011
,  // measure 37
1100
0001
2020
3030
,  // measure 38
2020
3030
1010
0101
,  // measure 39
1010
0000
2002
3003
,  // measure 40
2002
0000
3003
0000
1010
1000
0001
0001
,  // measure 41
2000
0000
3100
0000
1000
0100
1000
0100
,  // measure 42
0010
0001
0010
0001
1000
0001
1000
0001
,  // measure 43
0100
0010
0100
0010
1000
0010
1000
0010
,  // measure 44
0100
0001
0100
0001
1000
0100
0010
0001
,  // measure 45
1000
0002
0000
0000
1003
0000
0100
0000
,  // measure 46
0001
0010
1000
0100
,  // measure 47
0001
0000
0010
0000
1000
0100
1000
0100
,  // measure 48
1000
0000
0000
0000
0001
0100
0001
0100
,  // measure 49
0001
0000
0000
0000
0001
0100
0001
0100
,  // measure 50
0001
0000
0000
0000
0010
0100
0010
0100
,  // measure 51
0010
0100
0010
0100
0001
0010
0100
1000
,  // measure 52
0001
0010
0100
1000
0001
0010
0100
1000
,  // measure 53
0001
0010
0100
1000
0001
1000
0001
1000
,  // measure 54
0001
0100
0010
0000
1000
0100
0010
0000
,  // measure 55
0001
1000
0001
0000
0000
0000
0000
0000
,  // measure 56
2000
0000
3001
0100
,  // measure 57
0001
0010
0001
0100
,  // measure 58
0001
0000
0010
0000
0001
1000
0001
1000
,  // measure 59
0001
1000
0001
1000
0010
0100
0010
0100
,  // measure 60
0010
0100
0010
0100
0001
0000
0000
0000
,  // measure 61
0010
0000
1000
0000
,  // measure 62
0010
0000
0001
0000
,  // measure 63
0000
0000
0010
0000
,  // measure 64
0000
0000
0000
0000
,  // measure 65
0000
0000
0000
1000
2000
0000
0000
0000
,  // measure 66
0000
0000
0000
0000
0000
3001
0000
0000
;

//---------------dance-single - ----------------
#NOTES:
     dance-single:
     :
     Easy:
     4:
     0.316,0.379,0.000,0.250,0.000,204.000,0.000,26.000,0.000,0.000:  // measure 1
0000
0000
0000
0000
,  // measure 2
2000
0000
3001
0001
,  // measure 3
0002
0003
0002
0003
,  // measure 4
0002
0000
1003
1000
,  // measure 5
2000
3000
2000
3000
,  // measure 6
1000
0000
0000
0000
,  // measure 7
2000
0000
3100
0000
,  // measure 8
0002
0000
0103
0000
,  // measure 9
0100
0000
0100
0000
,  // measure 10
0001
1000
0001
0000
1000
0000
1000
0000
,  // measure 11
0020
0000
1030
0000
,  // measure 12
0200
0000
0301
0000
,  // measure 13
0001
0000
0001
0000
,  // measure 14
1000
0001
1000
0000
0200
0000
0000
0000
,  // measure 15
1300
1000
1000
0000
,  // measure 16
0001
0000
0001
0000
0001
0100
0010
0000
,  // measure 17
0000
0010
0000
0000
1000
0000
0001
0000
,  // measure 18
1000
0000
0001
1000
0100
0000
0000
0000
,  // measure 19
0001
0001
0001
0000
,  // measure 20
1000
0000
0100
0000
0010
0001
0010
0000
,  // measure 21
0000
0010
0000
0000
0010
0100
0010
0000
,  // measure 22
0000
0002
0000
0003
2000
0000
3001
0000
,  // measure 23
0020
0130
1000
0001
,  // measure 24
1000
0001
1000
0010
,  // measure 25
0100
0001
1000
0100
,  // measure 26
1000
0001
0010
0001
,  // measure 27
1000
0100
1000
0001
,  // measure 28
1000
0001
0010
0100
,  // measure 29
2000
0000
3001
0000
0100
0000
0020
0030
,  // measure 30
0020
0030
1000
0000
0001
0000
0010
0000
,  // measure 31
0100
1000
0001
0100
,  // measure 32
0010
0100
1000
0100
,  // measure 33
0010
0100
0001
0000
,  // measure 34
0001
0000
0001
1000
,  // measure 35
0100
0000
1000
0000
,  // measure 36
1000
0000
1000
0001
,  // measure 37
0100
0010
0001
0000
,  // measure 38
0001
0000
0001
1000
,  // measure 39
0100
0000
0100
0000
,  // measure 40
0100
0000
0100
0010
,  // measure 41
0002
2003
3001
0001
,  // measure 42
0010
0010
0100
0100
,  // measure 43
1000
1000
0010
0010
,  // measure 44
0100
0100
0001
0001
,  // measure 45
0001
2000
0000
0000
3001
0000
0100
0000
,  // measure 46
1000
0010
0001
0100
,  // measure 47
1000
0010
0002
0000
,  // measure 48
1003
0000
2000
0000
,  // measure 49
3001
0000
2000
0000
,  // measure 50
3001
0000
0020
0000
,  // measure 51
0130
0100
0010
0001
,  // measure 52
0100
1000
0010
0001
,  // measure 53
0100
1000
0001
0001
,  // measure 54
0001
0100
0001
0000
1000
0100
1000
0000
,  // measure 55
0001
0100
0001
0000
0000
0000
0000
0000
,  // measure 56
2000
0000
3001
1000
,  // measure 57
0001
1000
0001
1000
,  // measure 58
0001
1000
0001
0001
,  // measure 59
0001
0001
1000
1000
,  // measure 60
1000
1000
0010
0000
,  // measure 61
0100
0000
0010
0000
,  // measure 62
0100
0000
0010
0000
,  // measure 63
0000
0000
0100
0000
,  // measure 64
0000
0000
0000
0000
,  // measure 65
0000
0000
0000
0001
0002
0000
0000
0000
,  // measure 66
0000
0000
0000
0000
0000
1003
0000
0000
;
