#TITLE:Moonlight Equilibrium;
#SUBTITLE:;
#ARTIST:The Black Dahlia Murder;
#TITLETRANSLIT:;
#SUBTITLETRANSLIT:;
#ARTISTTRANSLIT:;
#CREDIT:;
#BANNER:../Beast - bn.png;
#BACKGROUND:../Beast - bg.png;
#LYRICSPATH:;
#CDTITLE:;
#MUSIC:Moonlight Equilibrium.ogg;
#OFFSET:-0.014;
#SAMPLESTART:81.400;
#SAMPLELENGTH:12.000;
#SELECTABLE:YES;
#BPMS:0.000=218.000;
#STOPS:;
#BGCHANGES:;
// cache tags:
#FIRSTBEAT:8.000;
#LASTBEAT:746.000;
#SONGFILENAME:Songs/Beast Aoreo BEAST! 2/Moonlight Equilibrium - [Aoreo]/Moonlight Equilibrium.sm;
#HASMUSIC:1;
#HASBANNER:1;
#MUSICLENGTH:206.379;
// end cache tags

//---------------dance-single - J. Nero----------------
#NOTES:
     dance-single:
     J. Nero:
     Challenge:
     16:
     1.000,1.000,0.121,1.000,1.000,1957.000,25.000,224.000,0.000,0.000:
0000
0000
0000
0000
,
0000
0000
0000
0000
,
1000
0000
0001
1000
0010
0000
0200
0000
0300
0000
0200
0000
0300
0000
0101
0000
,
0001
0100
0001
0100
0010
1000
0010
1000
0001
0100
0010
0100
0010
1000
0001
1000
,
0001
0010
0100
2000
3010
0200
0301
0020
,
0230
2300
3200
2300
3002
0203
0302
0203
,
0310
0000
0100
0001
1000
0000
0002
0000
0103
0000
0002
0000
0013
0000
0100
0000
,
2000
3001
2000
3010
0200
0320
0230
0301
,
1000
1000
0001
1000
0100
0010
0100
1000
,
0010
0010
1000
0001
0010
0100
0010
0001
,
1000
0000
0001
1000
0001
0000
0200
0000
0310
0000
0200
0000
0301
0000
1000
0000
,
0200
1300
0200
1300
0020
0230
0302
0013
,
0100
0000
1000
0001
0100
0000
0020
0000
1030
0000
0020
0000
0130
0000
0001
0000
,
1001
1000
0100
0100
0010
0010
0001
0001
,
1000
0000
0001
0100
0010
0000
0200
0000
0301
0000
0200
0000
0310
0000
1000
0000
,
0200
0310
0200
1300
0002
0203
0320
1030
,
2001
0000
3001
0001
0100
0010
2000
0000
,
3200
0000
0000
0000
0310
0001
0010
0001
1000
0100
1000
0100
0010
0001
1000
0001
,
1000
0000
0002
0000
0103
0000
0020
0000
0130
0000
0002
0000
1003
0100
2000
0000
,
3010
0000
0200
0000
0301
0000
0020
0000
0130
0000
2000
0000
3010
1000
0010
0000
,
0100
0000
0002
0000
1003
0000
0200
0000
1300
0000
0020
0000
0130
0001
0200
0000
,
0310
0000
2000
0000
3100
0000
0020
0000
0031
0000
0200
0000
0301
1000
0001
0000
,
1000
0000
0200
0000
0310
0000
0002
0000
1003
0000
0020
0000
0130
0001
0200
0000
,
0301
0000
0020
0000
0130
0000
2000
0000
3001
0000
0200
0000
0310
1000
0010
0000
,
1000
0100
1000
0100
0010
0001
0010
0001
1000
0100
1000
0001
0100
0001
1000
0010
,
1000
0001
0100
0001
1000
0100
1000
0001
0010
0001
0010
0100
1000
0100
1000
0001
,
1000
0000
0020
0000
0130
0000
0002
0000
0013
0000
0200
0000
1300
0001
2000
0000
,
3001
0000
0020
0000
0130
0000
2000
0000
3010
0000
0200
0000
0301
0100
0001
0000
,
0100
0000
0020
0000
1030
0000
0200
0000
1300
0000
0020
0000
0130
0001
2000
0000
,
3010
0000
0200
0000
0301
0000
0020
0000
0031
0000
2000
0000
3001
0100
0001
0000
,
1000
0000
0020
0000
0130
0000
0002
0000
0013
0000
0200
0000
1300
0100
2000
0000
,
3001
0000
0200
0000
0310
0000
2000
0000
3100
0000
0020
0000
0031
0100
0001
0000
,
0100
0001
0100
0001
1000
0010
1000
0010
0100
0001
0100
0010
1000
0010
1000
0001
,
1000
0100
1000
0100
0010
0001
0010
0100
1000
0001
2000
0000
0000
0000
3000
0000
,
2002
0000
3003
0000
0001
0100
0001
0100
0010
1000
0010
1000
0001
0100
0001
1000
,
0100
1000
0010
0100
0010
1000
0001
0100
0001
0100
0001
1000
0100
1000
0100
0010
,
0001
0010
0001
1000
0010
1000
0010
0100
0001
0100
0010
1000
0010
0100
0001
0100
,
0010
1000
0010
1000
0001
0100
0001
1000
0100
1000
0010
0100
0001
1000
0100
1000
,
0100
1000
0001
1000
0001
0100
0001
0100
0010
1000
0001
0010
0100
1000
0001
1000
,
0001
0100
0010
0100
0001
1000
0100
1000
0010
0100
0001
0100
0010
0100
0010
1000
,
0001
1000
0001
0010
0100
1000
0010
0100
0001
1000
0010
0100
0001
1000
0100
1000
,
0001
0100
0001
0100
0001
1000
0010
1000
0010
0000
0100
0000
0010
0000
1000
0000
,
0001
0000
0001
0000
0100
0000
0010
0000
1000
0000
0001
0000
0100
0001
0100
0001
,
1000
0100
0010
0001
1000
0010
0200
0301
,
1000
0000
1000
0000
0001
0000
0100
0000
0010
0000
1000
0000
0100
0010
0100
0010
,
0001
0100
0010
1000
0100
0100
2000
3010
,
0100
0000
0100
0000
0001
0000
0010
0000
0100
0000
0010
0000
0001
1000
0001
1000
,
0100
0010
0001
1000
0001
0001
0200
0310
,
1000
0000
0100
0000
0100
0000
1000
0000
0010
0000
0010
0000
0100
0000
0001
1000
,
0004
0000
0000
0000
0000
0000
0000
0000
1003
0100
1000
0100
0010
0001
0010
0100
,
1000
0000
0100
1000
0001
0000
0200
0000
0310
0000
0200
0000
0301
0000
1000
0000
,
0200
0310
0200
1300
0002
0203
0320
1030
,
0001
0000
0100
0010
1000
0000
0200
0000
0310
0000
0200
0000
1300
0000
0002
0000
,
0023
0230
0320
0230
2300
3002
2003
3002
,
1003
0000
0010
0100
0001
0000
0200
0000
0310
0000
0200
0000
0301
0000
1000
0000
,
0200
0310
0200
1300
0020
0230
0302
1003
,
0010
0010
1000
0100
0010
0100
1000
0010
,
0100
0100
0001
0010
0100
0010
0001
1000
,
0001
0000
0100
0010
1000
0000
0002
0000
0013
0000
0002
0000
0103
0000
0010
0000
,
2000
3100
2000
3001
0020
0230
0320
0031
,
1000
0000
0010
0100
0001
0000
0200
0000
0310
0000
0200
0000
0301
0000
1000
0000
,
1001
0001
0100
0100
0010
0010
1000
1000
,
0001
0000
0010
0100
1000
0000
0020
0000
0130
0000
0020
0000
1030
0000
0001
0000
,
0200
0310
0200
0301
0020
0230
2300
3010
,
0100
0001
0100
0001
1000
0010
0100
0001
1000
0100
1000
0010
0100
0001
0100
0001
,
1000
0000
0000
0100
0000
0000
1000
0000
0000
0001
0000
0000
0100
0000
0000
0010
0000
0000
0100
0000
0000
0001
0000
0000
1000
0000
0000
0000
0001
0000
0000
0000
0010
0000
0000
0000
0100
0000
0000
0000
1000
0000
0000
0000
0001
0000
0000
0000
,
2000
0000
3000
0000
0001
0100
0001
0100
0010
1000
0010
1000
0001
0010
0001
1000
,
0010
1000
0010
0100
0001
0100
0001
1000
0010
0100
0010
1000
0001
1000
0100
0010
,
0100
0010
0001
0010
0001
1000
0001
1000
0010
0100
0001
1000
0001
1000
0001
0100
,
0001
0100
0010
1000
0001
1000
0010
0100
0010
1000
0001
0100
0001
1000
0010
0100
,
0010
0100
0001
1000
0001
0100
0010
1000
0100
0010
0001
0010
0001
1000
0010
1000
,
0010
0100
0001
0010
0100
1000
0010
1000
0001
0100
0001
0100
0010
1000
0001
1000
,
0001
0100
0010
0100
0001
1000
0100
1000
0100
0010
0100
1000
0001
0100
0010
1000
,
0001
0100
0001
0100
0001
0100
0010
1000
0010
0000
0100
0000
0001
0000
0010
0000
,
0100
0000
0100
0000
1000
0000
0010
0000
0100
0000
0001
0000
0010
0100
0010
0100
,
1000
0010
0100
0001
1000
1000
0020
0130
,
0001
0000
0001
0000
0010
0000
0100
0000
0010
0000
0001
0000
1000
0001
1000
0001
,
0100
0001
0010
0100
1000
1000
0002
0103
,
0010
0000
0010
0000
1000
0000
0100
0000
0010
0000
0100
0000
1000
0010
1000
0010
,
0100
0010
0100
0001
0010
0010
0200
1300
,
0001
0000
0100
0000
0100
0000
0010
0000
1000
0000
1000
0000
0001
0000
0100
0001
,
0400
0000
0000
0000
0000
0000
0000
0000
0301
1000
0001
0100
0010
1000
0001
1000
,
0200
0000
0000
0000
0000
0000
0000
0300
1000
0100
1000
0100
0010
0000
0000
0000
,
0000
0000
0000
0000
0001
0000
0000
0000
0100
0000
0010
0000
1000
0000
0001
0100
,
0001
0100
0010
1000
0010
1000
0001
1000
0010
0100
0010
1000
0001
1000
0010
0100
,
0010
1000
0001
1000
0001
0010
0100
1000
0001
0100
0001
1000
0010
0100
0010
0100
,
0020
0000
0000
0000
0000
0000
0000
0000
1030
0001
1000
0001
0100
0000
0000
0000
,
0000
0000
0000
0000
0001
0000
0000
0000
1000
0000
0100
0000
1000
0000
0001
0100
,
0010
1000
0010
1000
0001
1000
0001
0010
0100
1000
0001
0100
0001
1000
0100
1000
,
0100
0010
0001
0010
0001
1000
0001
1000
0010
0100
0001
0100
0010
1000
0010
1000
,
0002
0000
0000
0000
0000
0000
0000
0000
1003
0010
1000
0010
0100
0000
0000
0000
,
0000
0000
0000
0000
0010
0000
0000
0000
1000
0000
0100
0000
0010
0000
0100
1000
,
0001
0100
0010
0100
0001
1000
0001
1000
0100
0010
0001
1000
0010
0100
0001
0100
,
0001
1000
0010
0100
0010
1000
0001
1000
0100
0010
0100
0010
0001
1000
0001
1000
,
0020
0000
0000
0000
0000
0000
0000
0000
0130
0001
0100
0001
1000
0000
0000
0000
,
0000
0000
0000
0000
0100
0000
0000
0000
1000
0000
0010
0000
0100
0000
0001
0100
,
0001
1000
0100
1000
0001
0010
0001
1000
0100
1000
0010
0100
0001
0010
0100
1000
,
0010
0100
0001
1000
0001
0100
0001
0100
0010
0000
1000
0000
0001
0000
0010
0000
,
0200
0000
1300
1000
0010
0100
0002
0000
,
0013
0200
0000
0000
1300
0001
1000
0010
,
0100
0001
0010
0100
0010
0001
1000
0001
0010
0100
1000
0001
,
1000
0010
0100
0010
1000
0001
0200
0000
0000
0000
0000
0300
,
0002
0000
0013
0010
0100
1000
0002
0000
,
0103
0020
0000
0000
0130
0001
1000
0100
,
1000
1000
0010
0100
0001
0010
0100
1000
,
0010
1000
0001
0010
0100
1000
0001
1000
0100
0010
0001
1000
,
0010
0100
0001
0010
0100
1000
0100
0010
,
0100
1000
0100
0010
0100
1000
0010
0100
,
0001
1000
0001
0100
0001
0010
0001
0100
,
0010
0010
1000
1000
0010
0010
0100
0100
,
0001
0010
0100
1000
0001
0100
0010
1000
0100
0010
0001
0100
,
0010
1000
0001
0010
0100
0010
0001
1000
0100
1000
0010
0100
,
0001
1000
0100
0010
0100
1000
0001
0100
0010
1000
0100
0010
,
0001
0100
0001
0100
0001
0100
0001
1000
0100
1000
0100
1000
0100
0010
0100
0010
,
0002
0000
0000
0000
,
0000
0000
0000
0003
,
2002
0000
0000
0000
,
0000
0000
0000
3003
,
2200
3300
0000
0000
,
0000
0000
0000
0000
,
1000
0010
0100
0001
1000
0001
1000
0010
0100
0010
0100
0001
1000
0010
0100
0001
,
1000
0010
1000
0010
0100
0001
1000
0001
0100
0001
0100
0010
1000
0001
0010
0001
,
1000
0100
1000
0100
0010
0100
0010
0001
0010
0001
1000
0001
1000
0010
0100
0001
,
1000
0001
0100
0001
0100
0010
1000
0010
1000
0001
0100
0010
0100
0001
1000
0001
,
1000
0100
0010
0001
1000
0001
1000
0100
0010
0001
1000
0001
0100
0010
0100
0001
,
1000
0010
1000
0001
0100
0001
0100
0010
1000
0001
0100
0010
0100
0010
1000
0001
,
1000
0010
0100
0010
1000
0001
1000
0001
0100
0010
1000
0010
0100
0001
1000
0001
,
1000
0100
1000
0100
0010
0001
0010
0001
1000
0100
0010
0100
0010
0001
1000
0010
,
0100
0001
1000
0010
0100
0001
1000
0100
1000
0010
0100
0010
1000
0001
1000
0001
,
1000
0010
0100
0001
1000
0010
0100
0001
1000
0100
0010
0001
1000
0100
0010
0001
,
1000
0001
1000
0001
0010
0100
1000
0001
1000
0001
0100
0010
0100
0010
1000
0001
,
1000
0001
1000
0001
0010
0100
0010
0100
1000
0100
1000
0001
0100
0001
0100
0010
,
0100
0001
1000
0001
0100
0010
0100
0001
1000
0010
1000
0010
0100
0001
1000
0010
,
0100
0010
1000
0001
1000
0001
0100
0010
1000
0001
1000
0010
0100
0010
0100
0001
,
0010
0100
1000
0001
0010
0001
0010
0100
1000
0100
1000
0010
0100
0010
0100
0001
,
1000
0010
1000
0010
0100
0001
0100
0010
1000
0001
0100
0010
1000
0010
1000
0001
,
0100
0001
0100
0010
1000
0010
0100
0001
0100
0010
1000
0010
0100
0001
1000
0001
,
0010
0100
1000
0001
1000
0010
0100
0001
2000
0000
3000
0000
2002
0000
3003
0000
,
0101
0000
0002
0000
0013
0000
0200
0000
1300
0000
0020
0000
0130
0001
0200
0000
,
0301
0000
0020
0000
0130
0000
2000
0000
3001
0000
0200
0000
0310
1000
0010
0000
,
0100
0000
0002
0000
0013
0000
0200
0000
1300
0000
0002
0000
1003
0010
2000
0000
,
3010
0000
0200
0000
0301
0000
0020
0000
0130
0000
2000
0000
3001
1000
0001
0000
,
1000
0000
0020
0000
0130
0000
0002
0000
0013
0000
0200
0000
1300
0001
2000
0000
,
3001
0000
0200
0000
0310
0000
2000
0000
3001
0000
0020
0000
0130
1000
0100
0000
,
1000
0100
1000
0100
0010
0001
0010
0001
1000
0010
0100
0001
1000
0001
0100
0010
,
0100
0001
1000
0010
1000
0010
0100
0001
1000
0001
1000
0010
0100
0001
0100
0001
,
0100
0000
0002
0000
0103
0000
0020
0000
1030
0000
0002
0000
0103
0010
0200
0000
,
0301
0000
0020
0000
0130
0000
2000
0000
3001
0000
0200
0000
0310
1000
0010
0000
,
0100
0000
0002
0000
0013
0000
0200
0000
1300
0000
0002
0000
0103
0001
0200
0000
,
0310
0000
2000
0000
3100
0000
0020
0000
0130
0000
2000
0000
3001
0100
0001
0000
,
1000
0000
0200
0000
0310
0000
0200
0000
1300
0000
0002
0000
0103
0001
0200
0000
,
0310
0000
2000
0000
3001
0000
0020
0000
0130
0000
0020
0000
0031
1000
0001
0000
,
1000
0100
1000
0001
0100
0001
0100
0010
1000
0001
0100
0010
0100
0001
1000
0001
,
0100
0010
1000
0001
0010
0001
1000
0100
1000
0001
0200
0000
0000
0000
0000
0300
,
0101
0000
0000
0000
0001
0100
0001
0100
0010
1000
0010
1000
0001
0100
0010
1000
,
0001
0100
0001
1000
0001
0100
0001
0100
0010
1000
0001
1000
0100
0010
0001
1000
,
0001
1000
0100
0010
0001
1000
0001
1000
0100
1000
0100
0010
0001
0010
0001
1000
,
0010
1000
0010
0100
0001
0100
0001
1000
0001
1000
0001
0100
0010
1000
0010
0100
,
0001
0100
0001
1000
0010
1000
0010
0100
0001
0100
0001
1000
0001
1000
0010
1000
,
0010
0100
0010
0100
0001
0100
0001
1000
0001
0100
0010
0100
0010
1000
0001
1000
,
0001
0010
0100
1000
0100
1000
0001
0100
0001
1000
0010
0100
0010
1000
0001
1000
,
0001
0100
0001
0100
0001
0100
0001
1000
0100
0000
1000
0000
0010
0000
0100
0000
,
0001
0000
0001
0000
0010
0000
0100
0000
0010
0000
0001
0000
1000
0001
1000
0001
,
0100
0010
1000
0100
1000
1000
0002
0103
,
0010
0000
0010
0000
1000
0000
0100
0000
0010
0000
0100
0000
1000
0010
1000
0010
,
0100
0001
0010
0100
0010
0010
0002
0103
,
0010
0000
0010
0000
1000
0000
0100
0000
1000
0000
0001
0000
0100
0001
0100
0001
,
0010
0100
1000
0010
0100
0100
0020
1030
,
0100
0000
1000
0000
1000
0000
0010
0000
0100
0000
0100
0000
0001
0000
1000
0001
,
4000
0000
0000
0000
0000
0000
0000
0000
3001
0100
0001
0100
0010
1000
0001
1000
,
0002
0000
0000
0000
0000
0000
0000
0003
0011
0000
0010
0000
0100
0000
1000
0000
,
1001
0000
0001
0000
0100
0000
0010
0000
0110
0000
0100
0000
0001
0010
0100
1000
,
0001
1000
0100
1000
1001
0001
0100
0010
,
1010
0000
1000
0000
0100
0000
0010
0000
0011
0000
0001
0000
1000
0010
1000
0010
,
0100
0010
1000
0001
0011
0010
0100
1000
,
1001
0000
0001
0000
1000
0000
0100
0000
1100
0000
1000
0000
0010
0100
0001
0100
,
0001
0010
0100
1000
1001
0001
0100
0010
,
0110
0000
0000
0000
0101
0000
0000
0000
0001
1000
0100
0010
0100
1000
0001
1000
,
0001
0000
0010
0100
1000
0000
0200
0000
0310
0000
0200
0000
1300
0000
0010
0000
,
0200
0301
0200
0310
2000
3002
0023
0130
,
1000
0000
0010
0100
0001
0000
0020
0000
0130
0000
0020
0000
0031
0000
2000
0000
,
3002
0023
0032
0023
0230
2300
3200
2300
,
3010
0000
0100
0001
0010
0000
0200
0000
1300
0000
0200
0000
1300
0000
0001
0000
,
0020
0130
0020
0031
2000
3020
0230
0301
,
1000
0001
1000
0001
0100
0010
1000
0010
0100
0001
0100
0010
1000
0010
1000
0001
,
0010
0001
0010
0001
1000
0010
1000
0010
0100
0010
0100
0001
1000
0001
1000
0001
,
2000
0000
3000
0000
;
