#TITLE:Snowblind;
#SUBTITLE:;
#ARTIST:Au5 ft. Tasha Baxter;
#TITLETRANSLIT:;
#SUBTITLETRANSLIT:;
#ARTISTTRANSLIT:;
#CREDIT:Braeden47;
#BANNER:../Banner.png;
#BACKGROUND:../BG.PNG;
#LYRICSPATH:;
#CDTITLE:../CDTitleBRAEDEN.png;
#MUSIC:Snowblind.ogg;
#OFFSET:0.311;
#SAMPLESTART:97.680;
#SAMPLELENGTH:12.973;
#SELECTABLE:YES;
#DISPLAYBPM:138.000;
#BPMS:0.000=69.000,33.000=138.000,217.000=69.000,221.000=138.000,412.000=69.000,428.000=138.000;
#STOPS:;
#BGCHANGES:;
// cache tags:
#FIRSTBEAT:1.000;
#LASTBEAT:715.000;
#SONGFILENAME:Songs/Index Fusion/Snowblind - [Braeden]/Snowblind.sm;
#HASMUSIC:1;
#HASBANNER:1;
#MUSICLENGTH:347.974;
// end cache tags

//---------------dance-single - ----------------
#NOTES:
     dance-single:
     :
     Challenge:
     17:
     1.000,1.000,0.204,0.195,1.000,2579.000,71.000,68.000,0.000,0.000:
0000
0000
0000
0000
1000
0000
0001
0000
0100
0000
0010
1000
0010
0000
0010
0000
,
0100
0000
0001
0010
0001
0000
0100
0000
0010
0000
1000
0010
0000
0000
0100
0000
,
0001
0000
0010
0001
0100
0000
0010
0000
1000
0000
0010
0100
0000
0000
0001
0000
,
0010
0000
0001
0100
0010
0000
1000
0000
0001
0000
0100
0010
0000
0000
1000
0000
,
0001
0000
0100
0000
1010
0000
1000
0010
0100
0001
0010
0001
0000
0000
0000
0100
,
0000
0010
0000
1000
0000
0010
0000
0100
0000
0001
0000
0010
0000
0000
0001
0000
,
1000
0000
0010
0100
0010
1000
0001
0000
0100
0010
1000
0020
0030
0100
0000
0001
,
0000
0000
0100
0000
0000
0000
0010
0000
0000
0000
1000
0000
0000
0000
0100
0000
0000
0000
0010
0000
0001
0000
0100
0000
0000
0000
0000
0000
0010
0000
0000
1000
,
0010
0000
1000
0000
0001
0010
0100
1000
0100
0010
0001
0100
0010
1000
0100
0010
,
0001
0010
0100
1000
0001
0100
0010
0100
0001
0010
0100
1000
0001
0100
0010
1000
,
0100
0010
0100
1000
0001
0100
0010
0100
0001
0010
0100
1000
0100
0010
0001
0010
,
0100
1000
0001
0100
0010
1000
0100
1000
0001
0010
0100
1000
0100
0010
0001
0100
,
0010
0100
0001
0010
0110
0000
0100
0000
0100
0000
1000
0000
1000
0000
0001
0000
,
0001
0000
1000
0010
1010
0000
0100
0000
0100
0000
0001
0000
0001
0000
0100
0000
,
0100
0000
0010
1000
0100
0010
0001
0010
0100
1000
0001
0100
0010
1000
0100
0010
,
0100
0000
0000
1000
0000
0000
0001
0000
0000
0100
0000
0000
0010
0000
1000
0000
0010
0000
1000
0000
0010
0000
0100
0000
0001
0000
1000
0000
0001
0000
1000
0000
0010
0000
0100
0000
0001
0000
0000
0000
0000
0000
0000
0000
0000
0000
0000
0000
,
1000
0001
2002
3003
2020
3030
0220
0330
,
0100
0010
0022
0033
0202
0303
2020
3030
,
0001
0100
0202
0303
2020
3030
1020
0030
,
1000
0020
0130
0000
2000
3002
0103
0000
,
0200
0000
0000
0320
0000
0000
1030
0100
0010
0001
0010
0100
2000
0000
0000
0000
0000
0000
3001
0010
0100
1000
0100
0010
,
0002
0000
0000
0000
0000
0000
1003
0100
0010
0001
0010
0100
2000
0000
0000
0000
0000
0000
3001
0100
0010
1000
0100
0010
,
0002
0000
0000
0000
0000
0000
1003
0100
0010
0001
0010
0100
2000
0000
0000
0000
0000
0000
3001
0100
0010
1000
0100
0010
,
0002
0000
0000
0000
0000
0000
1003
0100
0010
0001
0010
0100
1000
0001
0100
0010
1000
0100
0010
0001
0100
0010
0100
0001
,
0010
0000
0000
0001
0000
0000
1000
0100
0010
0001
0010
0100
1000
0001
0100
0010
1000
0100
0010
0001
0010
0100
1000
0001
,
0100
0000
0000
0010
0000
0000
1000
0100
0010
0001
0010
0100
1000
0001
0100
0010
1000
0100
0010
0001
0010
0100
1000
0001
,
1000
0000
0000
0001
0000
0000
1000
0100
0010
0001
0010
0100
1000
0001
0100
0010
1000
0100
0010
0100
1000
0001
0100
0001
,
1000
0000
0000
0010
0000
0000
1000
0100
0010
0001
0010
0100
1000
0001
0100
0010
1000
0100
0010
0001
0010
0100
1000
0001
,
0010
0000
0000
0100
0000
0000
1000
0010
0100
0001
1000
0100
0010
0001
0010
0100
1000
0001
0100
0010
1000
0100
0010
0001
,
0100
0000
0000
0010
0000
0000
1000
0100
0010
0001
0010
0100
1000
0001
0100
0010
1000
0100
0010
0001
1000
0010
0100
0001
,
1000
0000
0000
0010
0000
0000
0100
0001
0100
0010
0100
0001
0100
0010
1000
0010
0100
0010
1000
0100
0010
0100
1000
0001
,
0100
0000
0000
0000
0000
0000
0000
0000
0000
0000
0000
0000
0000
0000
0000
0000
0000
0000
0000
0000
0000
0000
0000
0000
0010
0000
0000
0000
0000
0000
0000
0000
0000
0000
0000
0000
0000
0000
0000
0000
0000
0000
0000
0000
0000
0000
0000
0000
1000
0000
0000
0000
0000
0000
0000
0000
0100
0000
0000
0000
0000
0000
0000
0000
0010
0000
0000
0000
0000
0000
0000
0000
0001
0000
0000
0000
0000
0000
0000
0000
0010
0000
0000
0000
0000
0000
0000
0000
0100
0000
0000
0000
0000
0000
0000
0000
1000
0000
0000
0000
0000
0000
0000
0000
0001
0000
0000
0000
0000
0000
0000
0000
0100
0000
0000
0000
0000
0000
0000
0000
0010
0000
0000
0000
0000
0000
0000
0000
1000
0000
0000
0000
0000
0000
0000
0000
0100
0000
0000
0000
0000
0000
0000
0000
0010
0000
0000
0000
0000
0000
0000
0000
0000
0000
0000
0000
0000
0000
0000
0000
0000
0000
0000
0000
0000
0000
0000
0000
0001
0000
0000
0000
0000
0000
1000
0000
0000
0000
0000
0000
0001
0000
0000
0000
0000
0000
1000
0000
0000
0000
0000
0000
,
0001
0000
1000
0000
0001
0010
0100
1000
0100
0010
0001
0100
0010
1000
0001
0010
,
0100
1000
0001
0100
0010
1000
0100
0010
0001
0010
0100
1000
0001
0100
0010
1000
,
0100
0010
0100
1000
0001
0100
0010
1000
0100
0010
0001
0010
0100
1000
0001
0100
,
0010
1000
0100
0010
0100
1000
0001
0100
0010
0100
0001
0010
0100
1000
0001
0100
,
0010
1000
0100
0010
0001
0010
0100
1000
0001
0100
0010
0100
0001
0010
0100
1000
,
0001
0100
0010
1000
0100
0010
0001
0010
0100
1000
0001
0100
0010
0100
0001
0010
,
0100
1000
0100
0010
0001
0100
0010
0100
0001
0010
0100
1000
0001
0100
0010
1000
,
0100
1000
0001
0010
0100
1000
0100
0010
0001
0100
0010
0100
0001
0010
0100
1000
,
0001
0000
0000
0100
0000
0000
0010
0000
0000
1000
0000
0000
0001
0000
0000
0010
0000
0000
0100
0000
0000
1000
0000
0000
0100
0000
0000
0010
0000
0000
0001
0000
0000
0100
0000
0000
0001
0000
0100
0000
0010
0000
1000
0000
0100
0000
0010
0000
,
0100
0000
1000
0000
0001
0000
0100
0000
0010
0000
1000
0000
0100
0000
0000
0010
0000
0000
0001
0000
0000
0010
0000
0000
0100
0000
0000
1000
0000
0000
0001
0000
0000
0100
0000
0000
0010
0000
1000
0000
0100
0000
0010
0000
0001
0000
0010
0000
,
0100
0000
1000
0000
0001
0000
0100
0000
0010
0000
1000
0000
0100
0000
0000
0010
0000
0000
0001
0000
0000
0010
0000
0000
0100
0000
0000
1000
0000
0000
0010
0000
0000
0000
0000
0000
1000
0000
0100
0000
0010
0000
0001
0000
0010
0000
0100
0000
,
1000
0000
0000
0000
0000
0000
0000
0000
0001
0000
0000
0000
0000
0000
0000
0000
0100
0000
0000
0000
0000
0000
0000
0000
0010
0000
0000
0000
0000
0000
0000
0000
1000
0000
0000
0000
0000
0000
0000
0000
0100
0000
0000
0000
0000
0000
0000
0000
0010
0000
0000
0000
0000
0000
0000
0000
0000
0000
0000
0000
0001
0000
0000
0000
0000
0000
0000
0000
0000
0000
0000
0000
0010
0000
0000
0000
0000
0000
0000
0000
0000
0000
0000
0000
0100
0000
0000
0000
0000
0000
0000
0000
0000
0000
0000
0000
1000
0000
0000
0000
0000
0000
0000
0000
0000
0000
0000
0000
0000
0000
0000
0000
0000
0000
0000
0000
0000
0000
0000
0000
0001
0000
0000
0000
0000
0000
1000
0000
0000
0000
0000
0000
0001
0000
0000
0000
0000
0000
1000
0000
0000
0000
0000
0000
0001
0000
0000
0000
0000
0000
0000
0000
0000
0000
0000
0000
0010
0000
0000
0000
0000
0000
0000
0000
0000
0000
0000
0000
0000
0000
0000
0000
0000
0000
0000
0000
0000
0000
0000
0000
0010
0000
0000
0000
0000
0000
0000
0000
0000
0000
0000
0000
,
0000
0000
0000
0010
0000
0000
0000
0000
0000
0010
0000
0000
0001
0000
1000
0000
0100
0000
0010
0000
0100
0000
1000
0000
0001
0000
0010
0000
0001
0000
1000
0000
0100
0000
0010
0000
0100
0000
1000
0000
0001
0000
0100
0000
0010
0000
1000
0000
,
0100
0010
0100
1000
0001
0100
0010
1000
0100
0010
0100
1000
0001
0100
0010
1000
0100
0010
0001
1000
0100
0010
0100
1000
,
0001
0000
0000
0000
0000
0000
0000
0000
0100
0000
0000
0000
0000
0000
0000
0000
0010
0000
0000
0000
0000
0000
0000
0000
1000
0000
0000
0000
0000
0000
0000
0000
0100
0000
0000
0000
0000
0000
0000
0000
0010
0000
0000
0000
0000
0000
0000
0000
0100
0000
0000
0000
0000
0000
0000
0000
1000
0000
0000
0000
0000
0000
0000
0000
0001
0000
0000
0000
0000
0000
0000
0000
0100
0000
0000
0000
0000
0000
0000
0000
0010
0000
0000
0000
0000
0000
0000
0000
1000
0000
0000
0000
0000
0000
0000
0000
0100
0000
0000
0000
0000
0000
0000
0000
0010
0000
0000
0000
0000
0000
0000
0000
0100
0000
0000
0000
0000
0000
0000
0000
1000
0000
0000
0000
0000
0000
0000
0000
0001
0000
0000
0000
0000
0000
0000
0000
0100
0000
0000
0000
0000
0000
0000
0000
0010
0000
0000
0000
0000
0000
0000
0000
0000
0000
0000
0000
0000
0000
0000
0000
0000
0000
0000
0000
0000
0000
0000
0000
1000
0000
0000
0000
0000
0000
0010
0000
0000
0000
0000
0000
0100
0000
0000
0000
0000
0000
0001
0000
0000
0000
0000
0000
,
1000
0010
0100
0001
0020
0000
0000
0000
0000
0000
0000
0000
0000
0000
0000
0000
,
0030
0000
0000
0000
1004
0000
0000
0000
0403
0000
0310
0000
4010
0000
3001
0100
,
0040
0000
4030
0000
3004
0000
0103
0010
4000
0000
3040
0000
0230
0300
0001
0100
,
0000
0100
0010
1000
0100
0000
0000
0000
0040
0000
0031
0000
0011
0000
0001
0100
,
0020
0000
0000
0000
0000
0000
0000
0000
0000
0000
0000
0000
1030
0000
0000
0000
0100
0000
0000
0000
0010
0000
0000
0000
0001
0000
0000
0000
0000
0000
1000
0000
0000
0000
0000
0000
0001
0000
0000
0100
0000
0000
0000
0000
0000
0010
0000
0000
,
0000
1000
0001
0000
2001
0000
3000
0000
0040
0000
0130
0000
0101
0000
0000
0000
,
0004
0000
0000
0000
0403
0000
0000
0000
0310
0000
1000
0001
0010
0000
0000
0000
,
0000
0000
0000
0000
1000
0000
0001
0000
1001
0000
0010
0010
0100
0001
0010
0001
,
0100
0100
0000
0010
2010
0000
0000
0000
3020
0000
0030
0000
1010
0000
1000
0000
,
0004
0000
0000
0000
4003
0000
0000
0000
3040
0000
0000
0000
0130
0000
0001
0100
,
0000
0000
0000
0100
0000
0000
0010
0000
0100
0000
0001
0000
0100
0000
0000
0010
0000
0000
1000
0000
0000
0000
0000
0000
0010
0000
0000
0100
0000
0000
0000
0000
0000
0001
0000
0000
1001
0000
0000
0000
0000
0000
0000
0000
0000
0000
0000
0000
,
2020
0000
0000
0000
0000
0000
0000
0000
0000
0000
0000
0000
0000
0000
0000
0000
0000
0000
0000
0000
0000
0000
0000
0000
3030
0000
0000
0000
0000
0000
0000
0000
0000
0000
0000
0000
0000
0000
0000
0000
0000
0000
0000
0000
0000
0000
0000
0000
0100
0000
0000
0000
0000
0000
0000
0000
0000
0000
0000
0000
0000
0000
0000
0000
0001
0000
0000
0000
0000
0000
0000
0000
0000
0000
0000
0000
0000
0000
0000
0000
0100
0000
0000
0000
0000
0000
0000
0000
0000
0000
0000
0000
0000
0000
0000
0000
0010
0000
0000
0000
0000
0000
0000
0000
0000
0000
0000
0000
0000
0000
0000
0000
0000
0000
0000
0000
0000
0000
0000
0000
1000
0000
0000
0000
0000
0000
0001
0000
0000
0000
0000
0000
1000
0000
0000
0000
0000
0000
0001
0000
0000
0000
0000
0000
1000
0000
0000
0000
0000
0000
0000
0000
0000
0000
0000
0000
0010
0000
0000
0000
0000
0000
0000
0000
0000
0000
0000
0000
0000
0000
0000
0000
0000
0000
0000
0000
0000
0000
0000
0000
0010
0000
0000
0000
0000
0000
0000
0000
0000
0000
0000
0000
,
0000
0010
0000
0010
4010
0000
0000
0000
3004
0000
0103
0000
0040
0000
0000
0000
,
0430
0000
0000
0000
1300
0100
0010
0001
2000
0000
3020
0000
0430
0000
0000
0000
,
0304
0003
1001
0000
0002
0003
1001
0000
,
1000
0000
1000
0000
0101
0000
0010
0000
0010
0000
1000
0000
0001
0010
0100
1000
,
0100
0000
0011
0000
0002
0003
1010
2000
,
3010
0000
0000
0000
0000
0000
0100
0000
0001
0000
0010
0000
0100
0000
0000
0000
0000
0000
1000
0000
0000
0000
0000
0000
0001
0000
0000
0000
0000
0000
1000
0000
0010
0000
0100
0000
0001
0000
0000
0100
0000
0000
0010
0000
0000
1000
0000
0000
,
0400
0000
0000
0000
0000
0000
0000
0000
0000
0300
0000
0000
0010
0000
0001
0000
0010
0000
0100
0000
1000
0000
0001
0000
0100
0000
0010
0000
1000
0000
0100
0000
0010
0000
0001
0000
2000
0000
0000
0000
0000
0000
3020
0000
0000
0000
0000
0000
,
2030
0000
3020
0000
2030
0000
3000
0010
0000
0100
0001
0000
0001
0100
0010
1000
,
0100
0000
0010
0000
0001
0000
0010
0000
0100
0000
1000
0000
0001
0000
0000
0000
0000
0000
0100
0000
0010
0000
1000
0000
0100
0000
0010
0000
0001
0000
0010
0000
0100
0000
1000
0000
0001
0000
0000
0100
0000
0000
0010
0000
0000
0100
0000
0000
,
0001
0000
0000
0000
0000
0000
0010
0000
0000
0000
0000
0000
0100
0000
0000
1000
0000
0000
0010
0000
0000
0100
0000
0000
0001
0000
0100
0000
0010
0000
1000
0000
0100
0000
0010
0000
0002
0000
0103
0000
0010
0000
1000
0000
0100
0000
0010
0000
,
0100
1000
0001
0100
0010
1000
0100
0000
0000
0000
0000
0000
0010
0000
0000
0000
0000
0000
0110
0000
0000
0000
0000
0000
,
0010
0010
1010
1000
0001
0100
0101
0000
,
1001
0000
0000
0000
0000
0000
0000
0000
0000
0000
0000
0000
1000
0000
0100
0000
0010
0000
0001
0000
0010
0000
0100
0000
1000
0000
0000
0000
0000
0000
0000
0000
0000
0000
0000
0000
0101
0000
0000
0000
0000
0000
0000
0000
0000
0010
0000
0000
,
0000
0000
0000
0000
0000
0000
0010
0000
0000
0000
0000
0000
1000
0000
0100
0000
0010
0000
0001
0000
0000
0100
0000
0000
0000
0000
0000
0000
0000
0000
0010
0000
0000
0000
0000
0000
1010
0000
0000
0000
0000
0000
0000
0000
0000
1000
0000
0000
,
0200
0000
0000
0000
0000
0000
0310
0000
0000
0000
0000
0000
0001
0000
0100
0000
0010
0000
1000
0000
0100
0000
0010
0000
0100
0000
1000
0000
0001
0000
0010
0000
0100
0000
1000
0000
0200
0000
0000
0000
0000
0000
0000
0000
0000
2300
0000
0000
,
0000
0000
3002
0000
0403
0000
0000
0000
0310
0000
0000
0000
1000
1000
0000
0001
,
0000
0000
0000
0000
0000
0000
0100
0000
0000
0000
0000
0000
0001
0000
0100
0000
0010
0000
1000
0000
0100
0000
0010
0000
0100
0000
1000
0000
0001
0000
0100
0000
0010
0000
1000
0000
0020
0000
0000
0000
0000
0000
0000
0000
0000
0130
0000
0000
,
0001
0000
0000
0100
0000
0000
0010
1000
0100
0010
0100
1000
0001
0100
0010
1000
0100
0010
0100
1000
0001
0100
0010
1000
,
0100
0010
0001
0010
0100
1000
0001
0000
0000
0000
0000
0000
0001
0000
0000
0000
0000
0000
1001
0000
0000
0000
0000
0000
,
0010
0000
0010
0000
1010
0000
0100
0000
0001
0000
0100
0000
0010
1000
0010
1000
,
0001
0000
0000
0100
0000
0000
0010
0000
0000
0000
0000
0000
1000
0000
0100
0000
0010
0000
0001
0000
0010
0000
0100
0000
1000
0000
0001
0000
0100
0000
0010
0000
1000
0000
0100
0000
0010
0000
0001
0000
0010
0000
0100
0000
1000
0000
0001
0000
,
0100
0010
1000
0100
0010
0001
0010
0100
1000
0001
0100
0010
1000
0100
0010
0001
0010
0100
1000
0001
0100
0010
1000
0100
,
0010
0001
0010
0100
1000
0001
0100
0010
1000
0100
0010
0001
0010
0100
1000
0001
0100
0010
0100
0001
0010
0100
1000
0001
,
0100
0000
0000
0000
0000
0000
0000
0000
0010
0000
0000
0000
0000
0000
0000
0000
1000
0000
0000
0000
0000
0000
0000
0000
0010
0000
0000
0000
0000
0000
0000
0000
0100
0000
0000
0000
0000
0000
0000
0000
0001
0000
0000
0000
0000
0000
0000
0000
1000
0000
0000
0000
0000
0000
0000
0000
0010
0000
0000
0000
0000
0000
0000
0000
0100
0000
0000
0000
0000
0000
0000
0000
0001
0000
0000
0000
0000
0000
0000
0000
0100
0000
0000
0000
0000
0000
0000
0000
0010
0000
0000
0000
0000
0000
0000
0000
1000
0000
0000
0000
0000
0000
0000
0000
0100
0000
0000
0000
0000
0000
0000
0000
0010
0000
0000
0000
0000
0000
0000
0000
0001
0000
0000
0000
0000
0000
0000
0000
0010
0000
0000
0000
0000
0000
0000
0000
0100
0000
0000
0000
0000
0000
0000
0000
1000
0000
0000
0000
0000
0000
0000
0000
0001
0000
0000
0000
0000
0000
0000
0000
0100
0000
0000
0000
0000
0000
0000
0000
0010
0000
0000
0000
0000
0000
1000
0000
0000
0000
0000
0000
0010
0000
0000
0000
0000
0000
1000
0000
0000
0000
0000
0000
,
0001
0000
0000
0100
0000
0000
0000
0000
0000
0100
0000
0000
0001
0000
0100
0000
0010
0000
1000
0000
0001
0000
0010
0000
0100
0000
1000
0000
0001
0000
0100
0000
0010
0000
1000
0000
0100
0000
0010
0000
0001
0000
0010
0000
0100
0000
1000
0000
,
0001
0100
0010
1000
0100
0010
0001
0010
0100
1000
0001
0100
0010
0100
0001
0010
0100
1000
0001
0100
0010
0100
0001
0010
,
0100
1000
0001
0100
0010
0100
0001
0010
0100
1000
0001
0100
0010
1000
0100
0010
0100
1000
0001
0100
0010
1000
0100
0010
,
0100
0000
0000
0000
0000
0000
0000
0000
1000
0000
0000
0000
0000
0000
0000
0000
0001
0000
0000
0000
0000
0000
0000
0000
0010
0000
0000
0000
0000
0000
0000
0000
0100
0000
0000
0000
0000
0000
0000
0000
1000
0000
0000
0000
0000
0000
0000
0000
0001
0000
0000
0000
0000
0000
0000
0000
0100
0000
0000
0000
0000
0000
0000
0000
0010
0000
0000
0000
0000
0000
0000
0000
1000
0000
0000
0000
0000
0000
0000
0000
0001
0000
0000
0000
0000
0000
0000
0000
0100
0000
0000
0000
0000
0000
0000
0000
0010
0000
0000
0000
0000
0000
0000
0000
0000
0000
0000
0000
0000
0000
0000
0000
0000
0000
0000
0000
0000
0000
0000
0000
1000
0000
0000
0000
0000
0000
0001
0000
0000
0000
0000
0000
1000
0000
0000
0000
0000
0000
0001
0000
0000
0000
0000
0000
1000
0000
0000
0000
0000
0000
0000
0000
0000
0000
0000
0000
0000
0000
0000
0000
0000
0000
0000
0000
0000
0000
0000
0000
0010
0000
0000
0000
0000
0000
0000
0000
0000
0000
0000
0000
0000
0000
0000
0000
0000
0000
0000
0000
0000
0000
0000
0000
,
0100
0000
0000
0000
0000
0000
0000
0000
0000
0000
0000
0000
0000
0000
0000
0000
0000
0000
0000
0000
0000
0000
0000
0000
0001
0000
0000
0000
0000
0000
0000
0000
0000
0000
0000
0000
0000
0000
0000
0000
0000
0000
0000
0000
0000
0000
0000
0000
1000
0000
0000
0000
0000
0000
0000
0000
0000
0000
0000
0000
0010
0000
0000
0000
0000
0000
0000
0000
0000
0000
0000
0000
1000
0000
0000
0000
0000
0000
0000
0000
0000
0000
0000
0000
0000
0000
0000
0000
0000
0000
0000
0000
0000
0000
0000
0000
0001
0000
0000
0000
0000
0000
0100
0000
0000
0000
0000
0000
0001
0000
0000
0000
0000
0000
0100
0000
0000
0000
0000
0000
0001
0000
0000
0000
0000
0000
0000
0000
0000
0000
0000
0000
0000
0000
0000
0000
0000
0000
0000
0000
0000
0000
0000
0000
1000
0000
0000
0000
0000
0000
0000
0000
0010
0000
0000
0000
0000
0000
0000
0000
0100
0000
0000
0000
0000
0000
0000
0000
0001
0000
0000
0000
0000
0000
0000
0000
1000
0000
0000
0000
0000
0000
0000
0000
0100
0000
0000
0000
0000
0000
0000
0000
,
0010
0001
0010
0100
1000
0001
0100
0010
0100
0010
1000
0010
0100
0010
0100
0001
1000
0100
0010
0001
0010
0100
1000
0001
,
0100
0010
0100
0001
0100
0010
1000
0100
0010
0100
1000
0001
0010
0100
1000
0001
0100
0010
1000
0100
0010
0100
1000
0001
,
0100
0000
0000
0000
0000
0000
0000
0000
0010
0000
0000
0000
0000
0000
0000
0000
1000
0000
0000
0000
0000
0000
0000
0000
0100
0000
0000
0000
0000
0000
0000
0000
0010
0000
0000
0000
0000
0000
0000
0000
0100
0000
0000
0000
0000
0000
0000
0000
1000
0000
0000
0000
0000
0000
0000
0000
0001
0000
0000
0000
0000
0000
0000
0000
0100
0000
0000
0000
0000
0000
0000
0000
0010
0000
0000
0000
0000
0000
0000
0000
1000
0000
0000
0000
0000
0000
0000
0000
0100
0000
0000
0000
0000
0000
0000
0000
0010
0000
0000
0000
0000
0000
0000
0000
0100
0000
0000
0000
0000
0000
0000
0000
1000
0000
0000
0000
0000
0000
0000
0000
0001
0000
0000
0000
0000
0000
0000
0000
0100
0000
0000
0000
0000
0000
0000
0000
0010
0000
0000
0000
0000
0000
0000
0000
1000
0000
0000
0000
0000
0000
0000
0000
0000
0000
0000
0000
0000
0000
0000
0000
0000
0000
0000
0000
0000
0000
0000
0000
1000
0000
0000
0000
0000
0000
0001
0000
0000
0000
0000
0000
1000
0000
0000
0000
0000
0000
0001
0000
0000
0000
0000
0000
,
1000
0000
0000
0010
0000
0000
0000
0000
0000
0010
0000
0000
1000
0000
0001
0000
0010
0000
0100
0000
1000
0000
0100
0000
0010
0000
0001
0000
0100
0000
0010
0000
0100
0000
0001
0000
0010
0000
0100
0000
1000
0000
0001
0000
0100
0000
0010
0000
,
1000
0100
1000
0001
0010
0100
1000
0001
0100
0010
1000
0100
0010
0100
1000
0001
0010
0100
1000
0001
0100
0010
1000
0100
,
0010
0001
0010
0100
1000
0001
0100
0010
1000
0100
0010
0001
0010
0100
1000
0001
0100
0010
1000
0100
0010
0001
0010
0100
,
1000
0000
0000
0000
0000
0000
0000
0000
0001
0000
0000
0000
0000
0000
0000
0000
0100
0000
0000
0000
0000
0000
0000
0000
0010
0000
0000
0000
0000
0000
0000
0000
1000
0000
0000
0000
0000
0000
0000
0000
0100
0000
0000
0000
0000
0000
0000
0000
0010
0000
0000
0000
0000
0000
0000
0000
0001
0000
0000
0000
0000
0000
0000
0000
0010
0000
0000
0000
0000
0000
0000
0000
0100
0000
0000
0000
0000
0000
0000
0000
1000
0000
0000
0000
0000
0000
0000
0000
0001
0000
0000
0000
0000
0000
0000
0000
0100
0000
0000
0000
0000
0000
0000
0000
0000
0000
0000
0000
0000
0000
0000
0000
0000
0000
0000
0000
0000
0000
0000
0000
0001
0000
0000
0000
0000
0000
1000
0000
0000
0000
0000
0000
0001
0000
0000
0000
0000
0000
1000
0000
0000
0000
0000
0000
0001
0000
0000
0000
0000
0000
0000
0000
0000
0000
0000
0000
0000
0000
0000
0000
0000
0000
0000
0000
0000
0000
0000
0000
0100
0000
0000
0000
0000
0000
0000
0000
0000
0000
0000
0000
0000
0000
0000
0000
0000
0000
0000
0000
0000
0000
0000
0000
,
0010
0000
0000
1000
0000
0000
0001
0000
0000
0000
0000
0000
1000
0000
0100
0000
0010
0000
0001
0000
1000
0000
0100
0000
0010
0000
0001
0000
0010
0000
0100
0000
1000
0000
0001
0000
0010
0000
0100
0000
1000
0000
0010
0000
0100
0000
0001
0000
,
0100
0010
1000
0001
0100
0010
1000
0001
0100
0010
1000
0100
1000
0001
0100
0010
1000
0001
0100
0001
0010
0100
1000
0100
,
0010
0001
0010
0100
1000
0001
0100
0001
1000
0100
0010
0001
1000
0100
0010
0001
0010
0100
1000
0010
0100
0001
1000
0010
,
0100
0001
0010
0100
1000
0100
0010
0001
0010
0100
1000
0001
0100
0010
1000
0001
0010
0100
1000
0001
0100
0010
0100
0001
,
2000
0000
0000
3020
0000
0000
0130
0001
0100
0010
1000
0100
0010
0100
1000
0001
0010
0100
1000
0001
0100
0010
1000
0010
,
0100
0001
1000
0100
0010
0100
1000
0001
0100
0010
0100
0001
0010
0100
1000
0001
0100
0010
0100
0001
0010
0100
1000
0001
,
0100
0010
1000
0100
0010
0100
1000
0001
0100
0010
1000
0100
0010
0001
0010
0100
1000
0001
0100
0010
1000
0100
0010
0001
,
0010
0000
0000
0000
0000
0000
0000
0000
0100
0000
0000
0000
0000
0000
0000
0000
1000
0000
0000
0000
0000
0000
0000
0000
0001
0000
0000
0000
0000
0000
0000
0000
0100
0000
0000
0000
0000
0000
0000
0000
0010
0000
0000
0000
0000
0000
0000
0000
0100
0000
0000
0000
0000
0000
0000
0000
0001
0000
0000
0000
0000
0000
0000
0000
0010
0000
0000
0000
0000
0000
0000
0000
0100
0000
0000
0000
0000
0000
0000
0000
1000
0000
0000
0000
0000
0000
0000
0000
0001
0000
0000
0000
0000
0000
0000
0000
0100
0000
0000
0000
0000
0000
0000
0000
0000
0000
0000
0000
0000
0000
0000
0000
0000
0000
0000
0000
0000
0000
0000
0000
0010
0000
0000
0000
0000
0000
1000
0000
0000
0000
0000
0000
0001
0000
0000
0000
0000
0000
0100
0000
0000
0000
0000
0000
0020
0000
0000
0000
0000
0000
0000
0000
0000
0000
0000
0000
0000
0000
0000
0000
0000
0000
0000
0000
0000
0000
0000
0000
0000
0000
0000
0000
0000
0000
0000
0000
0000
0000
0000
0000
0000
0000
0000
0000
0000
0000
0000
0000
0000
0000
0000
0000
,
0000
0000
1030
0001
0100
0010
1000
0010
0000
0100
0000
0100
0000
0001
0000
0001
,
0000
0010
0000
0100
0000
1000
0000
0100
0000
0010
0000
0000
0000
0000
0000
0000
,
0000
0000
0001
1000
0100
0010
0001
0010
0100
1000
0000
0010
0000
0100
0000
0001
,
0100
0010
1000
0001
0000
0100
0000
0010
0000
1000
0000
0000
0000
0000
0001
1000
,
1001
0000
1000
0100
0010
0100
1000
0010
,
0100
0001
0100
0001
0100
0010
1000
0010
,
0100
0001
0100
0001
0010
0100
1000
0100
,
1000
0100
0010
0001
0100
0010
1000
0100
,
0010
0001
0000
0000
1000
0000
0010
0000
0100
0000
0000
0000
0001
0000
0010
0000
,
0001
0100
0000
0100
0010
1000
0000
1000
,
0010
0100
0000
0100
0001
0010
0000
0001
,
0100
0001
1000
0010
0100
0001
0010
0001
,
1000
0100
0010
0000
0100
0000
1000
0100
0010
0000
0001
1000
0001
0000
1000
0010
,
1000
0001
0100
0000
0010
1000
0010
1000
0010
0000
0100
0001
0100
0010
1000
0100
,
0010
0001
1000
0000
0010
0100
0001
1000
0100
0010
0100
1000
0001
0100
0010
0000
,
1000
0100
0010
0001
0010
0100
1000
0001
0100
0010
0100
0001
0010
0100
1000
0001
,
0100
0010
1000
0100
0010
0100
1000
0001
0100
0010
1000
0100
0010
0001
0010
0100
,
1000
0010
0100
0001
1000
0100
0010
0100
1000
0001
0100
0010
1000
0100
0010
0001
,
0100
0000
0000
0010
0000
0000
1000
0000
0000
0100
0000
0000
0010
0000
0000
0100
0000
0000
1000
0000
0000
0001
0000
0000
0100
0000
0000
0010
0000
0000
1000
0000
0000
0100
0000
0000
1000
0000
0100
0000
0010
0000
0001
0000
0010
0000
0100
0000
,
1000
0001
0100
0010
1000
0100
0010
0100
1000
0001
0010
0100
1000
0001
0010
0100
1000
0001
0010
0000
0000
0000
0000
0000
,
0000
0000
0000
0000
0000
0000
0001
0010
0100
1000
0001
0100
0040
0000
0000
1030
0000
0000
1010
0000
0000
0100
0000
0000
,
0001
0000
0010
0000
0100
0000
1000
0000
0100
0000
0010
0000
0001
0000
0000
0000
0000
0000
0100
0000
0000
0010
0000
0000
0100
0000
0001
0000
0100
0000
0010
0000
1000
0000
0100
0000
0020
0000
0030
0000
0000
0000
0001
0000
0000
1000
0000
0000
,
0040
0000
0000
0000
0000
0000
0000
0000
0000
0000
0000
0000
0130
0000
0000
0000
0000
0000
0001
0000
0000
1000
0000
0000
0020
0000
0000
0000
0000
0000
0030
0000
0000
0000
0000
0000
0100
0000
0001
0000
0100
0000
0010
0000
1000
0000
0100
0000
,
0010
0001
0010
0100
0000
0000
4000
0000
0000
0000
0000
0000
3001
0000
0000
0100
0000
0000
0001
0010
0100
1000
0100
0010
,
0001
0000
0000
0000
0000
0000
0000
0000
0010
0000
0000
0000
0000
0000
0000
0000
0100
0000
0000
0000
0000
0000
0000
0000
1000
0000
0000
0000
0000
0000
0000
0000
0001
0000
0000
0000
0000
0000
0000
0000
0100
0000
0000
0000
0000
0000
0000
0000
0010
0000
0000
0000
0000
0000
0000
0000
0000
0000
0000
0000
1000
0000
0000
0000
0000
0000
0000
0000
0000
0000
0000
0000
0010
0000
0000
0000
0000
0000
0000
0000
0000
0000
0000
0000
0000
0000
0000
0000
0000
0000
0000
0000
0000
0000
0000
0000
0100
0000
0000
0000
0000
0000
0001
0000
0000
0000
0000
0000
0100
0000
0000
0000
0000
0000
0001
0000
0000
0000
0000
0000
0100
0000
0000
0000
0000
0000
0000
0000
0000
0000
0000
0000
0000
0000
0000
0000
0000
0000
0000
0000
0000
0000
0000
0000
4010
0000
0000
0000
0000
0000
0000
0000
0000
0000
0000
0000
0000
0000
0000
0000
0000
0000
0000
0000
0000
0000
0000
0000
3000
0000
0000
0000
0000
0000
0000
0000
0000
0000
0000
0000
0000
0000
0000
0000
0000
0000
0000
0000
0000
0000
0000
0000
,
0004
0000
0000
0000
0000
0000
0000
0000
0000
0000
0000
0000
0000
0000
0000
0000
0000
0000
0000
0000
0000
0000
0000
0000
0403
0000
0000
0000
0000
0000
0000
0000
0000
0000
0000
0000
0000
0000
0000
0000
0000
0000
0000
0000
0000
0000
0000
0000
0310
0000
0000
0000
0000
0000
0000
0000
0000
0000
0000
0000
0000
0000
0000
0000
0000
0000
0000
0000
0000
0000
0000
0000
0010
0000
0000
0000
0000
0000
0000
0000
0000
0000
0000
0000
0000
0000
0000
0000
0000
0000
0000
0000
0000
0000
0000
0000
1000
0000
0000
0000
0000
0000
0001
0000
0000
0000
0000
0000
1000
0000
0000
0000
0000
0000
0001
0000
0000
0000
0000
0000
0100
0000
0000
0000
0000
0000
0000
0000
0000
0000
0000
0000
0010
0000
0000
0000
0000
0000
0000
0000
0000
0000
0000
0000
0100
0000
0000
0000
0000
0000
0000
0000
0010
0000
0000
0000
0000
0000
0000
0000
1000
0000
0000
0000
0000
0000
0000
0000
0100
0000
0000
0000
0000
0000
0000
0000
0010
0000
0000
0000
0000
0000
0000
0000
0100
0000
0000
0000
0000
0000
0000
0000
,
1000
0000
0000
0000
0000
0000
0010
0000
0000
0100
0000
0000
0010
0000
1000
0000
0001
0000
0100
0000
0000
0000
0000
0000
0020
0000
0000
0000
0000
0000
0030
0000
0000
0000
0000
0000
1010
0000
0000
0000
0000
0000
0000
0000
0000
0000
0000
0000
,
0100
0010
0000
0001
1000
0001
0100
0010
,
1000
0000
0000
0000
0000
0000
0010
0000
0000
0000
0000
0000
0100
0000
0001
0000
0010
0000
0100
0000
1000
0000
0100
0000
0010
0000
0001
0000
0100
0000
0010
0000
0000
0000
0000
0000
1010
0000
0000
0000
0000
0000
1000
0000
0000
0010
0000
0000
,
0100
0000
0001
0000
0010
0000
0100
0000
1000
0000
0100
0000
0020
0000
0000
0000
0000
0000
0031
0000
0000
1000
0000
0000
0002
0000
0000
0000
0000
0000
0103
0000
0000
0000
0000
0000
0101
0000
0000
0000
0000
0000
0010
0000
0000
1000
0000
0000
,
0100
0000
0010
0000
0001
0000
0010
0000
0100
0000
1000
0000
0001
0000
0000
0000
0000
0000
0010
0000
0000
0100
0000
0000
0010
0000
0100
0000
1000
0000
0001
0000
0100
0000
0010
0000
2000
0000
0000
0000
0000
0000
0000
0000
0000
0000
0000
0000
,
3001
0000
0100
0000
0010
0000
1000
0000
0100
0000
0010
0000
0004
0000
0000
0000
0000
0000
0000
0000
0000
0000
0000
0000
0003
0000
0000
0000
0000
0000
0000
0000
0000
0001
0000
0000
0400
0000
0000
0000
0000
0000
0000
0000
0000
0000
0000
0000
,
0000
0000
0000
0000
0000
0000
0000
0000
0000
0000
0000
0000
0000
0000
0000
0000
0000
0000
0000
0000
0000
0000
0000
0000
0300
0000
0000
0000
0000
0000
0000
0000
0000
0000
0000
0000
0000
0000
0000
0000
0000
0000
0000
0000
0000
0000
0000
0000
1000
0000
0000
0000
0000
0000
0000
0000
0000
0000
0000
0000
0010
0000
0000
0000
0000
0000
0000
0000
0000
0000
0000
0000
1000
0000
0000
0000
0000
0000
0000
0000
0000
0000
0000
0000
0000
0000
0000
0000
0000
0000
0000
0000
0000
0000
0000
0000
0001
0000
0000
0000
0000
0000
1000
0000
0000
0000
0000
0000
0001
0000
0000
0000
0000
0000
0100
0000
0000
0000
0000
0000
0010
0000
0000
0000
0000
0000
0000
0000
0000
0000
0000
0000
0000
0000
0000
0000
0000
0000
0000
0000
0000
0000
0000
0000
1000
0000
0000
0000
0000
0000
0000
0000
0100
0000
0000
0000
0000
0000
0000
0000
0010
0000
0000
0000
0000
0000
0000
0000
0001
0000
0000
0000
0000
0000
0000
0000
0010
0000
0000
0000
0000
0000
0000
0000
0100
0000
0000
0000
0000
0000
0000
0000
,
1000
0000
0000
0000
0000
0000
0000
0000
0000
0000
0000
0000
0000
0000
0000
0000
0000
0000
0000
0000
0000
0000
0000
0000
0040
0000
0000
0000
0000
0000
0000
0000
0000
0000
0000
0000
0000
0000
0000
0000
0000
0000
0000
0000
0000
0000
0000
0000
0000
0000
0000
0000
0000
0000
0000
0000
0000
0000
0000
0000
0000
0000
0000
0000
0000
0000
0000
0000
0000
0000
0000
0000
0130
0000
0000
0000
0000
0000
0000
0000
0000
0000
0000
0000
0000
0000
0000
0000
0000
0000
0000
0000
0000
0000
0000
0000
0001
0000
0000
0000
0000
0000
1000
0000
0000
0000
0000
0000
0100
0000
0000
0000
0000
0000
0010
0000
0000
0000
0000
0000
0001
0000
0000
0000
0000
0000
0000
0000
0000
0000
0000
0000
0010
0000
0000
0000
0000
0000
0000
0000
0000
0000
0000
0000
0100
0000
0000
0000
0000
0000
0000
0000
0000
0000
0000
0000
1000
0000
0000
0000
0000
0000
0000
0000
0000
0000
0000
0000
0100
0000
0000
0000
0000
0000
0000
0000
0010
0000
0000
0000
0000
0000
0000
0000
0001
0000
0000
0000
0000
0000
0000
0000
,
0010
0100
1000
0001
0000
0000
1001
0000
0000
0000
0000
0000
0010
0000
0000
0000
0000
0000
1010
0000
0000
0000
0000
0000
,
1000
0000
0100
0000
0000
0000
0010
0000
0001
0000
0010
0000
0100
1000
0100
1000
,
0100
0000
0020
0000
0034
0000
1003
1000
,
1000
0000
0000
0000
0000
0000
0001
0000
0100
0000
0010
0000
0100
0000
0000
0000
0000
0000
0010
0000
0000
0000
0000
0000
0100
0000
0000
0000
0000
0000
0001
0000
1000
0000
0100
0000
0010
0000
0000
0001
0000
0000
0010
0000
0000
0100
0000
0000
,
4000
0000
0000
3000
0000
0000
0001
0010
0100
1000
0100
0010
0001
0100
0010
1000
0100
0010
0001
0000
0000
0010
0000
0000
,
0100
0000
1000
0000
1001
0000
0000
0010
0000
0100
0001
0000
0001
0100
0010
0100
,
0020
0000
0000
0000
4030
0000
0000
0000
3004
0000
0000
0000
1003
0010
1000
0010
,
0400
0000
0000
0000
0000
0000
0000
0000
0000
0000
0000
0000
0301
0000
0000
0010
0000
0000
0100
0000
0000
1000
0000
0000
0100
0000
0010
0000
0001
0000
0010
0000
0100
0000
1000
0000
0001
0000
0100
0000
0010
0000
1000
0000
0100
0000
0010
0000
,
0100
1000
0001
0010
0100
1000
0001
0000
0000
0000
0000
0000
0001
0000
0000
0000
0000
0000
1001
0000
0000
0000
0000
0000
,
0010
0100
0001
1000
0010
0100
0000
0001
,
1000
0000
0000
0000
0000
0000
0001
0000
0000
0000
0000
0000
1000
0000
0010
0000
0100
0000
0001
0000
1000
0000
0100
0000
0010
0000
0100
0000
1000
0000
0001
0000
0100
0000
0010
0000
1000
0000
0000
0000
0000
0000
0000
0000
0000
0010
0000
0000
,
0000
0000
0100
0000
0201
0000
0000
0310
0000
0000
1000
0000
1001
0000
0000
0001
,
1000
0000
0000
0000
0000
0000
0010
0000
0000
0000
0000
0000
0001
0000
0100
0000
0010
0000
1000
0000
0100
0000
0010
0000
0100
0000
1000
0000
0001
0000
0100
0000
0010
0000
1000
0000
0100
0000
0000
0000
0000
0000
0000
0000
0000
0010
0000
0000
,
0000
0000
0001
0000
4004
0000
0000
3003
0001
0010
0100
1000
0100
0010
0000
0001
,
0000
0000
0000
0000
0000
0000
2000
0000
0000
0000
0000
0000
3001
0000
0010
0000
0100
0000
1000
0000
0100
0000
0010
0000
0001
0000
0000
0000
0000
0000
0000
0000
0000
0000
0000
0000
1001
0000
0000
0000
0000
0000
0000
0000
0000
0001
0000
0000
,
0100
0000
0000
0000
0000
0000
0010
0000
0000
0000
0000
0000
0010
0000
1000
0000
0100
0000
0010
0000
0100
0000
1000
0000
0001
0000
0000
0100
0000
0000
0010
0000
0000
1000
0000
0000
0100
0000
0010
0000
0001
0000
0010
0000
0100
0000
1000
0000
,
0001
0100
0010
1000
0100
0010
0001
0000
0000
0000
0000
0000
1000
0000
0000
0000
0000
0000
1001
0000
0000
0000
0000
0000
,
0010
0100
0001
1000
0001
0010
0001
1000
,
0001
0000
0000
0100
0000
0000
0001
0100
0010
1000
0100
0010
0100
1000
0001
0010
0100
1000
0001
0100
0010
0100
0001
0010
,
0100
1000
0001
0100
0010
1000
0100
0010
0100
1000
0001
0010
0100
1000
0100
0010
0100
1000
0010
0100
0001
0100
0010
0100
,
0010
0100
0001
0100
0010
1000
0010
1000
0010
0100
0010
0100
0001
0100
0010
1000
0100
0010
0001
1000
0100
0010
0100
1000
,
0001
0000
0000
0000
0000
0000
0000
0000
0100
0000
0000
0000
0000
0000
0000
0000
0010
0000
0000
0000
0000
0000
0000
0000
1000
0000
0000
0000
0000
0000
0000
0000
0100
0000
0000
0000
0000
0000
0000
0000
0010
0000
0000
0000
0000
0000
0000
0000
0001
0000
0000
0000
0000
0000
0000
0000
0010
0000
0000
0000
0000
0000
0000
0000
0100
0000
0000
0000
0000
0000
0000
0000
1000
0000
0000
0000
0000
0000
0000
0000
0001
0000
0000
0000
0000
0000
0000
0000
0010
0000
0000
0000
0000
0000
0000
0000
0001
0000
0000
0000
0000
0000
0000
0000
1000
0000
0000
0000
0000
0000
0000
0000
0100
0000
0000
0000
0000
0000
0000
0000
0010
0000
0000
0000
0000
0000
0000
0000
0001
0000
0000
0000
0000
0000
0000
0000
1000
0000
0000
0000
0000
0000
0000
0000
0100
0000
0000
0000
0000
0000
0000
0000
0000
0000
0000
0000
0000
0000
0000
0000
0000
0000
0000
0000
0000
0000
0000
0000
0010
0000
0000
0000
0000
0000
0100
0000
0000
0000
0000
0000
1000
0000
0000
0000
0000
0000
0010
0000
0000
0000
0000
0000
,
0100
0000
0000
0001
0000
0000
0000
0000
0000
0100
0000
0000
0010
0000
0100
0000
0001
0000
1000
0000
0100
0000
0010
0000
0001
0000
0010
0000
0100
0000
1000
0000
0001
0000
0100
0000
0010
0000
1000
0000
0100
0000
0010
0000
0100
0000
1000
0000
,
0001
0010
0100
1000
0001
0100
0010
1000
0100
0010
0100
1000
0001
0100
0010
0100
0001
0010
0001
1000
0100
0010
0001
0100
,
0010
0100
0001
0010
0100
1000
0001
0100
0010
1000
0100
0010
0100
1000
0001
0100
0010
1000
0100
0010
0001
0010
0100
1000
,
0001
0000
0000
0000
0000
0000
0000
0000
0100
0000
0000
0000
0000
0000
0000
0000
0010
0000
0000
0000
0000
0000
0000
0000
1000
0000
0000
0000
0000
0000
0000
0000
0100
0000
0000
0000
0000
0000
0000
0000
0010
0000
0000
0000
0000
0000
0000
0000
0001
0000
0000
0000
0000
0000
0000
0000
0010
0000
0000
0000
0000
0000
0000
0000
0100
0000
0000
0000
0000
0000
0000
0000
1000
0000
0000
0000
0000
0000
0000
0000
0001
0000
0000
0000
0000
0000
0000
0000
0100
0000
0000
0000
0000
0000
0000
0000
0010
0000
0000
0000
0000
0000
0000
0000
0000
0000
0000
0000
0000
0000
0000
0000
0000
0000
0000
0000
0000
0000
0000
0000
1000
0000
0000
0000
0000
0000
0001
0000
0000
0000
0000
0000
1000
0000
0000
0000
0000
0000
0001
0000
0000
0000
0000
0000
1000
0000
0000
0000
0000
0000
0000
0000
0000
0000
0000
0000
0000
0000
0000
0000
0000
0000
0000
0000
0000
0000
0000
0000
0000
0000
0000
0000
0000
0000
0000
0000
0000
0000
0000
0000
0000
0000
0000
0000
0000
0000
0000
0000
0000
0000
0000
0000
,
1000
0000
0000
0000
0000
0000
0001
0000
0000
0000
0000
0000
1000
0000
0000
0010
0000
0000
1000
0000
0000
0000
0000
0000
0001
0000
0000
0100
0000
0000
0001
0000
0000
0000
0000
0000
1000
0000
0010
0000
0100
0000
0001
0000
1000
0000
0100
0000
,
0010
0001
0010
0100
1000
0001
0100
0010
1000
0100
0010
0001
0010
0100
1000
0001
0100
0010
1000
0100
0010
0001
0010
0100
,
1000
0001
0100
0010
1000
0100
0010
0100
1000
0001
0010
0100
1000
0001
0010
0100
1000
0001
0010
0001
1000
0100
0010
0001
,
1000
0000
0000
0000
0000
0000
0000
0000
0010
0000
0000
0000
0000
0000
0000
0000
0100
0000
0000
0000
0000
0000
0000
0000
0010
0000
0000
0000
0000
0000
0000
0000
1000
0000
0000
0000
0000
0000
0000
0000
0010
0000
0000
0000
0000
0000
0000
0000
0100
0000
0000
0000
0000
0000
0000
0000
0001
0000
0000
0000
0000
0000
0000
0000
1000
0000
0000
0000
0000
0000
0000
0000
0100
0000
0000
0000
0000
0000
0000
0000
0010
0000
0000
0000
0000
0000
0000
0000
0001
0000
0000
0000
0000
0000
0000
0000
0010
0000
0000
0000
0000
0000
0000
0000
0100
0000
0000
0000
0000
0000
0000
0000
1000
0000
0000
0000
0000
0000
0000
0000
0001
0000
0000
0000
0000
0000
0000
0000
0100
0000
0000
0000
0000
0000
0000
0000
0010
0000
0000
0000
0000
0000
0000
0000
1000
0000
0000
0000
0000
0000
0000
0000
0000
0000
0000
0000
0000
0000
0000
0000
0000
0000
0000
0000
0000
0000
0000
0000
0001
0000
0000
0000
0000
0000
1000
0000
0000
0000
0000
0000
0001
0000
0000
0000
0000
0000
1000
0000
0000
0000
0000
0000
,
0100
0000
0000
0010
0000
0000
0000
0000
0000
0001
0000
0000
1000
0000
0010
0000
0100
0000
0001
0000
1000
0000
0100
0000
0010
0000
0001
0000
0010
0000
0100
0000
1000
0000
0001
0000
0100
0000
0010
0000
1000
0000
0100
0000
0010
0000
0001
0000
,
0010
0100
1000
0001
0100
0010
1000
0100
0010
0100
1000
0001
0100
0010
0100
0001
0010
0100
1000
0001
0100
0010
1000
0100
,
0010
0001
0010
0100
1000
0001
0100
0010
1000
0100
0010
0100
1000
0001
0100
0010
1000
0100
0010
0100
1000
0001
0100
0010
,
0100
0000
0000
0000
0000
0000
0000
0000
0001
0000
0000
0000
0000
0000
0000
0000
0010
0000
0000
0000
0000
0000
0000
0000
0100
0000
0000
0000
0000
0000
0000
0000
1000
0000
0000
0000
0000
0000
0000
0000
0001
0000
0000
0000
0000
0000
0000
0000
0100
0000
0000
0000
0000
0000
0000
0000
0010
0000
0000
0000
0000
0000
0000
0000
1000
0000
0000
0000
0000
0000
0000
0000
0100
0000
0000
0000
0000
0000
0000
0000
0010
0000
0000
0000
0000
0000
0000
0000
0001
0000
0000
0000
0000
0000
0000
0000
0100
0000
0000
0000
0000
0000
0000
0000
0000
0000
0000
0000
0000
0000
0000
0000
0000
0000
0000
0000
0000
0000
0000
0000
1000
0000
0000
0000
0000
0000
0010
0000
0000
0000
0000
0000
0100
0000
0000
0000
0000
0000
0001
0000
0000
0000
0000
0000
1000
0000
0000
0000
0000
0000
0000
0000
0000
0000
0000
0000
0000
0000
0000
0000
0000
0000
0000
0000
0000
0000
0000
0000
0010
0000
0000
0000
0000
0000
0000
0000
0000
0000
0000
0000
0000
0000
0000
0000
0000
0000
0000
0000
0000
0000
0000
0000
,
0100
0000
0000
0001
0000
0000
1000
0100
0010
0001
0010
0100
1000
0001
0100
0010
1000
0100
0010
0001
0010
0100
1000
0001
,
0100
0010
1000
0100
0010
0001
0010
0100
1000
0001
0100
0010
1000
0100
0010
0001
0010
0100
1000
0001
0100
0010
0100
0001
,
0010
0001
0010
0100
1000
0100
0010
0001
0010
0100
1000
0001
0100
0010
0100
0001
0010
0001
1000
0010
1000
0001
0100
0010
,
1000
0010
0100
0001
1000
0100
0010
0001
0010
0100
1000
0001
0010
0100
1000
0100
0010
0001
1000
0100
1000
0001
0010
0100
,
2000
3020
0130
0001
1000
0010
0100
0001
,
1000
0001
0010
0001
1000
0001
1001
0010
,
0100
0010
1010
1000
0001
0100
0101
0001
,
1000
0001
1001
0001
1000
0001
1001
0000
;

//---------------dance-double - J. Berkowitz----------------
#NOTES:
     dance-double:
     J. Berkowitz:
     Challenge:
     10:
     0.235,0.328,0.175,0.132,0.157,466.000,61.000,46.000,6.000,0.000:
00000000
00000000
00000000
00000000
,
00000000
00000000
00000000
00000000
,
00000000
00000000
00000000
00000000
,
00000000
00000000
00000000
00000000
,
00000000
00000000
00000000
00000000
,
00000000
00000000
00000000
00000000
,
00000000
00000000
00000000
00000000
,
00000000
00000000
00000000
00000000
00000000
00001000
00011000
00000000
,
00010000
00001000
00100000
00010000
10000000
00100000
01000000
10000000
,
00000000
01000000
00010000
10000000
01000000
00100000
00000000
00110000
,
00000000
00010000
01000000
00001000
00000000
00010000
00000100
00001000
,
00000000
00000000
00000000
00000000
00000001
00000000
00000000
00000000
00000100
00000000
00000010
00000000
00000100
00000001
00000000
00000000
,
00001000
00000100
00000010
00000000
00001000
00010000
00000000
00100000
,
00000000
01000000
00010000
10000000
00000000
01000000
00000000
01100000
,
00000000
00100000
00010000
01000000
00000000
00001000
00000000
00011000
,
00000000
00010000
00001000
00000010
00000000
00000001
00000000
00000100
,
00001010
00000000
00001000
00000000
00000100
00000000
00010000
00001000
,
00000000
00000000
00001000
00000000
01000000
00000000
00001000
00010000
,
00000000
00000000
00010000
00000000
00000010
00000000
00010000
00001000
,
00000000
00000000
00000000
00000000
00001000
00000000
00000000
00000000
00100000
00000000
00000000
00000000
00001000
00000000
01000000
00010000
,
01000000
00000000
00100000
00000000
10000000
00000000
00100000
00000000
01000000
00000000
00010000
00000000
10000000
00000000
00010000
00100000
,
00001000
00000000
00010000
00000000
00000100
00000000
00001000
00000000
00000001
00000000
00000100
00000000
00000010
00000000
00001000
00000010
,
00010000
00001000
00010000
00001000
00100000
00010000
00100000
01000000
10000000
00010000
10000000
00010000
01000000
00001000
00010000
00000100
,
00001000
00000000
00000000
00000100
00000000
00000000
00001000
00000000
00000000
00000100
00000000
00000000
00000010
00000000
00000001
00000000
00001000
00000000
00000100
00000000
00001000
00000000
00000001
00000000
00020000
00000000
00000000
00000000
00000000
00000000
00000000
00000000
00000000
00030000
00000000
00000000
00012000
00000000
00000000
00000000
00000000
00000000
00000000
00000000
00000000
00000000
00000000
00000000
,
00203000
00000000
00000000
00300000
00110000
00000000
00010000
00000000
02000000
00000000
00000000
03000000
01100000
00000000
00100000
10000000
,
00020000
00000000
00000000
00030000
00110000
00000000
00000000
00100000
10000000
00000000
00100000
00000000
00110000
00000000
00010000
00000000
,
00000010
00000000
00000000
00000000
00002002
00000000
00000000
00000000
00000000
00000000
00000000
00003003
00000201
00000000
00000000
00000000
,
00000000
00000000
00000310
00000000
00020020
00000000
00000000
00000000
00000000
00000000
00000000
00030030
00010000
00001000
00100000
00000000
,
00010000
10000000
00010000
10000000
00010000
00000000
00000000
00000000
01000000
00000000
00000000
00000000
00000000
00000000
00000000
00000000
00100000
00000000
00000000
00000000
10000000
00000000
00000000
00000000
01000000
00000000
00000000
00000000
00100000
00000000
00000000
00000000
,
00010000
00000000
00000000
00000000
00000000
00000000
01000000
00000000
00000000
00000000
00000000
00000000
00010000
00000000
00000000
00000000
00000000
00000000
01000000
00000000
00000000
00000000
00000000
00000000
00010000
00000000
00000000
00000000
00000000
00000000
00000000
00000000
00000000
00000000
00000000
00000000
01000000
00000000
00000000
00000000
00000000
00000000
00000000
00000000
00000000
00000000
00000000
00000000
00001000
00000000
00000000
00000000
00000000
00000000
00000000
00000000
00000000
00000000
00000000
00000000
00000000
00000000
00000000
00000000
00000000
00000000
00000000
00000000
00000000
00000000
00000000
00000000
00000000
00000000
00000000
00000000
00000000
00000000
00000000
00000000
00000000
00000000
00000000
00000000
00010000
00000000
00000000
00000000
00000000
00000000
00000000
00000000
00000000
00000000
00000000
00000000
00000000
00000000
00000000
00000000
00000000
00000000
00000000
00000000
00000000
00000000
00000000
00000000
00000000
00000000
00000000
00000000
00000000
00000000
00000000
00000000
00000000
00000000
00000000
00000000
00000100
00000000
00000000
00000000
00000000
00000000
00000000
00000000
00000000
00000000
00000000
00000000
00000100
00000000
00000000
00000000
00000000
00000000
00000000
00000000
00000000
00000000
00000000
00000000
00001000
00000000
00000000
00000000
00000000
00000000
00000000
00000000
00000100
00000000
00000000
00000000
00000000
00000000
00000000
00000000
00000010
00000000
00000000
00000000
00000000
00000000
00000000
00000000
00000001
00000000
00000000
00000000
00000000
00000000
00000000
00000000
00000000
00000000
00000000
00000000
00001000
00000000
00000000
00000000
00000000
00000000
00000000
00000000
00000000
00000000
00000000
00000000
,
00000010
00000100
00000102
00000000
00000013
00000210
00000000
00001300
,
00000010
00010000
00011000
00002000
00000000
00103000
02100000
00000000
,
23000000
00000000
00000000
30000000
10100000
00000000
00000000
00100000
00010000
00000000
00001000
00000000
00011000
00000000
00010000
00000100
,
00002000
00000000
00000000
00003000
00001010
00000000
00000000
00000010
00000001
00000000
00000010
00000000
00000100
00000000
00000001
00000000
,
00001000
00000000
00000000
00000000
00000000
00000000
00000100
00000000
00010000
00000000
00000100
00000000
00020000
00000000
00000000
00000000
00000000
00000000
00000000
00000000
00000000
00000000
00000000
00000000
00000000
00000000
00000000
00000000
00000000
00000000
00000000
00000000
00000000
00030000
00000000
00000000
00010020
00000000
00000000
00000000
00000000
00000000
00000000
00000000
00000000
00000000
00000000
00000000
,
00000000
00000000
00000000
00000130
00000002
00000000
00000000
00000000
00000000
00000000
00000000
00000000
00000013
00000100
00001000
00000000
,
00000001
00001000
00000001
00001000
00000001
00000000
00000000
00000000
00000200
00000000
00000000
00000000
00000000
00000000
00000000
00000000
00000000
00000000
00000000
00000000
00002300
00000000
00000000
00000000
00000000
00000000
00000000
00000000
00013000
00000000
00000000
00000000
,
00001000
00000000
00000000
00000000
00000000
00000000
00010000
00000000
00000000
00000000
00000000
00000000
00001000
00000000
00000000
00000000
00000000
00000000
00010000
00000000
00000000
00000000
00000000
00000000
00001000
00000000
00000000
00000000
00000000
00000000
00000000
00000000
00000000
00000000
00000000
00000000
00000000
00000000
00000000
00000000
00000000
00000000
00000000
00000000
00000000
00000000
00000000
00000000
00010000
00000000
00000000
00000000
00000000
00000000
00000000
00000000
00000000
00000000
00000000
00000000
00001000
00000000
00000000
00000000
00000000
00000000
00000000
00000000
00000000
00000000
00000000
00000000
01000000
00000000
00000000
00000000
00000000
00000000
00000000
00000000
00010000
00000000
00000000
00000000
00000000
00000000
00000000
00000000
01000000
00000000
00000000
00000000
00000000
00000000
00000000
00000000
00100000
00000000
00000000
00000000
00000000
00000000
00000000
00000000
10000000
00000000
00000000
00000000
00000000
00000000
00000000
00000000
00010000
00000000
00000000
00000000
00000000
00000000
00000000
00000000
00100000
00000000
00000000
00000000
00000000
00000000
00000000
00000000
00000000
00000000
00000000
00000000
00000000
00000000
00000000
00000000
00000000
00000000
00000000
00000000
00000000
00000000
00000000
00000000
02100000
00000000
00000000
00000000
00000000
00000000
00000000
00000000
00000000
00000000
00000000
00000000
00000000
00000000
00000000
00000000
00000000
00000000
00000000
00000000
00000000
00000000
00000000
00000000
00000000
00000000
00000000
00000000
00000000
00000000
00000000
00000000
00000000
00000000
00000000
00000000
00000000
00000000
00000000
00000000
00000000
00000000
00000000
00000000
00000000
00000000
00000000
00000000
,
23000000
00000000
00000000
30000000
10200000
00000000
00000000
00000000
01300000
00000000
00010000
00000000
00110000
00000000
00100000
00000000
,
00001000
00000000
00010000
00000000
00000010
00001000
00000010
00001000
00000100
00000000
00000000
00000000
00020100
00000000
00000000
00000000
,
00000000
00000000
00000000
00000000
00000000
00000000
00031000
00000000
00000000
00001000
00000000
00000000
00001000
00000000
00000000
00010000
00001000
00100000
00010000
00000000
00000000
00010000
00000000
00000000
,
00010000
00000000
00000000
00000000
00000000
00000000
00100000
00000000
00001000
00000000
00010000
00000000
00001000
00000000
00000000
00010000
00000000
00000000
00001000
00000000
00000000
00010000
00000000
00000000
00002000
00000000
00000000
00000000
00000000
00000000
00000000
00000000
00000000
00003000
00000000
00000000
00021000
00000000
00000000
00000000
00000000
00000000
00000000
00000000
00000000
00000000
00000000
00000000
,
00000000
00000000
00000000
00000000
00030010
00000000
00000010
00000000
00000010
00000000
00000010
00000000
00011000
00000000
00000000
00001000
,
00000000
00001000
00000010
00000000
00000001
00001000
00000001
00001000
00000010
00020000
00000000
00030000
00012000
00000000
00000000
00000000
,
00000000
00000000
00000000
00000000
00013000
00001000
00010000
00001000
01000000
00010000
00000000
01000000
00001000
00010000
00001000
00010000
,
00000100
00000000
00000000
00001000
00000000
00000000
00000100
00000000
00000000
00000000
00000000
00000000
00000110
00000000
00000000
00000000
00000000
00000000
00000010
00000000
00000001
00000000
00001000
00000000
00000100
00000000
00000010
00000000
00000100
00000000
00001000
00000000
00000001
00000000
00001000
00000000
00000010
00000000
00000000
00000000
00000000
00000000
00000000
00000000
00000000
00000000
00000000
00000000
,
00020000
00000000
00000000
00030000
00012000
00000000
00000000
00000000
00103000
00000000
00010000
00000000
10000000
00000000
00100000
00000000
,
01000000
00100000
10100000
00000000
01010000
00000000
00021000
00000000
,
00000000
00000000
00000000
00000000
00030100
00000000
00000000
00000100
00000000
00000000
00000100
00000000
00011000
00000000
00000000
01000000
,
00000000
00000000
01000000
00000000
00001000
00010000
00000000
00010000
00000100
00000000
00010000
00000000
00012000
00000000
00000000
00000000
,
00000000
00000000
00000000
00003000
01010000
00000000
00000000
01000000
00000000
00000000
01000000
00000000
00012000
00000000
00000000
00000000
,
00000000
00103000
00010000
01000000
00001000
00010000
00000000
00001100
00000000
00010000
00001000
00000000
00021000
00000000
00000000
00000000
,
00000000
00000000
00000000
00030000
00001010
00000000
00000000
00010000
00001000
00000000
00100000
00000000
00012000
00000000
00000000
00000000
,
10003000
00000000
00000000
00010000
00000000
00000000
00100000
00000000
00000000
01000000
00000000
00000000
10000000
00000000
00000000
00000000
00000000
00000000
00010000
00000000
01000000
00000000
00100000
00000000
10000000
00000000
00010000
00000000
10000000
00000000
01000000
00000000
00100000
00000000
00010000
00000000
10000000
00000000
00000000
00000000
00000000
00000000
00000000
00000000
00000000
00000000
00000000
00000000
,
00200000
00000000
00000000
00300000
02100000
00000000
00000000
00000000
03001000
00000000
00010000
00000000
00011000
00000000
00M00000
00000000
,
00000M00
00M00000
00000M00
00M00000
00000M00
00000000
00021000
00000000
,
00030020
00000000
00000000
00000030
00001010
00000000
00000000
00000000
00001000
00000000
00000100
00000000
00000010
00000000
00000000
00000000
,
00002000
00000000
00013000
00100000
01000000
00010000
00010000
00010000
,
10000000
00000000
12000000
00000000
03010000
00002000
00000100
00000000
,
00013000
00000000
00000000
00000000
00000000
00000000
00000010
00000000
00001000
00000000
00000000
00000000
00000001
00001000
00000001
00001000
00000001
00000000
00000010
00000000
00000000
00000000
00000100
00000000
00001000
00000000
00000000
00000000
00000010
00000000
00000000
00000000
,
00000100
00000000
00000101
00000000
00000001
00001000
00000100
00000000
,
00010000
00001000
01001000
00000000
01000000
00100000
00100000
00000000
,
10100000
00000000
11000000
02000000
00000000
03020000
00001000
00000000
,
00030100
00000000
00000000
00000000
00010000
00001000
00010000
00001000
00010000
00000000
00000000
00000000
00000010
00000000
00000000
00000000
00001000
00000000
00000001
00000000
00000010
00000000
00000000
00000000
00000011
00000000
00000000
00000000
00000000
00000000
00000000
00000000
,
00001100
00000000
00001010
00000010
00000100
00000001
00000010
00000100
,
00001000
00000010
00010010
00010000
00002000
00000000
00103000
00010000
,
10000000
00100000
01100000
01000000
00010000
10000000
01000000
00100000
,
00010000
01000000
01001000
00000000
00001000
00010000
00010100
00000000
,
00000011
00000000
00001001
00001000
00000010
00000100
00000001
00000010
,
00000100
00001000
00001010
00000010
00010000
00000000
00001000
00100000
,
00010000
10000000
10100000
00100000
01000000
00010000
00100000
00001000
,
00010000
00000000
00000000
00000000
00001000
00010000
00001000
00010000
00001000
00000000
00000000
00000000
00000000
00000000
00000000
00000000
00000000
00000000
00000000
00000000
00000000
00000000
00000000
00000000
00000000
00000000
00000000
00000000
00000000
00000000
00000000
00000000
;

//---------------dance-single - ----------------
#NOTES:
     dance-single:
     :
     Hard:
     12:
     0.727,0.899,0.339,0.385,0.703,1476.000,118.000,134.000,0.000,0.000:
0000
0000
0000
0000
1000
0000
0001
0000
0100
0000
0010
1000
0010
0000
0010
0000
,
0100
0000
0001
0010
0001
0000
0100
0000
0010
0000
1000
0010
0000
0000
0100
0000
,
0001
0000
0010
0001
0100
0000
0010
0000
1000
0000
0010
0100
0000
0000
0001
0000
,
0010
0000
0001
0100
0010
0000
1000
0000
0001
0000
0100
0010
0000
0000
1000
0000
,
0001
0000
0100
0000
1010
0000
1000
0010
0100
0001
0010
0001
0000
0000
0000
0100
,
0000
0010
0000
1000
0000
0010
0000
0100
0000
0001
0000
0010
0000
0000
0001
0000
,
1000
0000
0010
0100
0010
1000
0001
0000
0100
0010
1000
0020
0030
0100
0000
0001
,
0000
0000
0100
0000
0000
0000
0010
0000
0000
0000
1000
0000
0000
0000
0100
0000
0000
0000
0010
0000
0001
0000
0100
0000
0000
0000
0000
0000
0010
0000
0000
1000
,
0010
0000
1000
0000
0001
0010
0100
1000
0100
0010
0001
0100
0010
1000
0100
0010
,
0001
0010
0100
1000
0001
0100
0010
0100
0001
0010
0100
1000
0001
0100
0010
1000
,
0100
0010
0100
1000
0001
0100
0010
0100
0001
0010
0100
1000
0100
0010
0001
0010
,
0100
1000
0001
0100
0010
1000
0100
1000
0001
0010
0100
1000
0100
0010
0001
0100
,
0010
0100
0001
0010
0110
0000
0100
0000
0100
0000
1000
0000
1000
0000
0001
0000
,
0001
0000
1000
0010
1010
0000
0100
0000
0100
0000
0001
0000
0001
0000
0100
0000
,
0100
0000
0010
1000
0100
0010
0001
0010
0100
1000
0001
0100
0010
1000
0100
0010
,
0100
0000
0000
1000
0000
0000
0001
0000
0000
0100
0000
0000
0010
0000
1000
0000
0010
0000
1000
0000
0010
0000
0100
0000
0001
0000
1000
0000
0001
0000
1000
0000
0010
0000
0100
0000
0001
0000
0000
0000
0000
0000
0000
0000
0000
0000
0000
0000
,
1000
0001
2002
3003
2020
3030
0220
0330
,
0100
0010
0022
0033
0202
0303
2020
3030
,
0001
0100
0202
0303
2020
3030
1020
0030
,
1000
0020
0130
0000
2000
3002
0103
0000
,
0200
0320
4030
0000
3002
0000
0403
0000
,
0320
4030
3200
0340
,
0032
0043
0230
4300
,
3002
0000
0000
0000
0103
0020
0000
2030
,
0000
3001
0400
0000
0340
0000
4030
0000
,
3010
0100
0000
0000
0004
0000
0043
0000
,
0130
1000
0004
0000
0403
0000
0340
0000
,
0000
2030
0000
0000
0001
3002
0000
0000
,
0100
0103
0040
0000
4030
0000
3004
0000
,
0103
0010
1000
0001
0100
0001
1000
0001
,
0010
0000
0400
4300
3400
4300
3004
0403
,
0340
0000
0000
0000
4030
0000
0000
0000
3004
0000
0000
0000
0043
0000
0000
0000
0034
0000
0000
0000
1003
0000
0000
0000
0010
0000
0000
0000
0001
1000
0001
1000
,
0001
0000
1000
0000
0001
0010
0100
1000
0100
0010
0001
0100
0010
1000
0001
0010
,
0100
1000
0001
0100
0010
1000
0100
0010
0001
0010
0100
1000
0001
0100
0010
1000
,
0100
0010
0100
1000
0001
0100
0010
1000
0100
0010
0001
0010
0100
1000
0001
0100
,
0010
1000
0100
0010
0100
1000
0001
0100
0010
0100
0001
0010
0100
1000
0001
0100
,
0010
1000
0100
0010
0001
0010
0100
1000
0001
0100
0010
0100
0001
0010
0100
1000
,
0001
0100
0010
1000
0100
0010
0001
0010
0100
1000
0001
0100
0010
0100
0001
0010
,
0100
1000
0100
0010
0001
0100
0010
0100
0001
0010
0100
1000
0001
0100
0010
1000
,
0100
1000
0001
0010
0100
1000
0100
0010
0001
0100
0010
0100
0001
0010
0100
1000
,
0001
0100
0010
1000
0001
0010
0100
1000
0100
0010
0001
0100
0010
1000
0100
0010
,
0001
0010
0100
1000
0100
0010
0001
0010
0100
1000
0001
0100
0010
1000
0100
0010
,
0001
1000
0100
0010
0100
0010
0001
0010
0100
1000
0010
0000
0100
0001
1000
0100
,
0010
0000
0001
0000
1000
0000
0100
0000
0010
0000
0001
0000
0010
0000
0100
0000
1000
0000
0000
0000
0001
1000
0001
1000
0001
0000
0010
0000
0000
0000
0010
0000
,
0000
0010
0000
0010
0100
1000
0000
1000
0400
0000
0310
0000
0001
1000
0000
1000
,
0004
0000
0103
0000
0010
1000
0000
1000
0040
0000
0130
0000
0001
1000
0000
1000
,
0004
0000
0000
0000
0103
0000
0000
0000
0020
0000
0000
0000
2030
0000
0000
0000
3020
0000
0000
0000
2030
0000
0000
0000
3010
0000
0000
0000
0100
0010
0100
0010
,
0100
0010
0100
0001
0020
0000
0000
0000
0000
0000
0000
0000
0000
0000
0000
0000
,
0030
0000
0000
0000
1004
0000
0000
0000
0403
0000
0310
0000
4010
0000
3001
0100
,
0040
0000
4030
0000
3004
0000
0103
0010
4000
0000
3040
0000
0230
0300
0001
0100
,
0000
0100
0010
1000
0100
0000
0000
0000
0040
0000
0031
0000
0011
0000
0001
0100
,
0020
0000
0000
0000
0000
0000
0000
0000
0000
0000
0000
0000
1030
0000
0000
0000
0100
0000
0000
0000
0010
0000
0000
0000
0001
0000
0000
0000
0000
0000
1000
0000
0000
0000
0000
0000
0001
0000
0000
0100
0000
0000
0000
0000
0000
0010
0000
0000
,
0000
1000
0001
0000
2001
0000
3000
0000
0040
0000
0130
0000
0101
0000
0000
0000
,
0004
0000
0000
0000
0403
0000
0000
0000
0310
0000
1000
0001
0010
0000
0000
0000
,
0000
0000
0000
0000
1000
0000
0001
0000
1001
0000
0010
0010
0100
0001
0010
0001
,
0100
0100
0000
0010
2010
0000
0000
0000
3020
0000
0030
0000
1010
0000
1000
0000
,
0004
0000
0000
0000
4003
0000
0000
0000
3040
0000
0000
0000
0130
0000
0001
0100
,
0000
0000
0000
0100
0000
0000
0010
0000
0100
0000
0001
0000
0100
0000
0000
0010
0000
0000
1000
0000
0000
0000
0000
0000
0010
0000
0000
0100
0000
0000
0000
0000
0000
0001
0000
0000
1001
0000
0000
0000
0000
0000
0000
0000
0000
0000
0000
0000
,
2020
0000
0000
0000
0000
0000
0000
0000
0000
0000
0000
0000
0000
0000
0000
0000
0000
0000
0000
0000
0000
0000
0000
0000
3030
0000
0000
0000
0000
0000
0000
0000
0000
0000
0000
0000
0000
0000
0000
0000
0000
0000
0000
0000
0000
0000
0000
0000
0100
0000
0000
0000
0000
0000
0000
0000
0000
0000
0000
0000
0000
0000
0000
0000
0001
0000
0000
0000
0000
0000
0000
0000
0000
0000
0000
0000
0000
0000
0000
0000
0100
0000
0000
0000
0000
0000
0000
0000
0000
0000
0000
0000
0000
0000
0000
0000
0010
0000
0000
0000
0000
0000
0000
0000
0000
0000
0000
0000
0000
0000
0000
0000
0000
0000
0000
0000
0000
0000
0000
0000
1000
0000
0000
0000
0000
0000
0001
0000
0000
0000
0000
0000
1000
0000
0000
0000
0000
0000
0001
0000
0000
0000
0000
0000
1000
0000
0000
0000
0000
0000
0000
0000
0000
0000
0000
0000
0010
0000
0000
0000
0000
0000
0000
0000
0000
0000
0000
0000
0000
0000
0000
0000
0000
0000
0000
0000
0000
0000
0000
0000
0010
0000
0000
0000
0000
0000
0000
0000
0000
0000
0000
0000
,
0000
0010
0000
0010
4010
0000
0000
0000
3004
0000
0103
0000
0040
0000
0000
0000
,
0430
0000
0000
0000
1300
0100
0010
0001
2000
0000
3020
0000
0430
0000
0000
0000
,
0304
0003
1001
0000
0002
0003
1001
0000
,
1000
0000
1000
0000
0101
0000
0010
0000
0010
0000
1000
0000
0001
0010
0100
1000
,
0100
0000
0011
0000
0002
0003
1010
2000
,
3010
0000
0000
0000
0000
0000
0100
0000
0001
0000
0010
0000
0100
0000
0000
0000
0000
0000
1000
0000
0000
0000
0000
0000
0001
0000
0000
0000
0000
0000
1000
0000
0010
0000
0100
0000
0001
0000
0000
0100
0000
0000
0010
0000
0000
1000
0000
0000
,
0400
0000
0000
0300
0040
0000
0000
0000
0034
0000
0000
0000
2003
0000
3020
0000
,
2030
0000
3020
0000
2030
0000
3000
0010
0000
0100
0001
0000
0001
0100
0010
1000
,
0004
0000
0003
0000
4001
0000
0000
0000
3000
0000
0000
0000
0001
0100
0010
0100
,
0001
0000
0000
0000
0000
0000
0010
0000
0000
0000
0000
0000
0100
0000
0000
1000
0000
0000
0010
0000
0000
0100
0000
0000
0001
0000
0100
0000
0010
0000
1000
0000
0100
0000
0010
0000
0002
0000
0103
0000
0010
0000
1000
0000
0100
0000
0010
0000
,
0100
1000
0001
0100
0010
1000
0100
0000
0000
0000
0000
0000
0010
0000
0000
0000
0000
0000
0110
0000
0000
0000
0000
0000
,
0010
0010
1010
1000
0001
0100
0101
0000
,
1001
0000
0000
0000
4000
0000
0000
0000
3001
0000
0000
0000
0101
0000
0000
0010
,
0000
0000
0010
0000
2000
0000
0000
3100
0000
0000
0010
0000
0011
0000
0000
1000
,
0200
0000
0310
0000
0002
0000
0000
0000
0043
0000
0000
0000
0230
0000
0000
2300
,
0000
0000
3002
0000
0403
0000
0000
0000
0310
0000
0000
0000
1000
1000
0000
0001
,
0000
0000
0100
0000
0002
0000
0000
0000
0043
0000
0000
0000
0031
0000
0000
0001
,
1000
0000
0000
0000
0000
0000
0100
0000
0000
0000
0000
0000
0040
0000
0000
0000
0000
0000
0000
0000
0000
0000
0000
0000
0031
0000
0000
0000
0000
0000
0000
0000
0000
0001
0000
0000
1000
0000
0100
0000
0010
0000
0001
0000
0010
0000
0100
0000
,
1000
0001
0100
0010
1000
0100
0010
0000
0000
0000
0000
0000
0001
0000
0000
0000
0000
0000
1001
0000
0000
0000
0000
0000
,
0010
0000
0010
0000
1010
0000
0100
0000
0001
0000
0100
0000
0010
1000
0010
1000
,
0001
0100
0010
0000
2000
0000
0000
0000
3040
0000
0030
0000
1010
0000
0000
0000
,
0010
1000
2010
0000
3010
1000
0120
0000
,
1030
0100
1000
1000
0001
0010
0200
0000
,
0000
0000
0000
0000
2300
0000
0000
0000
0001
0000
0000
0000
0000
0000
0000
0000
3001
0000
0000
0000
0010
0000
0100
0000
0010
0000
0000
0000
0100
0010
0100
0010
,
0100
0001
0000
0100
0010
0000
1000
0000
0010
0000
0000
0000
4010
0000
0000
0000
,
3001
0100
0010
1000
0010
0000
4010
0000
,
3001
0100
0010
1000
0100
0000
0014
0010
,
0003
0000
0000
0000
0100
0000
0000
0000
0010
0000
0000
0000
0000
0000
0000
0000
0010
0000
0000
0000
1000
0001
1000
0001
1000
0000
0000
0000
0010
0000
0000
0000
,
0100
0000
0000
0000
0001
0000
0000
0000
1000
0000
0010
0000
1000
0000
0000
0000
0001
0100
0001
0100
0001
0000
0000
0000
0101
0000
0000
0000
0000
0000
0000
0000
,
0010
1000
0020
0000
1030
0000
1002
0000
,
0013
0100
1000
0100
0010
0000
1002
0000
,
0013
0000
0000
0000
0100
0000
0000
0000
0010
0000
0000
0000
0000
0000
0000
0000
0001
0000
0000
0000
0000
0000
0010
0000
0100
0000
0000
0000
1000
0001
1000
0001
,
1000
0010
0000
0010
0200
0000
0000
0000
2300
0000
0000
0000
3002
0000
0000
0000
,
0103
0010
1000
0010
0200
0000
0302
0000
,
0013
0001
1000
0001
0100
0010
1000
0000
,
0001
0000
0000
0000
1000
0000
0000
0000
1001
0000
0000
0000
0000
0000
0000
0000
0100
0000
0000
0000
0001
1000
0001
1000
0001
0000
0000
0000
0100
0000
0000
0000
,
0010
1000
0001
0000
2000
0000
0000
0000
3200
0000
0000
0000
0340
0000
0000
0000
,
0230
2300
3020
0430
,
0302
0000
0023
0030
0200
0000
4300
0000
,
3200
0320
0032
0043
,
0230
2300
3002
0000
0203
0000
0340
0000
,
2030
3200
0320
0034
,
0203
0320
2030
3400
,
0320
0000
0000
0000
0000
0000
0000
0000
0032
0000
0000
0000
0000
0000
0000
0000
0103
0000
0000
0000
0010
1000
0010
1000
0020
0000
0000
0000
0000
0000
0000
0000
,
0000
0000
1030
0001
0100
0010
1000
0010
0000
0100
0000
0100
0000
0001
0000
0001
,
0000
0010
0000
0100
0000
1000
0000
0100
0000
0010
0000
0000
0000
0000
0000
0000
,
0000
0000
0001
1000
0100
0010
0001
0010
0100
1000
0000
0010
0000
0100
0000
0001
,
0100
0010
1000
0001
0000
0100
0000
0010
0000
1000
0000
0000
0000
0000
0001
1000
,
1001
0000
1000
0100
0010
0100
1000
0010
,
0100
0001
0100
0001
0100
0010
1000
0010
,
0100
0001
0100
0001
0010
0100
1000
0100
,
1000
0100
0010
0001
0100
0010
1000
0100
,
0010
0001
0000
0000
1000
0000
0010
0000
0100
0000
0000
0000
0001
0000
0010
0000
,
0001
0100
0000
0100
0010
1000
0000
1000
,
0010
0100
0000
0100
0001
0010
0000
0001
,
0100
0001
1000
0010
0100
0001
0010
0001
,
1000
0100
0010
0000
0100
0000
1000
0100
0010
0000
0001
1000
0001
0000
1000
0010
,
1000
0001
0100
0000
0010
1000
0010
1000
0010
0000
0100
0001
0100
0010
1000
0100
,
0010
0001
1000
0000
0010
0100
0001
1000
0100
0010
0100
1000
0001
0100
0010
0000
,
1000
0100
0010
0001
0010
0100
1000
0001
0100
0010
0100
0001
0010
0100
1000
0001
,
0100
0010
1000
0100
0010
0100
1000
0001
0100
0010
1000
0100
0010
0001
0010
0100
,
1000
0010
0100
0001
1000
0100
0010
0100
1000
0001
0100
0010
1000
0100
0010
0001
,
0100
0000
0000
0010
0000
0000
1000
0000
0000
0100
0000
0000
0010
0000
0000
0100
0000
0000
1000
0000
0000
0001
0000
0000
0100
0000
0000
0010
0000
0000
1000
0000
0000
0100
0000
0000
1000
0000
0100
0000
0010
0000
0001
0000
0010
0000
0100
0000
,
1000
0001
0100
0010
1000
0100
0010
0100
1000
0001
0010
0100
1000
0001
0010
0100
1000
0001
0010
0000
0000
0000
0000
0000
,
0000
0000
0200
0000
0340
1030
1010
0100
,
0004
0000
0000
0000
0000
0000
0403
0000
0000
0000
0000
0000
0301
0000
0000
0000
0000
0000
0100
0000
0000
0010
0000
0000
0400
0000
0000
0000
0000
0000
0000
0000
0000
0000
0000
0000
0320
0000
0030
0000
0000
0000
0001
0000
0000
1000
0000
0000
,
0040
0000
0000
0000
0130
0000
0001
1000
0020
0000
0030
0000
2002
0000
0000
0000
,
3003
0000
4000
0000
3001
0100
0040
0000
,
0000
0000
0000
0000
0000
0000
0000
0000
1030
0000
0010
0000
1000
0000
0000
0000
0001
1000
0001
1000
0001
0000
0000
0000
4010
0000
0000
0000
3000
0000
0000
0000
,
0004
0000
0000
0000
0403
0000
0000
0000
0310
0000
0000
0000
0010
0000
0000
0000
1000
0001
1000
0001
0100
0000
0010
0000
0200
0000
0000
0000
0000
0000
0000
0000
,
1300
0000
0000
0000
0000
0000
0010
0000
0000
0100
0000
0000
0010
0000
1000
0000
0001
0000
0100
0000
0000
0000
0000
0000
0020
0000
0000
0000
0000
0000
0030
0000
0000
0000
0000
0000
1010
0000
0000
0000
0000
0000
0000
0000
0000
0000
0000
0000
,
0100
0010
0000
0001
1000
0001
0100
0010
,
1000
0000
0010
0000
2000
0000
0000
0000
3040
0000
0030
0000
1010
0000
1000
0010
,
0400
0000
0000
0000
0320
0000
0031
1000
0002
0000
0103
0000
0101
0000
0010
1000
,
0400
0000
0000
0000
0000
0000
0000
0000
0000
0000
0000
0000
0310
0000
0000
0000
0000
0000
0010
0000
0000
0100
0000
0000
1000
0000
0000
0000
0000
0000
0100
0000
0010
0000
0100
0000
2000
0000
0000
0000
0000
0000
0000
0000
0000
0000
0000
0000
,
3002
0000
0000
0000
0403
0000
0000
0000
0300
0000
0000
0001
0400
0000
0000
0000
,
0000
0000
0000
0000
0300
0000
0000
0000
1000
0000
0010
0000
1000
0000
0000
0000
0001
1000
0001
1000
0001
0000
0000
0000
4000
0000
0000
0000
0000
0000
0000
0000
,
3001
0000
0000
0000
0000
0000
0000
0000
0000
0000
0000
0000
0000
0000
0000
0000
0000
0000
0000
0000
0000
0000
0000
0000
0040
0000
0000
0000
0000
0000
0000
0000
0000
0000
0000
0000
0000
0000
0000
0000
0000
0000
0000
0000
0000
0000
0000
0000
0000
0000
0000
0000
0000
0000
0000
0000
0000
0000
0000
0000
0000
0000
0000
0000
0000
0000
0000
0000
0000
0000
0000
0000
0130
0000
0000
0000
0000
0000
0000
0000
0000
0000
0000
0000
0000
0000
0000
0000
0000
0000
0000
0000
0000
0000
0000
0000
0001
0000
0000
0000
0000
0000
1000
0000
0000
0000
0000
0000
0100
0000
0000
0000
0000
0000
0010
0000
0000
0000
0000
0000
0001
0000
0000
0000
0000
0000
0000
0000
0000
0000
0000
0000
0010
0000
0000
0000
0000
0000
0000
0000
0000
0000
0000
0000
0100
0000
0000
0000
0000
0000
0000
0000
0000
0000
0000
0000
1000
0000
0000
0000
0000
0000
0000
0000
0000
0000
0000
0000
0100
0000
0000
0000
0000
0000
0000
0000
0010
0000
0000
0000
0000
0000
0000
0000
0001
0000
0000
0000
0000
0000
0000
0000
,
0010
0100
1000
0001
0000
0000
1001
0000
0000
0000
0000
0000
0010
0000
0000
0000
0000
0000
1010
0000
0000
0000
0000
0000
,
1000
0000
0100
0000
0000
0000
0010
0000
0001
0000
0010
0000
0100
1000
0100
1000
,
0100
0000
0020
0000
0034
0000
1003
1000
,
1000
0000
0000
0000
0000
0000
0001
0000
0100
0000
0010
0000
0100
0000
0000
0000
0000
0000
0010
0000
0000
0000
0000
0000
0100
0000
0000
0000
0000
0000
0001
0000
1000
0000
0100
0000
0010
0000
0000
0001
0000
0000
0010
0000
0000
0100
0000
0000
,
4000
3000
0004
0000
0023
0000
0031
0010
,
0100
0000
1000
0000
1001
0000
0000
0010
0000
0100
0001
0000
0001
0100
0010
0100
,
0020
0000
0000
0000
4030
0000
0000
0000
3004
0000
0000
0000
1003
0010
1000
0010
,
0400
0000
0000
0000
0000
0000
0000
0000
0000
0000
0000
0000
0301
0000
0000
0010
0000
0000
0100
0000
0000
1000
0000
0000
0100
0000
0010
0000
0001
0000
0010
0000
0100
0000
1000
0000
0001
0000
0100
0000
0010
0000
1000
0000
0100
0000
0010
0000
,
0100
1000
0001
0010
0100
1000
0001
0000
0000
0000
0000
0000
0001
0000
0000
0000
0000
0000
1001
0000
0000
0000
0000
0000
,
0010
0100
0001
1000
0010
0100
0000
0001
,
1000
0000
0001
0000
4000
0000
0000
0000
3010
0000
0000
0000
1010
0000
0000
0010
,
0000
0000
0100
0000
0201
0000
0000
0310
0000
0000
1000
0000
1001
0000
0000
0001
,
1000
0000
0010
0000
2000
0000
0000
0000
3004
0000
0000
0000
0103
0000
0000
0010
,
0000
0000
1000
0000
4004
0000
0000
3003
0001
0010
0100
1000
0100
0010
0000
0001
,
0000
0000
2000
0000
3004
0000
0000
0000
0103
0000
0000
0000
1001
0000
0000
0001
,
0100
0000
0000
0000
0000
0000
0010
0000
0000
0000
0000
0000
1000
0000
0000
0000
0000
0000
0000
0000
0000
0000
0000
0000
0001
0000
0000
0100
0000
0000
0010
0000
0000
1000
0000
0000
0100
0000
0010
0000
0001
0000
0010
0000
0100
0000
1000
0000
,
0001
0100
0010
1000
0100
0010
0001
0000
0000
0000
0000
0000
1000
0000
0000
0000
0000
0000
1001
0000
0000
0000
0000
0000
,
0010
0100
0001
1000
0001
0010
0001
1000
,
0001
0100
0020
0000
4030
3000
2010
0000
,
3010
0100
0010
1000
0001
0010
0001
0001
,
0100
0010
1000
0010
0100
0001
0020
0230
,
2300
0000
0000
0000
3200
0000
0000
0000
0320
0000
0000
0000
0000
0000
0000
0000
0031
0000
0000
0000
1000
0000
0000
0000
0100
0000
0000
0000
0010
0100
0010
0100
,
0010
0001
0000
0100
0002
0000
0000
0000
0203
0000
0000
0000
0340
0000
0000
0000
,
1030
0010
0100
0001
0010
0000
0004
0000
,
1003
0010
0100
0010
1000
0000
0004
0000
,
0013
0000
0000
0000
0100
0000
0000
0000
1000
0000
0000
0000
0000
0000
0000
0000
0010
0000
0000
0000
1000
0001
1000
0001
1000
0000
0000
0000
0000
0000
0000
0000
,
1000
0000
0001
0000
1000
0010
1000
0000
0001
0100
0001
0000
2000
0000
0000
0000
,
3010
0100
0001
1000
0001
0100
0020
0000
,
1030
0001
0100
0001
0010
0001
0200
0000
,
0310
0000
0000
0000
1000
0000
0000
0000
0010
0000
0000
0000
0100
0000
0000
0000
0001
0000
0000
0000
1000
0000
0000
0000
0001
0000
0000
0000
0100
0010
0100
0010
,
0100
0010
0000
0001
0100
0000
0000
0000
0020
0000
0000
0000
1030
0000
0010
0000
,
0100
0001
1000
0001
0200
0000
0310
1000
,
0010
0100
0001
0010
0001
0100
0010
1000
,
0010
0000
0000
0000
0100
0000
0000
0000
0001
0000
0000
0000
1000
0000
0000
0000
0100
0000
0000
0000
1000
0010
0100
0001
1000
0000
0000
0000
0010
0000
0000
0000
,
0100
0001
1000
0100
0010
0001
0100
0010
,
1000
0001
0010
0100
1000
0001
0100
0010
,
1000
0100
0010
0001
0100
0001
1000
0001
,
0100
0001
0010
0001
0100
0001
1000
0000
,
2000
3020
0130
0001
1000
0010
0100
0001
,
1000
0001
0010
0001
1000
0001
1000
0010
,
0100
0010
1000
0001
0100
0001
0100
0001
,
1000
0001
1000
0001
1000
0001
0100
0000
;

//---------------dance-single - ----------------
#NOTES:
     dance-single:
     :
     Medium:
     7:
     0.374,0.437,0.193,0.302,0.042,740.000,67.000,105.000,0.000,0.000:

0000
0000
0000
0000
,
0000
0000
0000
0000
1000
0000
0001
0000
0100
0000
0010
1000
0000
0000
0001
0000
,
0100
0000
0010
0000
1000
0000
0100
0000
0010
0000
0001
0010
0000
0000
0001
0000
,
0100
0000
0010
0100
0000
0000
0010
0000
1000
0000
0010
1000
0000
0000
0001
0000
,
1000
0000
0010
0000
0100
0000
0001
0000
0010
0100
0010
0100
0000
0000
0000
0000
,
1000
0000
0001
0000
0100
0000
0010
0000
1000
0000
0001
0010
0000
0000
0001
0000
,
1000
0010
0100
0001
0010
0100
1000
0000
,
0001
0100
0010
1000
0100
0010
0000
0000
,
0001
0000
1001
0000
0010
0000
0100
0010
,
1000
0010
0100
0000
0001
0000
0010
0001
,
0010
0001
1000
0000
0010
0000
0100
0010
,
0100
0010
1000
0000
0001
0000
0010
0000
,
0001
0000
1001
0000
0001
0000
0100
0010
,
0100
0000
0110
0000
0010
0000
1000
0001
,
0100
0101
0010
1010
,
0001
0101
0011
0101
,
1001
1000
0001
0000
0100
0000
0010
0000
,
1000
0020
0000
0000
0130
0000
0001
0000
,
0010
0200
0000
0000
1300
0000
0001
0000
,
0100
0020
0000
0000
1030
0001
0000
0000
,
0100
0020
0000
0000
1030
0000
0001
0000
,
0100
0020
0000
0000
1030
0000
0001
0000
,
0010
0200
0000
0000
1300
0000
0001
0000
,
0100
0020
0000
0000
1030
0000
0001
0000
,
0100
0020
0000
0000
1030
0000
0001
0000
,
0100
0020
0000
0000
1030
0000
0001
0000
,
0010
0200
0000
0000
1300
0000
0002
0000
,
0000
0203
0000
0000
0310
2000
0000
0000
,
3001
0200
0000
0000
0010
0000
0010
0000
,
0310
1000
0002
0000
0100
0000
0100
0000
,
0103
0010
1000
0000
0001
0000
0010
0100
,
0000
1000
0000
0000
0001
0100
0000
0010
,
0000
1000
0001
0000
0100
0000
0010
0000
,
0000
1000
0000
0001
,
0000
0100
0000
0010
,
0000
1000
0000
0010
,
0000
0100
0001
0100
,
0000
0010
1000
0001
,
0000
0100
0000
0010
,
0000
0010
0000
0000
,
0000
0000
1000
0001
,
0000
0100
0010
1000
,
0000
0001
0100
0020
,
0000
1030
0001
0200
,
0000
0310
1000
0001
,
0010
0001
0100
0010
,
1000
0000
0001
1000
0001
0000
0100
0010
,
0100
1001
0000
0000
,
0000
0000
1001
0000
0001
0000
0100
0100
,
0010
0000
1000
0001
0100
0010
1000
0001
,
0010
0000
0011
0000
0002
0000
0103
0010
,
1000
0002
0000
0203
,
0000
0000
0310
1000
0001
0000
0200
0000
,
0000
0000
0310
0000
1000
0000
0001
0100
,
0010
1000
1001
0010
0100
0001
0000
0010
,
0001
0100
1001
0000
0010
0000
0100
0000
,
0001
0020
0000
0000
0031
0000
0100
0000
,
0010
1000
0001
0010
,
0100
1000
0001
0100
,
0010
1000
0100
0010
,
0001
0100
0010
1000
,
0001
0010
0100
1000
,
0001
0200
0000
0000
0000
0000
0310
0000
,
1000
0000
0001
0000
0100
0000
0010
1000
,
0010
0000
0100
0001
0100
0000
0010
1000
,
0010
0100
0101
0002
,
0000
0013
0000
0110
,
0100
0000
2002
0000
0000
3003
0010
0000
,
0000
0010
0000
0010
,
1000
0001
0100
0010
,
1000
0010
0000
0100
0001
0100
0000
0010
,
0000
1000
0002
0000
0103
0000
0010
0000
,
0000
1010
0000
0100
,
0000
0202
0303
0010
,
1000
0001
0100
0010
,
1000
2002
3003
0010
,
0000
0010
0000
2020
,
3030
0001
1000
0010
,
0100
0001
0000
0010
0001
0100
0001
1000
,
0001
0100
0001
0000
0011
0000
0001
0000
,
0100
0010
1000
0010
0100
0000
0011
0000
,
0001
0100
0001
1000
0001
0000
0012
0000
,
0003
0200
0000
0000
0310
2000
0000
0000
,
3001
0200
0000
0000
0000
0000
0000
0000
,
0310
2000
0000
0000
0000
0000
0000
0000
,
0000
0000
3001
0000
0100
0000
0010
1000
,
0000
0002
0000
0000
0103
0020
0000
2030
,
0000
3002
0000
0000
0000
0000
0103
0000
,
0010
2000
0000
0000
0000
0000
3001
0000
,
0100
0010
1000
0000
0001
0000
0000
0000
,
0001
2000
0000
0000
3001
0000
0100
0000
,
0010
0100
0000
0000
0010
0000
1000
0000
,
0001
0200
0000
0000
0310
0000
1000
0000
,
0001
0100
0010
0000
1000
0000
0020
0000
,
0130
0001
0000
0010
0100
1000
0100
0010
,
0001
0100
0010
1000
,
0010
0100
0001
0101
,
0010
1000
0010
0110
,
0001
0010
0001
1001
,
1000
0010
0100
0000
0001
0000
0011
0000
,
0001
0100
0010
1010
,
1000
0001
0100
0110
,
1000
0001
0100
0010
,
1001
0000
0000
0000
0100
0000
0010
1000
0000
0010
0000
0100
0000
0001
0000
0010
,
0000
0100
0000
1000
0000
0001
0000
0100
0000
0010
0000
0000
0000
0000
0000
0000
,
0000
0000
1000
0001
0100
0010
1000
0001
0100
0001
0000
0010
0000
0100
0000
0001
,
0010
0100
1000
0100
0000
0010
0000
0001
0000
0010
0000
0000
0000
0000
0000
0000
,
1001
0000
0001
0000
0100
0000
0010
1000
,
0010
1000
0000
0001
0100
0001
0010
0001
,
0000
0100
0000
0010
1000
0010
0000
0100
,
0001
0100
0000
0000
0010
0000
1000
0000
,
0001
0000
0010
0000
0001
0000
0100
0001
,
0000
0001
0000
1000
0001
0100
0000
0010
,
0000
1000
0000
0001
0100
0010
0000
1000
,
0001
0010
0001
1000
0001
0100
0001
0010
,
0001
0100
0001
0000
1000
0000
0010
0000
,
0100
0002
0000
0000
0103
0000
0010
0000
,
1000
0002
0000
0000
0103
0000
0010
0000
,
1000
0200
0000
0000
0310
0000
0001
0000
,
0100
0000
0010
1000
0010
0000
0100
0000
,
0001
0000
0010
0001
0010
0000
0001
0000
,
0100
0000
0010
0100
0010
0100
0001
1000
,
0001
1000
0002
0000
0203
0000
0320
0000
,
1030
0000
1001
0000
0010
0000
0100
0010
,
0100
0010
1000
0000
0001
0000
0011
0000
,
0010
1000
0001
0200
,
0000
0320
0000
2030
,
0000
3001
0100
0010
,
0000
1000
0001
0101
,
0000
0010
1000
0001
,
0100
0010
0000
1000
0001
0100
0000
0010
,
1000
0001
0100
0000
0010
0000
1010
0000
,
0000
1010
0001
0202
,
0303
0010
1000
2002
,
3003
0010
0000
0110
,
0000
0001
0010
0022
,
0033
0001
1000
2002
,
3003
0010
0100
0010
,
1000
0010
0000
0100
0001
0100
0000
0010
,
1000
0001
0200
0000
0310
0000
1001
0000
,
0000
1001
0000
1001
,
0010
0001
0000
2002
,
3003
0022
0033
2200
,
3300
0001
0100
0220
,
0330
0022
0033
2200
,
3300
0001
0100
0010
,
1000
0010
0000
0000
0100
0000
0001
0000
,
0010
0002
0000
0103
,
0000
0220
0330
2002
,
3003
0002
0003
0022
,
0033
2200
3300
0001
,
0000
0202
0303
0020
,
0030
2002
3003
0110
,
0001
0100
0010
1010
,
0010
0100
0000
0100
0001
0100
0010
1000
,
0010
1000
0002
0000
0103
0000
0010
0000
,
1000
0001
0100
0010
1000
0001
0020
0000
,
0130
0000
1000
0001
0100
0010
2000
0000
,
3001
0200
0000
0000
0310
2000
0000
0000
,
3001
0020
0000
0000
0000
0000
0000
0000
,
0130
2000
0000
0000
0000
0000
3001
0000
,
0100
0000
0010
0000
1000
0000
0001
0010
,
0000
0100
0000
0000
1000
0001
0000
0100
,
0000
0020
0000
0000
0000
0000
1030
0000
,
0001
0200
0000
0000
0000
0000
0310
0000
,
1000
0001
0000
0000
0100
0000
0020
0000
,
0000
2030
0000
0000
3001
0200
0000
0000
,
0310
2000
0000
0000
0000
0000
0000
0000
,
3001
0200
0000
0000
0000
0000
0310
0000
,
1000
0000
0001
0000
0100
0000
0010
1000
,
0000
0010
0000
0000
0100
0001
0000
0010
,
0000
0001
1000
1001
,
0010
0100
0010
0110
,
0010
0001
0010
0011
,
0001
1000
0001
1001
,
0010
0101
0010
1100
,
0001
0100
0010
1001
,
0100
0010
0010
0100
,
0010
0100
0001
1001
;
