#TITLE:Jasmine;
#SUBTITLE:(Camelrape Remix);
#ARTIST:Oli G;
#TITLETRANSLIT:;
#SUBTITLETRANSLIT:;
#ARTISTTRANSLIT:;
#CREDIT:;
#BANNER:../Jawn - ban.png;
#BACKGROUND:../Jawn - bg.png;
#LYRICSPATH:;
#CDTITLE:;
#MUSIC:Jasmine (Camelrape Remix).ogg;
#OFFSET:0.009;
#SAMPLESTART:91.348;
#SAMPLELENGTH:12.000;
#SELECTABLE:YES;
#BPMS:0.000=168.000;
#STOPS:;
#BGCHANGES:;
// cache tags:
#FIRSTBEAT:31.000;
#LASTBEAT:388.500;
#SONGFILENAME:Songs/Jimmy Jawns/Jasmine (Camelrape Remix) - [Aoreo]/Jasmine (Camelrape Remix).sm;
#HASMUSIC:1;
#HASBANNER:1;
#MUSICLENGTH:141.000;
// end cache tags

//---------------dance-single - J. Nero----------------
#NOTES:
     dance-single:
     J. Nero:
     Challenge:
     15:
     1.000,1.000,0.007,0.092,1.000,1261.000,1.000,13.000,1.000,0.000:
0000
0000
0000
0000
,
0000
0000
0000
0000
,
0000
0000
0000
0000
,
0000
0000
0000
0000
,
0000
0000
0000
0000
,
0000
0000
0000
0000
,
0000
0000
0000
0000
,
0000
0000
0000
0000
0000
0000
0000
0000
0000
0000
0000
0000
1000
0001
1000
0001
,
0200
0000
0000
0000
,
0000
0000
0000
0301
0020
0000
0000
0130
,
2000
0000
0000
0000
,
3001
0000
0200
0000
0000
0000
0000
0000
0000
0000
0000
0000
0310
1000
0010
1000
,
0200
0000
0000
0320
0000
0000
0032
0000
,
2003
0000
0000
3020
0000
0000
0230
0000
,
0302
0000
0000
0000
,
0000
0000
0000
0000
,
1003
0000
0001
0000
0100
0001
0000
1000
0100
0000
0010
0001
0000
1000
0001
0000
,
1000
0001
0100
0000
0001
1000
0000
0100
1000
0000
0001
0100
0000
0001
1000
0000
,
0100
0010
0001
0000
1000
0100
0000
1000
0001
0100
0001
1000
0100
0010
0001
1000
,
0100
1000
0001
0010
0001
1000
0100
1000
0001
0100
0001
1000
0010
0100
0010
1000
,
0001
0010
0001
1000
0010
1000
0001
0010
0100
1000
0001
0100
0001
1000
0010
1000
,
0001
0010
0100
0010
0001
1000
0010
0100
0010
1000
0001
0010
0100
1000
0001
0100
,
0001
1000
0010
1000
0100
0010
0001
1000
0100
1000
0001
0100
0001
1000
0010
0100
,
0010
1000
0001
0010
0100
0010
0001
1000
0010
0100
0010
1000
0001
0010
0100
1000
,
0010
1000
0001
0100
0001
1000
0010
0100
0010
1000
0001
0100
0001
1000
0100
0010
,
0001
1000
0100
1000
0001
0010
0100
0010
0001
1000
0010
1000
0001
0010
0100
1000
,
0010
1000
0001
0100
0001
1000
0100
0010
0100
1000
0001
1000
0001
0010
0100
1000
,
0010
0100
0010
1000
0001
0100
0001
1000
0100
0010
0100
1000
0001
0010
0100
1000
,
0010
1000
0001
0100
0001
0010
0100
1000
0010
0100
0010
1000
0001
0010
0100
1000
,
0010
1000
0100
0010
0001
0100
0010
1000
0100
0010
0001
0100
0010
1000
0100
0010
,
0001
0100
0010
1000
0100
1000
0010
0100
0001
0010
0001
0100
0010
1000
0100
1000
,
0001
0010
0100
1000
0010
1000
0001
0100
0001
0010
0100
1000
0010
1000
0001
0100
,
0001
1000
0100
0010
0100
1000
0010
0100
0001
0010
0001
1000
0100
1000
0010
0100
,
0010
1000
0001
0100
0001
0010
0100
0010
0001
0100
0010
0100
0001
0010
0100
1000
,
0001
0100
0010
0100
0001
1000
0100
0010
0100
1000
0010
1000
0001
0100
0001
1000
,
0100
0010
0001
0100
0001
1000
0010
0100
0010
1000
0001
0010
0100
1000
0010
0100
,
0010
1000
0100
1000
0001
0100
0001
1000
0100
0010
0001
0100
0010
0100
0001
1000
,
0100
0010
0100
0010
0001
0100
0010
0100
0001
1000
0100
0010
0100
1000
0010
1000
,
0001
0100
0001
1000
0001
0010
0100
1000
0001
0100
0010
0100
0001
1000
0100
1000
,
0010
1000
0001
0010
0100
0010
0001
1000
0010
0100
0001
0010
0001
1000
0010
0100
,
0010
1000
0100
0010
0001
1000
0001
0100
0010
0100
0001
1000
0100
0010
0001
1000
,
0100
1000
0001
0100
0010
0100
0001
0010
0100
0010
0001
1000
0010
1000
0001
0100
,
0001
0010
0100
1000
0010
1000
0001
0100
0001
1000
0100
0010
0001
1000
0010
0100
,
0010
1000
0001
0010
0100
0010
0001
1000
0010
1000
0001
0010
0100
0010
0100
1000
,
0010
0100
0001
1000
0010
1000
0001
0100
0001
1000
0100
0010
0001
1000
0010
1000
,
0100
0010
0001
1000
0100
1000
0001
0100
0010
0100
0001
1000
0100
0010
0100
1000
,
0010
1000
0001
0100
0001
1000
0100
1000
0010
0100
0001
1000
0001
0010
0100
1000
,
0001
0100
0001
1000
0100
0010
0001
1000
0004
0000
0000
0000
0103
0010
0100
0010
,
1000
0100
0010
0001
1000
0010
1000
0001
0010
0001
1000
0100
1000
0001
0010
0100
,
1000
0001
0010
0001
1000
0100
1000
0001
0100
0001
1000
0001
0010
0100
1000
0001
,
0100
0010
0100
0001
1000
0100
1000
0001
0100
0001
1000
0001
0010
0100
0010
0001
,
0100
0001
1000
0010
1000
0001
0010
0001
1000
0100
1000
0001
0100
0010
0100
0001
,
0010
0100
1000
0001
0100
0001
0010
0100
1000
0001
0100
0001
0010
0100
1000
0010
,
0100
0010
1000
0001
0100
0001
0010
0100
1000
0001
0100
0001
0010
0100
1000
0010
,
1000
0001
0100
0010
0100
0001
1000
0100
0010
0100
1000
0001
0100
0001
1000
0010
,
0100
0010
1000
0100
1000
0001
0100
0001
1000
0010
1000
0100
0010
0001
0100
0001
,
1000
0010
1000
0001
0010
0100
1000
0001
0010
0001
1000
0100
1000
0001
1000
0010
,
0100
0001
1000
0100
0010
0100
1000
0010
0100
0001
0010
0001
1000
0010
1000
0100
,
1000
0001
0010
0001
0100
0010
0100
0001
0010
0001
1000
0100
1000
0001
1000
0010
,
0100
0010
1000
0001
0010
0001
0100
0010
0100
0001
0010
0001
1000
0100
0010
0001
,
0100
0001
1000
0100
0010
0001
0100
0001
1000
0100
0010
0001
0100
0001
1000
0010
,
1000
0100
0010
0001
1000
0010
1000
0100
0010
0001
1000
0010
1000
0100
0010
0001
,
0100
0001
1000
0010
0100
0010
1000
0001
0010
0100
0010
0001
1000
0010
1000
0001
,
0100
0000
0001
0010
0100
0000
1000
0100
0000
1000
0001
0000
0010
0100
0010
0100
,
1000
0010
0100
0001
1000
0100
1000
0001
0100
0001
1000
0010
1000
0001
0100
0010
,
1000
0001
0100
0001
1000
0010
1000
0001
0010
0001
1000
0001
0100
0010
1000
0001
,
0010
0100
0010
0001
1000
0010
1000
0001
0010
0001
1000
0001
0100
0010
0100
0001
,
0010
0001
1000
0100
1000
0001
0100
0001
1000
0010
1000
0001
0010
0100
0010
0001
,
0100
0010
1000
0001
0010
0001
0100
0010
1000
0001
0010
0001
0100
0010
1000
0100
,
0010
0100
1000
0001
0010
0001
0100
0010
1000
0001
0010
0001
0100
0010
1000
0100
,
1000
0001
0010
0100
0010
0001
1000
0010
0100
0010
1000
0001
0010
0001
1000
0100
,
0010
0100
1000
0010
1000
0001
0010
0001
1000
0100
1000
0010
0100
0001
0010
0001
,
1000
0100
1000
0001
0100
0010
1000
0001
0100
0001
1000
0010
1000
0001
1000
0100
,
0010
0001
1000
0010
0100
0010
1000
0100
0010
0001
0100
0001
1000
0100
1000
0010
,
1000
0001
0100
0001
0010
0100
0010
0001
0100
0001
1000
0010
1000
0001
1000
0100
,
0010
0100
1000
0001
0100
0001
0010
0100
0010
0001
0100
0001
1000
0010
0100
0001
,
1000
0000
0100
0000
1000
0000
0001
0000
0010
0000
0100
0000
1000
0000
0001
0100
,
0001
0000
1000
0100
1000
0100
0010
0000
0001
0010
0100
1000
0010
0000
1000
0001
,
0100
0001
1000
0010
1000
0001
0100
0001
1000
0100
0010
0001
1000
0100
1000
0001
0100
0010
1000
0001
0100
0001
1000
0100
,
2000
0000
0000
0000
0000
0000
0000
0000
0000
0000
0000
0000
0000
0000
0000
0000
0000
0000
3000
0000
0000
0000
0000
0000
0001
0000
1000
0000
0001
0000
1000
0000
0001
0000
1000
0000
0200
0000
0000
0300
0000
0000
0000
0000
0000
0000
0000
0000
,
1000
0010
1000
0001
0010
0100
0010
0001
1000
0010
0100
0010
1000
0100
1000
0001
,
0010
0001
0100
0010
0100
0001
0010
0001
1000
0100
0010
0001
0100
0001
1000
0010
,
0100
0010
1000
0001
0010
0100
0010
0001
1000
0010
0100
0010
1000
0001
0010
0100
,
1000
0100
1000
0010
0100
0010
1000
0100
1000
0010
0100
0010
1000
0001
0010
0100
,
1000
0010
1000
0001
0100
0001
1000
0100
0010
0001
1000
0010
0100
0010
1000
0001
,
0100
0001
1000
0100
0010
0001
1000
0010
0100
0010
1000
0001
0010
0100
0010
0001
,
1000
0010
1000
0100
0010
0001
1000
0001
0100
0010
0100
0001
0010
0100
0010
0001
,
1000
0010
0100
0010
1000
0100
0010
0001
0100
0001
1000
0100
1000
0001
0010
0100
,
1000
0010
1000
0001
0010
0100
0010
0001
1000
0010
0100
0010
1000
0100
1000
0001
,
0010
0001
0100
0010
0100
0001
0010
0001
1000
0100
0010
0001
0100
0001
1000
0010
,
0100
0010
1000
0001
0010
0100
0010
0001
1000
0010
0100
0010
1000
0001
0010
0100
,
1000
0100
1000
0010
0100
0010
1000
0100
1000
0010
0100
0010
1000
0001
0010
0100
,
1000
0100
1000
0010
0100
0001
1000
0010
,
1000
0001
0100
0001
1000
0100
0010
0100
1000
0001
0100
0001
1000
0010
0100
0001
,
1000
0001
0100
0010
0100
0001
1000
0100
1000
0001
0010
0100
1000
0001
0100
0001
1000
0100
1000
0001
0100
0010
0100
0001
,
4000
0000
3004
0000
0403
0000
0300
0000
0001
0000
1000
0100
0010
0001
1000
0000
,
0000
0000
0000
0000
,
0000
00M0
0000
0000
0000
0000
0000
0000
;

//---------------dance-single - J. Nero (No 24ths)----------------
#NOTES:
     dance-single:
     J. Nero (No 24ths):
     Hard:
     14:
     1.000,1.000,0.028,0.085,1.000,1206.000,4.000,12.000,1.000,0.000:
0000
0000
0000
0000
,
0000
0000
0000
0000
,
0000
0000
0000
0000
,
0000
0000
0000
0000
,
0000
0000
0000
0000
,
0000
0000
0000
0000
,
0000
0000
0000
0000
,
0000
0000
0000
0000
0000
0000
0000
0000
0000
0000
0000
0000
1000
0001
1000
0001
,
0200
0000
0000
0000
,
0000
0000
0000
0301
0020
0000
0000
0130
,
2000
0000
0000
0000
,
3001
0000
0200
0000
0000
0000
0000
0000
0000
0000
0000
0000
0310
1000
0010
1000
,
0200
0000
0000
0320
0000
0000
0032
0000
,
2003
0000
0000
3020
0000
0000
0230
0000
,
0302
0000
0000
0000
,
0000
0000
0000
0000
,
1003
0000
0001
0000
0100
0001
0000
1000
0100
0000
0010
0001
0000
1000
0001
0000
,
1000
0001
0100
0000
0001
1000
0000
0100
1000
0000
0001
0100
0000
0001
1000
0000
,
0100
0010
0001
0000
1000
0100
0000
1000
0001
0100
0001
1000
0100
0010
0001
1000
,
0100
1000
0001
0010
0001
1000
0100
1000
0001
0100
0001
1000
0010
0100
0010
1000
,
0001
0010
0001
1000
0010
1000
0001
0010
0100
1000
0001
0100
0001
1000
0010
1000
,
0001
0010
0100
0010
0001
1000
0010
0100
0010
1000
0001
0010
0100
1000
0001
0100
,
0001
1000
0010
1000
0100
0010
0001
1000
0100
1000
0001
0100
0001
1000
0010
0100
,
0010
1000
0001
0010
0100
0010
0001
1000
0010
0100
0010
1000
0001
0010
0100
1000
,
0010
1000
0001
0100
0001
1000
0010
0100
0010
1000
0001
0100
0001
1000
0100
0010
,
0001
1000
0100
1000
0001
0010
0100
0010
0001
1000
0010
1000
0001
0010
0100
1000
,
0010
1000
0001
0100
0001
1000
0100
0010
0100
1000
0001
1000
0001
0010
0100
1000
,
0010
0100
0010
1000
0001
0100
0001
1000
0100
0010
0100
1000
0001
0010
0100
1000
,
0010
1000
0001
0100
0001
0010
0100
1000
0010
0100
0010
1000
0001
0010
0100
1000
,
0010
1000
0100
0010
0001
0100
0010
1000
0100
0010
0001
0100
0010
1000
0100
0010
,
0001
0100
0010
1000
0100
1000
0010
0100
0001
0010
0001
0100
0010
1000
0100
1000
,
0001
0010
0100
1000
0010
1000
0001
0100
0001
0010
0100
1000
0010
1000
0001
0100
,
0001
1000
0100
0010
0100
1000
0010
0100
0001
0010
0001
1000
0100
1000
0010
0100
,
0010
1000
0001
0100
0001
0010
0100
0010
0001
0100
0010
0100
0001
0010
0100
1000
,
0001
0100
0010
0100
0001
1000
0100
0010
0100
1000
0010
1000
0001
0100
0001
1000
,
0100
0010
0001
0100
0001
1000
0010
0100
0010
1000
0001
0010
0100
1000
0010
0100
,
0010
1000
0100
1000
0001
0100
0001
1000
0100
0010
0001
0100
0010
0100
0001
1000
,
0100
0010
0100
0010
0001
0100
0010
0100
0001
1000
0100
0010
0100
1000
0010
1000
,
0001
0100
0001
1000
0001
0010
0100
1000
0001
0100
0010
0100
0001
1000
0100
1000
,
0010
1000
0001
0010
0100
0010
0001
1000
0010
0100
0001
0010
0001
1000
0010
0100
,
0010
1000
0100
0010
0001
1000
0001
0100
0010
0100
0001
1000
0100
0010
0001
1000
,
0100
1000
0001
0100
0010
0100
0001
0010
0100
0010
0001
1000
0010
1000
0001
0100
,
0001
0010
0100
1000
0010
1000
0001
0100
0001
1000
0100
0010
0001
1000
0010
0100
,
0010
1000
0001
0010
0100
0010
0001
1000
0010
1000
0001
0010
0100
0010
0100
1000
,
0010
0100
0001
1000
0010
1000
0001
0100
0001
1000
0100
0010
0001
1000
0010
1000
,
0100
0010
0001
1000
0100
1000
0001
0100
0010
0100
0001
1000
0100
0010
0100
1000
,
0010
1000
0001
0100
0001
1000
0100
1000
0010
0100
0001
1000
0001
0010
0100
1000
,
0001
0100
0001
1000
0100
0010
0001
1000
0004
0000
0000
0000
0103
0010
0100
0010
,
1000
0100
0010
0001
1000
0010
1000
0001
0010
0001
1000
0100
1000
0001
0010
0100
,
1000
0001
0010
0001
1000
0100
1000
0001
0100
0001
1000
0001
0010
0100
1000
0001
,
0100
0010
0100
0001
1000
0100
1000
0001
0100
0001
1000
0001
0010
0100
0010
0001
,
0100
0001
1000
0010
1000
0001
0010
0001
1000
0100
1000
0001
0100
0010
0100
0001
,
0010
0100
1000
0001
0100
0001
0010
0100
1000
0001
0100
0001
0010
0100
1000
0010
,
0100
0010
1000
0001
0100
0001
0010
0100
1000
0001
0100
0001
0010
0100
1000
0010
,
1000
0001
0100
0010
0100
0001
1000
0100
0010
0100
1000
0001
0100
0001
1000
0010
,
0100
0010
1000
0100
1000
0001
0100
0001
1000
0010
1000
0100
0010
0001
0100
0001
,
1000
0010
1000
0001
0010
0100
1000
0001
0010
0001
1000
0100
1000
0001
1000
0010
,
0100
0001
1000
0100
0010
0100
1000
0010
0100
0001
0010
0001
1000
0010
1000
0100
,
1000
0001
0010
0001
0100
0010
0100
0001
0010
0001
1000
0100
1000
0001
1000
0010
,
0100
0010
1000
0001
0010
0001
0100
0010
0100
0001
0010
0001
1000
0100
0010
0001
,
0100
0001
1000
0100
0010
0001
0100
0001
1000
0100
0010
0001
0100
0001
1000
0010
,
1000
0100
0010
0001
1000
0010
1000
0100
0010
0001
1000
0010
1000
0100
0010
0001
,
0100
0001
1000
0010
0100
0010
1000
0001
0010
0100
0010
0001
1000
0010
1000
0001
,
0100
0000
0001
0010
0100
0000
1000
0100
0000
1000
0001
0000
0010
0100
0010
0100
,
1000
0010
0100
0001
1000
0100
1000
0001
0100
0001
1000
0010
1000
0001
0100
0010
,
1000
0001
0100
0001
1000
0010
1000
0001
0010
0001
1000
0001
0100
0010
1000
0001
,
0010
0100
0010
0001
1000
0010
1000
0001
0010
0001
1000
0001
0100
0010
0100
0001
,
0010
0001
1000
0100
1000
0001
0100
0001
1000
0010
1000
0001
0010
0100
0010
0001
,
0100
0010
1000
0001
0010
0001
0100
0010
1000
0001
0010
0001
0100
0010
1000
0100
,
0010
0100
1000
0001
0010
0001
0100
0010
1000
0001
0010
0001
0100
0010
1000
0100
,
1000
0001
0010
0100
0010
0001
1000
0010
0100
0010
1000
0001
0010
0001
1000
0100
,
0010
0100
1000
0010
1000
0001
0010
0001
1000
0100
1000
0010
0100
0001
0010
0001
,
1000
0100
1000
0001
0100
0010
1000
0001
0100
0001
1000
0010
1000
0001
1000
0100
,
0010
0001
1000
0010
0100
0010
1000
0100
0010
0001
0100
0001
1000
0100
1000
0010
,
1000
0001
0100
0001
0010
0100
0010
0001
0100
0001
1000
0010
1000
0001
1000
0100
,
0010
0100
1000
0001
0100
0001
0010
0100
0010
0001
0100
0001
1000
0010
0100
0001
,
1000
0000
0100
0000
1000
0000
0001
0000
0010
0000
0100
0000
1000
0000
0001
0100
,
0001
0000
1000
0100
1000
0100
0010
0000
0001
0010
0100
1000
0010
0000
1000
0001
,
4000
0004
0000
0000
0000
0000
0000
0000
0000
0000
0000
0000
0000
0000
0000
0000
0000
0000
0000
0000
0000
0000
0000
0000
,
3003
0000
0000
0000
0000
0000
0000
0000
4000
0000
0000
0000
3002
0003
0000
0000
,
1000
0010
1000
0001
0010
0100
0010
0001
1000
0010
0100
0010
1000
0100
1000
0001
,
0010
0001
0100
0010
0100
0001
0010
0001
1000
0100
0010
0001
0100
0001
1000
0010
,
0100
0010
1000
0001
0010
0100
0010
0001
1000
0010
0100
0010
1000
0001
0010
0100
,
1000
0100
1000
0010
0100
0010
1000
0100
1000
0010
0100
0010
1000
0001
0010
0100
,
1000
0010
1000
0001
0100
0001
1000
0100
0010
0001
1000
0010
0100
0010
1000
0001
,
0100
0001
1000
0100
0010
0001
1000
0010
0100
0010
1000
0001
0010
0100
0010
0001
,
1000
0010
1000
0100
0010
0001
1000
0001
0100
0010
0100
0001
0010
0100
0010
0001
,
1000
0010
0100
0010
1000
0100
0010
0001
0100
0001
1000
0100
1000
0001
0010
0100
,
1000
0010
1000
0001
0010
0100
0010
0001
1000
0010
0100
0010
1000
0100
1000
0001
,
0010
0001
0100
0010
0100
0001
0010
0001
1000
0100
0010
0001
0100
0001
1000
0010
,
0100
0010
1000
0001
0010
0100
0010
0001
1000
0010
0100
0010
1000
0001
0010
0100
,
1000
0100
1000
0010
0100
0010
1000
0100
1000
0010
0100
0010
1000
0001
0010
0100
,
1000
0100
1000
0010
0100
0001
1000
0010
,
1000
0001
0100
0001
1000
0100
0010
0100
1000
0001
0100
0001
1000
0010
0100
0001
,
4000
0004
0000
0000
0000
0000
0000
0000
0000
0000
0000
0000
0000
0000
0000
0000
0000
0000
0000
0000
0000
3003
0000
0000
,
4000
0000
3004
0000
0403
0000
0300
0000
0001
0000
1000
0100
0010
0001
1000
0000
,
0000
0000
0000
0000
,
0000
00M0
0000
0000
0000
0000
0000
0000
;
